<?xml version="1.0" standalone="no"?>
<!DOCTYPE svg PUBLIC "-//W3C//DTD SVG 1.1//EN" "http://www.w3.org/Graphics/SVG/1.1/DTD/svg11.dtd" >
<svg>
<metadata>
Created by FontForge 20120731 at Sun Jul 23 10:54:58 2023
 By www
Copyright (c) 2009 Typodermic Fonts. This font is not freely distributable. Visit typodermic.com for more information.
</metadata>
<defs>
<font id="MaquiW00-Extralight" horiz-adv-x="391" >
  <font-face 
    font-family="MaquiW00-Extralight"
    font-weight="250"
    font-stretch="normal"
    units-per-em="1000"
    panose-1="2 11 3 6 3 6 2 2 0 4"
    ascent="800"
    descent="-200"
    x-height="492"
    cap-height="664"
    bbox="-186 -246 796 908"
    underline-thickness="50"
    underline-position="-125"
    unicode-range="U+0017-F8FF"
  />
<missing-glyph horiz-adv-x="678" 
d="M151 -241q-114 0 -114 99v799q0 100 114 100h374q116 0 116 -100v-799q0 -99 -116 -99h-374zM321 24l-187 50l-45 -167l188 -49zM336 130q4 16 13 25t20.5 15t25 9.5t26.5 7.5q29 9 50 21.5t37.5 34t29.5 54.5t27 83q8 29 12.5 55t4.5 49q0 49 -26 83t-64.5 55
t-83.5 30.5t-84 9.5q-54 0 -94 -28t-59 -97l-21 -77l175 -48l20 72q3 11 15 11t22.5 -6t10.5 -17l-24 -87q-4 -15 -12.5 -23.5t-21 -14t-27.5 -9.5t-33 -10q-48 -17 -70.5 -52t-35.5 -86l-12 -46l171 -44z" />
    <glyph glyph-name="copyright" unicode="&#x28;C&#x29;" horiz-adv-x="488" 
d="M452 145q0 -47 -17 -78t-45.5 -49.5t-66.5 -26.5t-80 -8q-44 0 -82 8t-66 26.5t-43.5 49.5t-15.5 78v373q0 46 15.5 77.5t43.5 50t66 26.5t82 8q42 0 80 -8t66.5 -26.5t45.5 -50t17 -77.5v-373zM431 518q0 40 -15 67t-40.5 43t-60 23t-72.5 7q-39 0 -73 -7t-59 -23
t-39.5 -43t-14.5 -67v-373q0 -41 14.5 -68t39.5 -43t59 -23t73 -7q38 0 72.5 7t60 23t40.5 43t15 68v373zM300 311h20v-58q0 -43 -20 -58.5t-52 -15.5q-33 0 -56.5 15.5t-23.5 58.5v168q0 42 23.5 57.5t56.5 15.5q32 0 52 -15.5t20 -57.5v-60h-20v58q0 31 -14 42.5t-38 11.5
q-25 0 -42 -11.5t-17 -42.5v-165q0 -32 17 -43.5t42 -11.5q23 0 37.5 11.5t14.5 43.5v57z" />
    <glyph glyph-name="registered" unicode="&#x28;R&#x29;" horiz-adv-x="488" 
d="M452 145q0 -47 -17 -78t-45.5 -49.5t-66.5 -26.5t-80 -8q-44 0 -82 8t-66 26.5t-43.5 49.5t-15.5 78v373q0 46 15.5 77.5t43.5 50t66 26.5t82 8q42 0 80 -8t66.5 -26.5t45.5 -50t17 -77.5v-373zM431 518q0 40 -15 67t-40.5 43t-60 23t-72.5 7q-40 0 -74 -7t-59 -23
t-39 -43t-14 -67v-373q0 -41 14 -68t39 -43t59 -23t74 -7q38 0 72.5 7t60 23t40.5 43t15 68v373zM305 187v93q0 6 -1.5 14.5t-6.5 16t-14 13t-25 5.5h-66v-142h-21v300h103q16 0 26 -6.5t16 -16.5t8 -23t2 -26q0 -10 -1.5 -22.5t-6.5 -24t-13.5 -19.5t-23.5 -10
q28 -4 36.5 -23t8.5 -38v-91h-21zM192 347h66q16 0 25 7t14 17t6.5 21t1.5 19q0 20 -7 38.5t-29 18.5h-77v-121z" />
    <glyph glyph-name="uni2117" unicode="&#x28;P&#x29;" horiz-adv-x="488" 
d="M452 145q0 -47 -17 -78t-45.5 -49.5t-66.5 -26.5t-80 -8q-44 0 -82 8t-66 26.5t-43.5 49.5t-15.5 78v373q0 46 15.5 77.5t43.5 50t66 26.5t82 8q42 0 80 -8t66.5 -26.5t45.5 -50t17 -77.5v-373zM431 518q0 40 -15 67t-40.5 43t-60 23t-72.5 7q-39 0 -73 -7t-59 -23
t-39.5 -43t-14.5 -67v-373q0 -41 14.5 -68t39.5 -43t59 -23t73 -7q38 0 72.5 7t60 23t40.5 43t15 68v373zM171 187v300h94q39 0 51.5 -22t12.5 -73t-12.5 -73.5t-51.5 -22.5h-73v-109h-21zM262 314q29 0 37.5 18.5t8.5 58.5q0 42 -8.5 59.5t-37.5 17.5h-70v-154h70z" />
    <glyph glyph-name=".notdef" horiz-adv-x="678" 
d="M151 -241q-114 0 -114 99v799q0 100 114 100h374q116 0 116 -100v-799q0 -99 -116 -99h-374zM321 24l-187 50l-45 -167l188 -49zM336 130q4 16 13 25t20.5 15t25 9.5t26.5 7.5q29 9 50 21.5t37.5 34t29.5 54.5t27 83q8 29 12.5 55t4.5 49q0 49 -26 83t-64.5 55
t-83.5 30.5t-84 9.5q-54 0 -94 -28t-59 -97l-21 -77l175 -48l20 72q3 11 15 11t22.5 -6t10.5 -17l-24 -87q-4 -15 -12.5 -23.5t-21 -14t-27.5 -9.5t-33 -10q-48 -17 -70.5 -52t-35.5 -86l-12 -46l171 -44z" />
    <glyph glyph-name=".null" horiz-adv-x="0" 
 />
    <glyph glyph-name="nonmarkingreturn" horiz-adv-x="333" 
 />
    <glyph glyph-name="glyph397" horiz-adv-x="0" 
 />
    <glyph glyph-name="glyph397" horiz-adv-x="0" 
 />
    <glyph glyph-name="uni0017" horiz-adv-x="182" 
 />
    <glyph glyph-name="space" unicode=" " horiz-adv-x="182" 
 />
    <glyph glyph-name="exclam" unicode="!" horiz-adv-x="155" 
d="M61 0v146h34v-146h-34zM66 198q-3 61 -5.5 113.5t-4 101.5t-2.5 97t-1 99q0 16 1 30t3 25h41q2 -11 3 -25t1 -30q0 -51 -1 -99t-2.5 -97t-4 -101.5t-5.5 -113.5h-23z" />
    <glyph glyph-name="quotedbl" unicode="&#x22;" horiz-adv-x="240" 
d="M47 414v250h24v-250h-24zM167 414v250h24v-250h-24z" />
    <glyph glyph-name="numbersign" unicode="#" horiz-adv-x="482" 
d="M244 0l41 220h-133l-41 -220h-27l42 220h-102l3 25h103l33 175h-115l3 25h117l42 219h26l-42 -219h134l42 219h27l-42 -219h103l-3 -25h-105l-33 -175h116l-2 -25h-119l-41 -220h-27zM323 420h-133l-34 -175h134z" />
    <glyph glyph-name="dollar" unicode="$" horiz-adv-x="407" 
d="M192 0v74q-30 0 -58 5.5t-49.5 19t-35 37.5t-13.5 61v55h28v-50q0 -32 11 -51.5t29.5 -31t42.5 -15.5t51 -4q30 0 56 4.5t45.5 17.5t30.5 36.5t11 61.5q0 44 -22.5 66.5t-56.5 34.5t-73.5 19t-73.5 20.5t-56.5 38.5t-22.5 73q0 36 13.5 59.5t35.5 37t50 19.5t57 7v69h24
v-69q27 0 53.5 -4.5t47.5 -16.5t33.5 -34t12.5 -56v-46h-27v44q0 28 -10.5 45t-28.5 26.5t-41 12.5t-48 3q-26 0 -52 -3.5t-46 -13.5t-32.5 -28.5t-12.5 -49.5q0 -41 23 -62t56.5 -33t71.5 -18.5t68 -16.5q45 -16 65.5 -43t20.5 -79q0 -40 -9.5 -67t-29 -44t-48.5 -25.5
t-67 -11.5v-74h-24z" />
    <glyph glyph-name="percent" unicode="%" horiz-adv-x="527" 
d="M35 602q0 46 26 63.5t64 17.5q36 0 62.5 -17.5t26.5 -63.5v-187q0 -46 -26.5 -63.5t-62.5 -17.5q-38 0 -64 17.5t-26 63.5v187zM188 602q0 35 -17 47t-46 12q-30 0 -47 -12t-17 -47v-187q0 -34 17 -46.5t47 -12.5q29 0 46 12.5t17 46.5v187zM45 -20l398 704h30l-398 -704
h-30zM312 249q0 46 26 63.5t64 17.5q36 0 62.5 -17.5t26.5 -63.5v-187q0 -46 -26.5 -63.5t-62.5 -17.5q-38 0 -64 17.5t-26 63.5v187zM465 249q0 35 -17 47t-46 12q-30 0 -47 -12t-17 -47v-187q0 -34 17 -46.5t47 -12.5q29 0 46 12.5t17 46.5v187z" />
    <glyph glyph-name="ampersand" unicode="&#x26;" horiz-adv-x="477" 
d="M441 0l-91 93q-17 -32 -36.5 -53.5t-41 -34t-45.5 -17.5t-51 -5q-26 0 -51.5 8t-45.5 25.5t-32.5 44t-12.5 63.5v38q0 30 5 53.5t16.5 42.5t30.5 34t47 28q-20 21 -35.5 39.5t-25.5 37.5t-15 40t-5 48v34q0 45 7.5 76t24.5 49.5t45 27t70 8.5t68.5 -8.5t42 -28t21 -51.5
t5.5 -78v-27q0 -28 -5.5 -50.5t-22.5 -42.5t-48.5 -40t-82.5 -42l167 -171l87 179h31l-98 -201l114 -119h-37zM309 515q0 38 -4 64.5t-15.5 43t-33 23.5t-56.5 7t-58.5 -7t-37 -23t-19 -41t-5.5 -62v-34q0 -24 4.5 -43.5t14.5 -37t25 -35.5t35 -39q48 21 77.5 38.5t45.5 35
t21.5 35.5t5.5 40v35zM151 301q-24 -11 -40.5 -23t-27 -28t-15.5 -36.5t-5 -48.5v-40q0 -31 10 -52.5t26.5 -35.5t37.5 -20.5t43 -6.5q43 0 81.5 22.5t69.5 82.5z" />
    <glyph glyph-name="quotesingle" unicode="'" horiz-adv-x="120" 
d="M47 414v250h24v-250h-24z" />
    <glyph glyph-name="parenleft" unicode="(" horiz-adv-x="274" 
d="M258 -143q-91 94 -137.5 208.5t-46.5 235.5q0 115 43.5 224t140.5 203h30q-96 -102 -137 -208t-41 -220q0 -118 44 -229.5t135 -213.5h-31z" />
    <glyph glyph-name="parenright" unicode=")" horiz-adv-x="274" 
d="M-16 -143q91 102 135.5 213.5t44.5 229.5q0 113 -41.5 220t-137.5 208h31q97 -94 140 -203t43 -224q0 -121 -46 -235.5t-137 -208.5h-32z" />
    <glyph glyph-name="asterisk" unicode="*" horiz-adv-x="417" 
d="M304 338l-96 133l-95 -134l-20 14l98 133l-156 49l8 22l152 -51v165h24v-165l154 52l8 -23l-156 -49l99 -133z" />
    <glyph glyph-name="plus" unicode="+" horiz-adv-x="540" 
d="M255 124v208h-207v27h207v207h28v-207h207v-27h-207v-208h-28z" />
    <glyph glyph-name="comma" unicode="," horiz-adv-x="247" 
d="M118 151h35l-12 -141q-2 -23 -5.5 -46t-9 -42.5t-13.5 -32t-20 -13.5z" />
    <glyph glyph-name="hyphen" unicode="-" horiz-adv-x="326" 
d="M47 300v24h232v-24h-232z" />
    <glyph glyph-name="period" unicode="." horiz-adv-x="173" 
d="M69 0v151h35v-151h-35z" />
    <glyph glyph-name="slash" unicode="/" horiz-adv-x="278" 
d="M0 0l250 664h28l-252 -664h-26z" />
    <glyph glyph-name="zero" unicode="0" horiz-adv-x="425" 
d="M36 518q0 46 13.5 77.5t37.5 50t56 26.5t69 8q36 0 68 -8t56 -26.5t38 -50t14 -77.5v-373q0 -47 -14 -78t-38 -49.5t-56 -26.5t-68 -8q-37 0 -69 8t-56 26.5t-37.5 49.5t-13.5 78v373zM357 518q0 39 -11 65t-30.5 41.5t-46 22t-57.5 6.5q-32 0 -59 -6.5t-46.5 -22
t-30 -41.5t-10.5 -65v-373q0 -39 10.5 -65t30 -41.5t46.5 -22t59 -6.5q31 0 57.5 6.5t46 22t30.5 41.5t11 65v373z" />
    <glyph glyph-name="one" unicode="1" horiz-adv-x="264" 
d="M193 0v509q0 39 -11 64.5t-30.5 41t-45.5 22t-56 6.5q-6 0 -11.5 -0.5t-10.5 -1.5v29q5 1 10.5 1.5t11.5 0.5q36 0 67.5 -7.5t55.5 -26.5t37.5 -50t13.5 -77v-511h-31z" />
    <glyph glyph-name="two" unicode="2" horiz-adv-x="407" 
d="M40 0v184q0 31 5.5 55t16 42t26.5 31.5t37 24.5q19 10 41 16t44.5 12t45 14.5t41.5 23.5q26 20 34 43t8 56q0 35 -4.5 63t-18.5 47.5t-40.5 30t-70.5 10.5q-26 0 -49.5 -3.5t-42 -14.5t-29.5 -31t-11 -53v-57h-27v58q0 39 12.5 63.5t34.5 39t50 20t60 5.5q46 0 77 -9
t50.5 -29t28 -51t8.5 -75q0 -48 -10 -80t-44 -56q-15 -11 -36 -19.5t-44.5 -16t-48.5 -15.5t-47 -18q-24 -11 -37.5 -26t-20 -32t-8 -35t-1.5 -34v-157h294v-27h-324z" />
    <glyph glyph-name="three" unicode="3" horiz-adv-x="399" 
d="M335 199q0 63 -24.5 94.5t-81.5 31.5h-80v26h81q51 0 76 36t25 97v33q0 39 -10 65.5t-28.5 42t-44.5 22t-58 6.5q-31 0 -55 -6.5t-41 -22.5t-26 -42.5t-9 -66.5v-55h-28v58q0 46 11 77.5t31.5 50t50 26.5t66.5 8q38 0 69.5 -8t54 -26.5t34.5 -50t12 -77.5v-34
q0 -63 -24 -101t-75 -45q104 -11 104 -139v-54q0 -46 -13 -77t-36.5 -50t-55.5 -27t-70 -8q-37 0 -66.5 8t-50 26.5t-31.5 49.5t-11 78v60h28v-58q0 -40 9 -66.5t26 -42t41.5 -22t54.5 -6.5q32 0 59 6.5t46 22t29.5 41.5t10.5 65v54z" />
    <glyph glyph-name="four" unicode="4" horiz-adv-x="368" 
d="M294 0v146h-269v31l237 487h30l-240 -491h243v194h28v-367h-29z" />
    <glyph glyph-name="five" unicode="5" horiz-adv-x="412" 
d="M342 227q0 66 -27.5 97.5t-94.5 31.5q-28 0 -47.5 -2t-35 -7t-30 -15t-32.5 -26h-26l19 358h286v-27h-257l-18 -303q15 13 29 22t30.5 15t37 8.5t49.5 2.5q82 0 114.5 -38.5t32.5 -116.5v-82q0 -47 -13 -78t-36 -49.5t-55 -26.5t-70 -8q-36 0 -65.5 8t-50 26.5t-32 49.5
t-11.5 78v60h27v-58q0 -40 9.5 -66.5t27 -42t41.5 -22t54 -6.5q34 0 61 6.5t45.5 22t28 42t9.5 66.5v80z" />
    <glyph glyph-name="six" unicode="6" horiz-adv-x="424" 
d="M389 139q0 -45 -14 -75t-37.5 -48t-55.5 -25.5t-68 -7.5q-37 0 -69.5 7.5t-56.5 25.5t-38 48t-14 75v378q0 47 13.5 78.5t37 50t55.5 26.5t70 8q37 0 67.5 -8t53 -26.5t35 -50t12.5 -78.5v-39h-30v39q0 39 -10 65.5t-28 42t-43.5 22t-56.5 6.5q-32 0 -58.5 -6.5t-46 -22
t-30.5 -42t-11 -65.5v-202q16 61 54.5 82t98.5 21q34 0 65 -6t54.5 -23.5t37 -48t13.5 -79.5v-122zM358 257q0 41 -11 67.5t-30.5 41.5t-46.5 20.5t-58 5.5q-28 0 -52 -5.5t-43 -20t-32 -39t-19 -61.5v-127q0 -38 10.5 -62.5t30 -39.5t46.5 -21t59 -6q31 0 57.5 6t46 21
t31 39.5t11.5 62.5v118z" />
    <glyph glyph-name="seven" unicode="7" horiz-adv-x="368" 
d="M135 0q1 91 15.5 183.5t38.5 176.5t55.5 155.5t66.5 120.5h-289v28h317v-27q-36 -51 -67.5 -123t-55 -156t-37 -176t-13.5 -182h-31z" />
    <glyph glyph-name="eight" unicode="8" horiz-adv-x="421" 
d="M386 145q0 -46 -13 -77t-36.5 -50t-56 -27t-70.5 -8t-70.5 8t-56 27t-36.5 50t-13 77v54q0 128 104 139q-49 7 -74 45t-25 101v34q0 46 12.5 77.5t35 50t54 26.5t69.5 8t69.5 -8t54 -26.5t35 -50t12.5 -77.5v-27q0 -64 -23.5 -104.5t-75.5 -48.5q104 -11 104 -139v-54z
M356 199q0 67 -27.5 96.5t-93.5 29.5h-49q-66 0 -94 -28.5t-28 -97.5v-54q0 -39 11 -65t30.5 -41.5t46 -22t58.5 -6.5t59 6.5t46.5 22t30 41.5t10.5 65v54zM352 517q0 39 -10 65.5t-28.5 42t-45 22t-58.5 6.5t-58 -6.5t-45 -22t-29 -42t-10 -65.5v-33q0 -41 8.5 -66.5
t26.5 -40.5t44.5 -20.5t62.5 -5.5t63 5.5t44.5 20.5t26 40.5t8.5 66.5v33z" />
    <glyph glyph-name="nine" unicode="9" horiz-adv-x="420" 
d="M354 356q-16 -60 -55 -81.5t-99 -21.5q-35 0 -65.5 6.5t-53.5 23.5t-36.5 48t-13.5 80v113q0 45 14 75t37.5 48t55.5 25.5t68 7.5q37 0 69.5 -7.5t56.5 -25.5t38 -48t14 -75v-379q0 -47 -13.5 -78t-37 -50t-56 -26.5t-70.5 -7.5q-36 0 -67 7.5t-53 26.5t-34.5 50
t-12.5 78v49h29v-49q0 -39 10 -65t28.5 -41.5t44 -22t55.5 -6.5q32 0 59 6.5t46.5 22t30.5 41.5t11 65v211zM354 524q0 37 -10.5 62t-30 40t-46.5 21t-59 6q-31 0 -57.5 -6t-46.5 -21t-31.5 -40t-11.5 -62v-110q0 -41 11 -67t30.5 -41t46 -20.5t58.5 -5.5q28 0 52.5 5.5
t43.5 20t32 38.5t19 62v118z" />
    <glyph glyph-name="colon" unicode=":" horiz-adv-x="224" 
d="M94 0v151h35v-151h-35zM94 339v150h35v-150h-35z" />
    <glyph glyph-name="semicolon" unicode=";" horiz-adv-x="247" 
d="M119 339v150h35v-150h-35zM118 151h35l-12 -141q-2 -23 -5.5 -46t-9 -42.5t-13.5 -32t-20 -13.5z" />
    <glyph glyph-name="less" unicode="&#x3c;" horiz-adv-x="540" 
d="M48 329v27l442 234v-31l-411 -216l411 -216v-31z" />
    <glyph glyph-name="equal" unicode="=" horiz-adv-x="540" 
d="M48 429v27h442v-27h-442zM48 230v27h442v-27h-442z" />
    <glyph glyph-name="greater" unicode="&#x3e;" horiz-adv-x="540" 
d="M48 96v31l412 216l-412 216v31l442 -234v-27z" />
    <glyph glyph-name="question" unicode="?" horiz-adv-x="370" 
d="M155 209v28q0 18 3 32t12.5 27t26.5 27t46 33q23 15 38 29.5t24 32t12.5 38t3.5 47.5q0 38 -5.5 66t-20.5 47t-41.5 28t-68.5 9q-30 0 -54.5 -5.5t-42 -19.5t-27.5 -38t-10 -60v-64h-28v64q0 44 11.5 73t32.5 46t51 24t67 7q50 0 82 -11t50.5 -32.5t25.5 -53.5t7 -75
q0 -34 -4 -59t-14 -44t-25.5 -34.5t-39.5 -30.5q-27 -18 -43.5 -31t-25.5 -24.5t-12 -23t-3 -25.5v-27h-28zM152 0v146h34v-146h-34z" />
    <glyph glyph-name="at" unicode="@" horiz-adv-x="509" 
d="M172 -102q-28 0 -52.5 6t-43 20.5t-29.5 38.5t-11 60v461q0 36 11 60t29.5 38.5t43 20.5t52.5 6h165q28 0 52.5 -6t43 -20.5t29.5 -38.5t11 -60v-374q-21 -8 -53 -15.5t-86 -7.5q-29 0 -53.5 6.5t-42.5 21.5t-28 40.5t-10 63.5v76q0 42 10 67.5t27.5 40t41.5 19.5t51 5
q45 0 72 -10t46 -25v90q0 29 -9 48.5t-24 31.5t-35.5 17t-42.5 5h-165q-23 0 -43 -5t-35 -17t-24 -31.5t-9 -48.5v-458q0 -29 9 -48.5t24 -31.5t35 -17t43 -5h300v-24h-300zM448 369q-18 15 -44 23.5t-71 8.5q-23 0 -43 -4t-34.5 -16t-22.5 -33t-8 -55v-73q0 -63 30.5 -85.5
t78.5 -22.5q45 0 70.5 5.5t43.5 11.5v240z" />
    <glyph glyph-name="A" unicode="A" horiz-adv-x="425" 
d="M357 0v266h-291v-266h-30v426q0 55 14.5 95t39 69.5t56 50.5t66.5 39q33 -18 64.5 -39.5t56.5 -50.5t40 -69t15 -95v-426h-31zM357 428q0 47 -12 81.5t-32.5 60t-46.5 44t-54 33.5q-29 -15 -55.5 -33.5t-46.5 -44t-32 -60t-12 -81.5v-135h291v135z" />
    <glyph glyph-name="B" unicode="B" horiz-adv-x="424" 
d="M43 0v664h210q40 0 65 -14t39 -36.5t18.5 -51t4.5 -57.5q0 -65 -21.5 -110.5t-77.5 -56.5q61 -9 86.5 -56t25.5 -117q0 -30 -6 -59.5t-22 -53t-43 -38t-69 -14.5h-210zM245 27q36 0 58.5 12.5t36 32.5t18.5 45.5t5 52.5q0 32 -5.5 60.5t-19 49.5t-37.5 33t-61 12h-168
v-298h173zM240 351q34 0 55.5 12t34 32.5t17.5 47.5t5 56q0 25 -4 50t-15.5 44.5t-32.5 31.5t-55 12h-173v-286h168z" />
    <glyph glyph-name="C" unicode="C" horiz-adv-x="404" 
d="M341 275h28v-130q0 -47 -11.5 -78t-32 -49.5t-49.5 -26.5t-65 -8q-37 0 -69 8t-55.5 26.5t-37 49.5t-13.5 78v373q0 46 13.5 77.5t37 50t55.5 26.5t69 8q36 0 65 -8t49.5 -26.5t32 -50t11.5 -77.5v-135h-28v135q0 76 -34 105.5t-96 29.5q-33 0 -59.5 -7t-45.5 -22.5
t-29.5 -41.5t-10.5 -64v-373q0 -38 10.5 -64t29.5 -42t46 -22.5t59 -6.5q31 0 55 6.5t40.5 22.5t25.5 42t9 64v130z" />
    <glyph glyph-name="D" unicode="D" horiz-adv-x="432" 
d="M43 0v664h176q36 0 68 -7.5t56 -30t38 -62.5t14 -105v-270q0 -52 -14 -88t-38 -58.5t-56 -32.5t-68 -10h-176zM365 459q0 57 -11.5 92t-31 54t-46 25.5t-57.5 6.5h-146v-610h146q31 0 57.5 8.5t46 27.5t31 50t11.5 76v270z" />
    <glyph glyph-name="E" unicode="E" horiz-adv-x="324" 
d="M43 0v664h247v-27h-217v-275h205v-27h-205v-308h223v-27h-253z" />
    <glyph glyph-name="F" unicode="F" horiz-adv-x="333" 
d="M43 0v664h263v-27h-233v-281h229v-26h-229v-330h-30z" />
    <glyph glyph-name="G" unicode="G" horiz-adv-x="418" 
d="M349 340h29v-328q-25 -9 -63.5 -19t-105.5 -10q-36 0 -67.5 7.5t-55 26.5t-37 49.5t-13.5 77.5v374q0 46 13.5 77.5t37 50t55.5 26.5t69 8q36 0 65 -8t49.5 -26.5t32 -50t11.5 -77.5v-92h-28v92q0 76 -34 105.5t-96 29.5q-33 0 -59.5 -7t-45.5 -22.5t-29.5 -41.5
t-10.5 -64v-374q0 -39 11 -64.5t30.5 -41t46 -22t56.5 -6.5q54 0 86 7t53 15v308z" />
    <glyph glyph-name="H" unicode="H" horiz-adv-x="439" 
d="M365 0v323h-292v-323h-30v664h30v-314h292v314h30v-664h-30z" />
    <glyph glyph-name="I" unicode="I" horiz-adv-x="116" 
d="M43 0v664h30v-664h-30z" />
    <glyph glyph-name="J" unicode="J" horiz-adv-x="264" 
d="M193 664h31v-525q0 -47 -13.5 -77.5t-37.5 -49.5t-55.5 -26.5t-67.5 -7.5q-6 0 -11.5 0.5t-10.5 1.5v28q10 -3 22 -3q30 0 56.5 6.5t45.5 22t30 41.5t11 64v525z" />
    <glyph glyph-name="K" unicode="K" horiz-adv-x="435" 
d="M385 0l-313 345v-345h-29v664h29v-299l298 299h41l-312 -307l324 -357h-38z" />
    <glyph glyph-name="L" unicode="L" horiz-adv-x="318" 
d="M43 0v664h30v-637h221v-27h-251z" />
    <glyph glyph-name="M" unicode="M" horiz-adv-x="671" 
d="M601 0v514q0 69 -37.5 104t-97.5 35q-77 0 -115 -36v-617h-29v614q-10 11 -25.5 18.5t-33.5 12t-36.5 6.5t-33.5 2q-38 0 -69 -7t-51 -15v-631h-30v651q23 9 61 19t87 10q18 0 39.5 -3t41.5 -8t37 -13t27 -18q17 17 50.5 29.5t81.5 12.5q36 0 65.5 -10.5t51.5 -31.5
t34 -52.5t12 -72.5v-513h-30z" />
    <glyph glyph-name="N" unicode="N" horiz-adv-x="435" 
d="M365 0v519q0 39 -11 64.5t-30.5 41t-45.5 22t-56 6.5q-55 0 -90.5 -7t-58.5 -15v-631h-30v651q25 9 67.5 19t111.5 10q35 0 66.5 -7.5t55 -26.5t37.5 -50t14 -77v-519h-30z" />
    <glyph glyph-name="O" unicode="O" horiz-adv-x="425" 
d="M36 518q0 46 13.5 77.5t37.5 50t56 26.5t69 8q36 0 68 -8t56 -26.5t38 -50t14 -77.5v-373q0 -47 -14 -78t-38 -49.5t-56 -26.5t-68 -8q-37 0 -69 8t-56 26.5t-37.5 49.5t-13.5 78v373zM357 518q0 39 -11 65t-30.5 41.5t-46 22t-57.5 6.5q-32 0 -59 -6.5t-46.5 -22
t-30 -41.5t-10.5 -65v-373q0 -39 10.5 -65t30 -41.5t46.5 -22t59 -6.5q31 0 57.5 6.5t46 22t30.5 41.5t11 65v373z" />
    <glyph glyph-name="P" unicode="P" horiz-adv-x="414" 
d="M43 0v664h198q45 0 74 -12t45.5 -37.5t23 -65.5t6.5 -96t-6.5 -96t-23 -65.5t-45.5 -37.5t-74 -12h-168v-242h-30zM236 267q38 0 62.5 11t38.5 33.5t19 57.5t5 83q0 49 -5 84.5t-19 57.5t-38.5 32.5t-62.5 10.5h-163v-370h163z" />
    <glyph glyph-name="Q" unicode="Q" horiz-adv-x="425" 
d="M281 -102l-35 107q-5 -2 -10.5 -2h-10.5q-39 0 -73.5 6.5t-60 24.5t-40.5 49.5t-15 81.5v353q0 46 13.5 77.5t37.5 50t56 26.5t69 8q36 0 68 -8t56 -26.5t38 -50t14 -77.5v-353q0 -72 -32.5 -108t-81.5 -48l38 -111h-31zM357 518q0 39 -11 65t-30.5 41.5t-46 22
t-57.5 6.5q-32 0 -59 -6.5t-46.5 -22t-30 -41.5t-10.5 -65v-353q0 -39 10.5 -65t30 -41.5t46.5 -22t59 -6.5q31 0 57.5 6.5t46 22t30.5 41.5t11 65v353z" />
    <glyph glyph-name="R" unicode="R" horiz-adv-x="422" 
d="M355 0v206q0 25 -4.5 46t-16 36.5t-31 24.5t-48.5 9h-183v-322h-29v664h210q41 0 66.5 -14t40 -36.5t19.5 -51t5 -57.5q0 -66 -21.5 -113t-70.5 -56q51 -8 71.5 -42.5t20.5 -91.5v-202h-29zM255 347q30 0 49 12.5t30.5 33t16 48t4.5 57.5q0 26 -4.5 51t-16.5 44.5
t-33.5 31.5t-55.5 12h-173v-290h183z" />
    <glyph glyph-name="S" unicode="S" 
d="M331 466v59q0 37 -9 61.5t-25.5 39.5t-40 21t-52.5 6q-42 0 -70 -9.5t-44.5 -27.5t-23 -43t-6.5 -56q0 -35 8 -59t25 -41.5t45 -29.5t68 -22q49 -13 80.5 -28.5t48.5 -37.5t23.5 -53t6.5 -74q0 -40 -6.5 -74.5t-25 -60t-52.5 -40t-89 -14.5q-77 0 -119.5 38t-42.5 127v88
h28v-87q0 -76 34.5 -107.5t100.5 -31.5q45 0 73 12t43 33t20.5 51t5.5 66q0 41 -5.5 68t-21.5 45.5t-44.5 31t-73.5 24.5q-42 11 -72.5 25.5t-50 35t-28.5 48.5t-9 67q0 34 8 64t27.5 52t53.5 34.5t85 12.5q34 0 62 -7t48.5 -24.5t32 -46.5t11.5 -72v-64h-27z" />
    <glyph glyph-name="T" unicode="T" horiz-adv-x="349" 
d="M159 0v637h-146v27h322v-27h-146v-637h-30z" />
    <glyph glyph-name="U" unicode="U" horiz-adv-x="435" 
d="M361 664h31v-652q-25 -9 -68.5 -19t-110.5 -10q-36 0 -67.5 7.5t-55 26.5t-37 49.5t-13.5 77.5v520h30v-520q0 -39 11 -64.5t30.5 -41t45.5 -22t56 -6.5q55 0 91 7t57 15v632z" />
    <glyph glyph-name="V" unicode="V" horiz-adv-x="425" 
d="M358 664h30v-426q0 -56 -14.5 -95.5t-39 -69t-56.5 -50.5t-66 -39q-33 18 -65 39t-56.5 50.5t-39.5 69t-15 95.5v426h30v-429q0 -47 12.5 -81.5t33 -59.5t46.5 -43.5t54 -34.5q28 16 54.5 34.5t46.5 44t32.5 59.5t12.5 81v429z" />
    <glyph glyph-name="W" unicode="W" horiz-adv-x="646" 
d="M579 664h29v-427q0 -55 -13 -94.5t-34 -69t-48 -50.5t-55 -39q-24 15 -46.5 32t-41 39t-31.5 49.5t-17 63.5q-4 -35 -16.5 -63t-31.5 -50.5t-41.5 -39.5t-46.5 -31q-29 18 -56 39t-48 50.5t-33.5 69t-12.5 94.5v427h30v-427q0 -45 10 -79.5t27 -61t38.5 -45.5t44.5 -34
q24 15 46 33.5t39 44t27 60t10 82.5v427h29v-427q0 -48 10 -82t26.5 -59.5t39 -44t46.5 -34.5q23 15 45 34t38.5 45.5t26.5 61t10 79.5v427z" />
    <glyph glyph-name="X" unicode="X" horiz-adv-x="423" 
d="M226 336l185 -336h-32l-170 311l-166 -311h-32l183 339l-177 325h33l161 -299l161 299h31z" />
    <glyph glyph-name="Y" unicode="Y" horiz-adv-x="410" 
d="M190 0v236q-31 17 -60 38t-51.5 50t-36 67.5t-13.5 90.5v182h30v-184q0 -47 12.5 -81.5t33 -60t46.5 -44t54 -34.5q28 16 54.5 34.5t46.5 44t32.5 59.5t12.5 82v184h30v-182q0 -52 -13 -90.5t-35.5 -67t-51.5 -50t-60 -38.5v-236h-31z" />
    <glyph glyph-name="Z" unicode="Z" horiz-adv-x="382" 
d="M27 0v30l287 607h-278v27h311v-23l-287 -614h287v-27h-320z" />
    <glyph glyph-name="bracketleft" unicode="[" horiz-adv-x="301" 
d="M97 -130v849h192v-30h-160v-790h160v-29h-192z" />
    <glyph glyph-name="backslash" unicode="\" horiz-adv-x="278" 
d="M252 0l-252 664h28l250 -664h-26z" />
    <glyph glyph-name="bracketright" unicode="]" horiz-adv-x="295" 
d="M12 -130v29h161v790h-161v30h192v-849h-192z" />
    <glyph glyph-name="asciicircum" unicode="^" horiz-adv-x="329" 
d="M267 473l-103 165l-105 -165h-29l123 191h21l123 -191h-30z" />
    <glyph glyph-name="underscore" unicode="_" horiz-adv-x="337" 
d="M-1 -105v19h341v-19h-341z" />
    <glyph glyph-name="grave" unicode="`" horiz-adv-x="302" 
d="M42 677v33l216 -155v-21z" />
    <glyph glyph-name="a" unicode="a" horiz-adv-x="397" 
d="M328 348q0 35 -10 59.5t-28 40t-42.5 22.5t-53.5 7q-47 0 -79.5 -6t-64.5 -20v29q25 11 59 18t86 7q34 0 64 -7.5t51.5 -25.5t34 -48t12.5 -75v-338q-11 -6 -25 -11t-32 -9t-42 -6t-56 -2q-40 0 -72 7.5t-55 24t-35.5 43.5t-12.5 66v32q0 41 13 67t34.5 41t50.5 20.5
t62 5.5q48 0 84.5 -14t56.5 -28v100zM328 227q-26 17 -61.5 29t-74.5 12q-29 0 -54 -4.5t-43 -17t-28.5 -34.5t-10.5 -57v-29q0 -64 39 -90t106 -26q53 0 80.5 6t46.5 15v196z" />
    <glyph glyph-name="b" unicode="b" horiz-adv-x="390" 
d="M357 139q0 -45 -12.5 -75t-34.5 -48t-51 -25.5t-63 -7.5q-35 0 -65 7.5t-51.5 25.5t-33.5 48t-12 75v533h28v-208q22 15 57 28t89 13q31 0 58.5 -7t47.5 -24.5t31.5 -48t11.5 -76.5v-210zM329 348q0 39 -9.5 64t-26 39.5t-39.5 20t-50 5.5q-54 0 -88 -13t-54 -27v-299
q0 -37 10 -61.5t28 -39.5t42.5 -21t53.5 -6q28 0 52 6t42 21t28.5 39.5t10.5 61.5v210z" />
    <glyph glyph-name="c" unicode="c" horiz-adv-x="383" 
d="M324 206h28v-67q0 -45 -12 -75t-33 -48t-49.5 -25.5t-62.5 -7.5q-36 0 -65.5 7.5t-50.5 25.5t-33 48t-12 75v210q0 45 12 75t33 48t50.5 25.5t65.5 7.5q34 0 62.5 -7.5t49.5 -25.5t33 -48t12 -75v-63h-28v63q0 37 -10 61.5t-27 39.5t-40.5 21t-51.5 6q-29 0 -53.5 -6
t-42 -21t-27.5 -39.5t-10 -61.5v-200q0 -41 9 -67.5t26.5 -42.5t42 -22.5t55.5 -6.5q28 0 51.5 6t40.5 21t27 39.5t10 62.5v67z" />
    <glyph glyph-name="d" unicode="d" horiz-adv-x="400" 
d="M34 349q0 46 11.5 76.5t31.5 48t47 24.5t59 7q54 0 89 -13t57 -28v208h28v-661q-24 -9 -62.5 -18.5t-101.5 -9.5q-34 0 -63 7.5t-50.5 25.5t-33.5 48t-12 75v210zM329 437q-20 14 -54 27t-88 13q-27 0 -50 -5.5t-39.5 -20t-26 -39.5t-9.5 -64v-209q0 -38 10 -62.5
t27.5 -39.5t41.5 -21t52 -6q52 0 83.5 6.5t52.5 14.5v406z" />
    <glyph glyph-name="e" unicode="e" 
d="M352 8q-23 -10 -63 -17.5t-94 -7.5q-34 0 -63.5 7.5t-51 25.5t-34 48t-12.5 75v210q0 45 12 75t33.5 48t51 25.5t64.5 7.5q34 0 63.5 -7.5t51.5 -25.5t34.5 -48t12.5 -75v-121h-295v-87q0 -38 10.5 -63t29 -40t43.5 -21t54 -6q48 0 85.5 7t67.5 18v-28zM329 349
q0 36 -10 60.5t-28 39.5t-42.5 21.5t-53.5 6.5q-60 0 -96.5 -28.5t-36.5 -99.5v-95h267v95z" />
    <glyph glyph-name="f" unicode="f" horiz-adv-x="258" 
d="M80 0v469h-59v23h59v49q0 40 11 67t29.5 43t42.5 22.5t51 6.5q14 0 22 -3v-27q-5 2 -9.5 2.5t-12.5 0.5q-21 0 -40.5 -5.5t-33.5 -19t-22.5 -35t-8.5 -54.5v-47h115v-23h-115v-469h-29z" />
    <glyph glyph-name="g" unicode="g" horiz-adv-x="393" 
d="M329 35q-22 -15 -57 -28t-89 -13q-32 0 -59 7t-47 24.5t-31.5 47.5t-11.5 77v199q0 45 12.5 75t34 48t51 25.5t63.5 7.5q35 0 65 -7.5t51.5 -25.5t33.5 -48t12 -75v-444q0 -43 -12.5 -72t-34 -46.5t-51.5 -25t-64 -7.5q-32 0 -59.5 7.5t-47.5 25t-31.5 46.5t-11.5 72v39
h27v-39q0 -35 9 -59t25.5 -38.5t39 -20.5t49.5 -6q28 0 52.5 6t42.5 20.5t28.5 38.5t10.5 59v130zM329 349q0 37 -10 61.5t-28 39.5t-42.5 21t-53.5 6q-28 0 -52 -6t-42 -21t-28.5 -39.5t-10.5 -61.5v-198q0 -39 9.5 -64t26 -39.5t39.5 -20t50 -5.5q54 0 88 13t54 27v287z
" />
    <glyph glyph-name="h" unicode="h" horiz-adv-x="405" 
d="M338 0v348q0 39 -9.5 64t-26 39.5t-39.5 20t-50 5.5q-54 0 -88 -13t-54 -27v-437h-28v672h28v-208q22 15 57 28t89 13q31 0 58.5 -7t47.5 -24.5t31.5 -48t11.5 -76.5v-349h-28z" />
    <glyph glyph-name="i" unicode="i" horiz-adv-x="125" 
d="M48 0v492h29v-492h-29zM46 551v121h33v-121h-33z" />
    <glyph glyph-name="j" unicode="j" horiz-adv-x="208" 
d="M132 492h28v-586q0 -41 -11 -67.5t-29 -42.5t-42.5 -22.5t-51.5 -6.5q-13 0 -22 3v26q9 -3 22 -3q21 0 40.5 5.5t34 19t23 35.5t8.5 55v584zM129 551v121h33v-121h-33z" />
    <glyph glyph-name="k" unicode="k" horiz-adv-x="409" 
d="M358 0l-287 256v-256h-28v672h28v-401l272 221h43l-288 -227l299 -265h-39z" />
    <glyph glyph-name="l" unicode="l" horiz-adv-x="114" 
d="M43 0v672h28v-672h-28z" />
    <glyph glyph-name="m" unicode="m" horiz-adv-x="579" 
d="M512 0v375q0 51 -30 76.5t-81 25.5q-31 0 -56.5 -7t-39.5 -19v-451h-28v449q-8 7 -20.5 12.5t-27 9t-30 5t-28.5 1.5q-32 0 -57.5 -5t-42.5 -11v-461h-28v482q19 7 51.5 15t74.5 8q15 0 32.5 -2t34 -5.5t30.5 -9.5t23 -13q15 12 43.5 21t68.5 9q63 0 101 -31.5t38 -97.5
v-376h-28z" />
    <glyph glyph-name="n" unicode="n" horiz-adv-x="405" 
d="M338 0v348q0 37 -10 62t-27.5 40t-41.5 21t-52 6q-54 0 -84.5 -6.5t-51.5 -14.5v-456h-28v477q24 9 62.5 18.5t101.5 9.5q34 0 63 -7.5t50.5 -25.5t33.5 -48t12 -75v-349h-28z" />
    <glyph glyph-name="o" unicode="o" 
d="M357 139q0 -45 -12.5 -75t-34.5 -48t-51.5 -25.5t-63.5 -7.5q-35 0 -64.5 7.5t-51 25.5t-33.5 48t-12 75v210q0 45 12 75t33.5 48t51 25.5t64.5 7.5q34 0 63.5 -7.5t51.5 -25.5t34.5 -48t12.5 -75v-210zM329 349q0 37 -10.5 61.5t-28.5 39.5t-42.5 21t-52.5 6
q-29 0 -53.5 -6t-42 -21t-27.5 -39.5t-10 -61.5v-210q0 -38 10 -62.5t27.5 -39.5t42 -21t53.5 -6q28 0 52.5 6t42.5 21t28.5 39.5t10.5 62.5v210z" />
    <glyph glyph-name="p" unicode="p" horiz-adv-x="393" 
d="M34 -233v710q24 9 62.5 18.5t101.5 9.5q34 0 63 -7.5t50.5 -25.5t33.5 -48t12 -75v-210q0 -47 -11.5 -77.5t-31.5 -48t-47.5 -24t-58.5 -6.5q-54 0 -89 12.5t-57 27.5v-256h-28zM329 348q0 37 -10 62t-27.5 40t-41.5 21t-52 6q-52 0 -83.5 -6.5t-52.5 -14.5v-405
q20 -15 54 -28t88 -13q27 0 50 5.5t39.5 20t26 39.5t9.5 64v209z" />
    <glyph glyph-name="q" unicode="q" horiz-adv-x="410" 
d="M329 -233v256q-22 -15 -57 -27.5t-89 -12.5q-32 0 -59 6.5t-47 24t-31.5 48t-11.5 77.5v210q0 45 12.5 75t34 48t51 25.5t63.5 7.5q35 0 65 -7.5t51.5 -25.5t33.5 -48t12 -75v-582h-28zM329 349q0 37 -10 61.5t-28 39.5t-42.5 21t-53.5 6q-28 0 -52 -6t-42 -21
t-28.5 -39.5t-10.5 -61.5v-210q0 -39 9.5 -64t26 -39.5t39.5 -20t50 -5.5q54 0 88 13t54 28v298z" />
    <glyph glyph-name="r" unicode="r" horiz-adv-x="375" 
d="M43 0v477q23 9 59 18.5t95 9.5q33 0 61 -6.5t48.5 -22t32.5 -41.5t12 -65v-63h-26v59q0 32 -9.5 53.5t-27 34t-40.5 18t-50 5.5q-48 0 -77.5 -6.5t-49.5 -14.5v-456h-28z" />
    <glyph glyph-name="s" unicode="s" horiz-adv-x="387" 
d="M325 347v44q0 29 -11.5 46.5t-30.5 26.5t-42 11.5t-47 2.5q-25 0 -50 -3t-45 -13t-32.5 -28.5t-12.5 -49.5q0 -40 22.5 -61.5t56 -33.5t72.5 -19t73 -19q45 -16 63.5 -44t18.5 -76q0 -42 -12 -70.5t-34 -45.5t-53.5 -24.5t-71.5 -7.5q-30 0 -59.5 5t-53 18.5t-37.5 37.5
t-14 62v55h28v-50q0 -32 11.5 -52t30.5 -31t43 -15t49 -4q31 0 57.5 5t45.5 18.5t29.5 37t10.5 61.5q0 43 -17 63.5t-49 32.5q-33 12 -74.5 19t-78 20.5t-61.5 39t-25 75.5q0 39 14.5 63.5t38 38t54 18t62.5 4.5q29 0 57.5 -4t51 -16t36.5 -34t14 -58v-46h-28z" />
    <glyph glyph-name="t" unicode="t" horiz-adv-x="212" 
d="M90 0v469h-69v23h69v112h28v-112h72v-23h-72v-469h-28z" />
    <glyph glyph-name="u" unicode="u" horiz-adv-x="407" 
d="M333 492h28v-481q-23 -9 -62 -18.5t-102 -9.5q-34 0 -63 7.5t-50 25.5t-33 48t-12 75v353h28v-353q0 -38 10 -62.5t27.5 -39.5t41 -21t51.5 -6q51 0 83.5 6.5t52.5 14.5v461z" />
    <glyph glyph-name="v" unicode="v" horiz-adv-x="392" 
d="M330 492h28v-267q0 -55 -13 -94.5t-35.5 -69t-52 -50.5t-62.5 -39q-31 18 -60 39t-51.5 50.5t-36 69t-13.5 94.5v267h28v-269q0 -48 11 -83t29.5 -60.5t42.5 -43.5t50 -33q28 15 52.5 33t43 43.5t29 60.5t10.5 83v269z" />
    <glyph glyph-name="w" unicode="w" horiz-adv-x="571" 
d="M508 492h29v-289q0 -51 -11 -87t-29.5 -63t-42.5 -46t-49 -35q-22 13 -42 28.5t-36 35t-27 44t-15 56.5q-4 -32 -15.5 -57t-27.5 -44.5t-35.5 -35t-40.5 -27.5q-25 16 -49 35t-42.5 46t-29.5 63t-11 87v289h28v-293q0 -41 8.5 -71.5t23 -54t33 -40.5t38.5 -30
q21 13 40 29t33.5 38.5t23.5 54t9 74.5v293h28v-292q0 -43 8.5 -74t23.5 -54t34 -39.5t40 -29.5q19 13 38 30t33 40t23 54t9 72v293z" />
    <glyph glyph-name="x" unicode="x" horiz-adv-x="378" 
d="M204 249l162 -249h-32l-146 228l-146 -228h-31l161 251l-156 241h32l141 -221l139 221h31z" />
    <glyph glyph-name="y" unicode="y" horiz-adv-x="402" 
d="M333 35q-21 -15 -56.5 -28t-89.5 -13q-31 0 -58 7t-47.5 24.5t-32 47.5t-11.5 77v342h29v-341q0 -39 9.5 -64t26 -39.5t39.5 -20t50 -5.5q54 0 87.5 13t53.5 27v430h29v-587q0 -43 -12.5 -72t-34 -46.5t-51.5 -25t-64 -7.5q-33 0 -60.5 7.5t-47.5 25t-31.5 46.5t-11.5 72
v39h27v-39q0 -35 9.5 -59t26 -38.5t39 -20.5t49.5 -6q28 0 52.5 6t42.5 20.5t28 38.5t10 59v130z" />
    <glyph glyph-name="z" unicode="z" horiz-adv-x="359" 
d="M25 0v26l267 441h-253v25h288v-21l-269 -446h275v-25h-308z" />
    <glyph glyph-name="braceleft" unicode="{" horiz-adv-x="309" 
d="M262 -131q-50 0 -79.5 9.5t-45 29t-20 49t-4.5 70.5q0 9 1 31t1.5 46t1.5 45t1 29q0 58 -16 81t-60 23v26q44 0 60 23.5t16 81.5q0 7 -1 28t-1.5 45t-1.5 45.5t-1 30.5q0 40 4.5 70t20 49.5t45 29t79.5 9.5h22v-25h-19q-41 0 -65 -8t-36.5 -24t-16 -41t-3.5 -58
q0 -16 1 -36.5t1.5 -42.5t1.5 -43.5t1 -38.5q0 -98 -67 -108q67 -12 67 -108q0 -16 -1 -37t-1.5 -43.5t-1.5 -44t-1 -38.5q0 -33 3.5 -57.5t16 -40.5t36.5 -24t65 -8h19v-25h-22z" />
    <glyph glyph-name="bar" unicode="|" horiz-adv-x="202" 
d="M86 -125v861h29v-861h-29z" />
    <glyph glyph-name="braceright" unicode="}" horiz-adv-x="311" 
d="M24 -131v25h19q41 0 65.5 8t37 24t16 40.5t3.5 57.5q0 17 -1 38.5t-1.5 44t-1.5 43.5t-1 37q0 96 66 108q-66 10 -66 108q0 17 1 38.5t1.5 43.5t1.5 42.5t1 36.5q0 33 -3.5 58t-16 41t-37 24t-65.5 8h-19v25h23q50 0 79.5 -9.5t44.5 -29t19.5 -49.5t4.5 -70
q0 -9 -1 -30.5t-1.5 -45.5t-1.5 -45t-1 -28q0 -58 16.5 -81.5t59.5 -23.5v-26q-43 0 -59.5 -23t-16.5 -81q0 -8 1 -29t1.5 -45t1.5 -46t1 -31q0 -41 -4.5 -70.5t-19.5 -49t-44.5 -29t-79.5 -9.5h-23z" />
    <glyph glyph-name="asciitilde" unicode="~" horiz-adv-x="567" 
d="M518 332q-29 -35 -61.5 -51t-77.5 -16q-29 0 -53.5 11t-48.5 23.5t-49 23.5t-55 11q-39 0 -69 -19t-56 -54v33q21 25 51 46t73 21q32 0 58.5 -10.5t51 -23.5t48.5 -23.5t50 -10.5q40 0 73.5 16t64.5 55v-32z" />
    <glyph glyph-name="uni00A0" unicode="&#xa0;" horiz-adv-x="182" 
 />
    <glyph glyph-name="exclamdown" unicode="&#xa1;" horiz-adv-x="155" 
d="M94.0039 664v-145.991h-33.998v145.991h33.998zM89.0039 466.012q3 -60.9961 5.5 -113.493q2.5 -52.4961 4 -101.493q1.49902 -48.9971 2.49902 -96.9941t1 -98.9941q0 -15.999 -1 -29.998t-2.99902 -24.998h-40.998q-2 10.999 -3 24.998t-1 29.998q0 50.9971 1 98.9941
t2.5 96.9941t4 101.493q2.5 52.4971 5.5 113.493h22.998z" />
    <glyph glyph-name="cent" unicode="&#xa2;" horiz-adv-x="390" 
d="M184 0v74q-33 1 -60.5 9.5t-47 27t-30 47.5t-10.5 72v210q0 42 10.5 71.5t30 47.5t47 26.5t60.5 9.5v69h25v-69q31 -1 58 -9.5t46 -26.5t30 -47.5t11 -71.5v-63h-28v63q0 37 -10 61.5t-27 39.5t-40.5 21t-51.5 6q-29 0 -53.5 -6t-42 -21t-27.5 -39.5t-10 -61.5v-210
q0 -38 10 -62.5t27.5 -39.5t42 -21t53.5 -6q28 0 51.5 6t40.5 21t27 39.5t10 62.5v67h28v-67q0 -43 -11 -72t-30 -47.5t-46 -27t-58 -9.5v-74h-25z" />
    <glyph glyph-name="sterling" unicode="&#xa3;" horiz-adv-x="418" 
d="M390 15q-11 -14 -27.5 -23t-39.5 -9q-17 0 -32 5.5t-31 12t-35 13t-43 8.5q-13 -18 -34 -28.5t-52 -10.5t-60 17v27q28 -18 57 -18q26 0 43.5 9t28 24.5t15 36t4.5 43.5q0 29 -5.5 52t-15 43t-21.5 37.5t-25 35.5h-78v21h66q-26 34 -44 75t-18 104q0 46 7.5 81.5
t26.5 59.5t50 36.5t78 12.5q33 0 63 -6.5t52.5 -23t35.5 -45t13 -72.5v-67h-28v62q0 37 -10.5 61t-29 38t-43 20t-52.5 6q-78 0 -106 -40t-28 -123q0 -65 19 -105.5t44 -73.5h212v-21h-200q12 -17 23.5 -33.5t20.5 -36t14.5 -43t5.5 -53.5q0 -49 -17 -82q24 -3 43 -8.5
t34 -11.5t28 -10t26 -4q20 0 35.5 7t29.5 27v-27z" />
    <glyph glyph-name="currency" unicode="&#xa4;" horiz-adv-x="505" 
d="M442 140l-64 65q-54 -48 -127 -48q-74 0 -125 48l-64 -65l-20 19l65 64q-48 51 -48 127q0 73 47 126l-63 63l20 19l61 -63q54 48 127 48q37 0 69 -13t58 -36l63 64l20 -19l-65 -63q23 -26 36 -57.5t13 -68.5t-13 -69t-36 -58l66 -64zM424 350q0 36 -13.5 67.5t-37 55
t-55 37t-67.5 13.5t-67 -13.5t-54.5 -37t-37 -55t-13.5 -67.5t13.5 -67.5t37 -54.5t54.5 -36.5t67 -13.5t67.5 13.5t55 36.5t37 54.5t13.5 67.5z" />
    <glyph glyph-name="yen" unicode="&#xa5;" horiz-adv-x="425" 
d="M228 94v-94h-31v94h-161v27h161v103h-161v27h161v49q-31 18 -60 39.5t-51.5 50t-36 67t-13.5 90.5v117h30v-120q0 -47 12.5 -81.5t33 -60t46.5 -44t54 -33.5q28 15 54.5 33.5t47 44t32.5 60t12 81.5v120h30v-117q0 -53 -13.5 -91t-35.5 -67t-51 -50t-60 -39v-49h160v-27
h-160v-103h160v-27h-160z" />
    <glyph glyph-name="brokenbar" unicode="&#xa6;" horiz-adv-x="345" 
d="M157 -125v372h29v-372h-29zM157 397v339h29v-339h-29z" />
    <glyph glyph-name="section" unicode="&#xa7;" horiz-adv-x="414" 
d="M39 76h27v-54q0 -33 11 -53.5t29.5 -32t42.5 -15.5t50 -4q28 0 54 4t46 17.5t32 38t12 65.5q0 48 -20 71.5t-62 36.5q-36 11 -75.5 19t-72.5 23t-54.5 42t-21.5 75q0 51 21 81t57 44q-31 15 -51 40.5t-20 72.5q0 42 15.5 68t40 40.5t55 19.5t61.5 5q28 0 56 -4t50 -17
t35.5 -36.5t13.5 -62.5v-49h-27v47q0 30 -10.5 49t-28.5 29t-41 13.5t-48 3.5t-50 -3.5t-45.5 -14.5t-33 -31.5t-12.5 -54.5q0 -35 13.5 -55t35 -31.5t50 -18t58.5 -15.5q33 -9 60 -19.5t46 -26.5t29.5 -40.5t10.5 -62.5q0 -92 -57 -129q23 -17 37 -41.5t14 -66.5
q0 -84 -45.5 -118t-126.5 -34q-30 0 -58.5 5t-51.5 19t-37 39t-14 66v56zM295 166q23 13 38.5 40t15.5 73q0 43 -19 66t-48 36.5t-64.5 21t-69.5 19.5q-35 -9 -58 -34.5t-23 -76.5q0 -43 20 -66t52.5 -36t73 -21.5t82.5 -21.5z" />
    <glyph glyph-name="dieresis" unicode="&#xa8;" horiz-adv-x="365" 
d="M72 554v133h38v-133h-38zM254 554v133h38v-133h-38z" />
    <glyph glyph-name="ordfeminine" unicode="&#xaa;" horiz-adv-x="248" 
d="M186 482q0 35 -18 49.5t-47 14.5q-25 0 -44 -4t-39 -13v27q15 8 35 12.5t48 4.5q39 0 65.5 -19t26.5 -71v-184q-14 -8 -33.5 -13t-54.5 -5q-46 0 -73 18t-27 63v18q0 24 7.5 39t20 23.5t29 11.5t35.5 3q23 0 40 -5.5t29 -12.5v43zM186 415q-12 8 -30.5 13t-35.5 5
q-29 0 -48.5 -10t-19.5 -44v-16q0 -31 20 -43.5t53 -12.5q26 0 39 2t22 6v100z" />
    <glyph glyph-name="guillemotleft" unicode="&#xab;" horiz-adv-x="384" 
d="M23 317l130 174l17 -20l-117 -154l117 -154l-17 -18zM215 317l130 174l17 -20l-117 -154l117 -154l-17 -18z" />
    <glyph glyph-name="logicalnot" unicode="&#xac;" horiz-adv-x="595" 
d="M510 0v459h-459v33h491v-492h-32z" />
    <glyph glyph-name="macron" unicode="&#xaf;" horiz-adv-x="404" 
d="M51 620v25h301v-25h-301z" />
    <glyph glyph-name="degree" unicode="&#xb0;" horiz-adv-x="393" 
d="M195 355q-37 0 -63 12.5t-42.5 34t-24.5 50.5t-8 62t8 62t24.5 50.5t42.5 33.5t63 12t63.5 -12t43.5 -33.5t25 -50.5t8 -62t-8 -62t-25 -50.5t-43.5 -34t-63.5 -12.5zM195 375q31 0 53.5 11t37 29.5t21 44t6.5 54.5t-6.5 54t-21 44t-37 29.5t-53.5 10.5t-53 -10.5
t-36.5 -29.5t-21 -44t-6.5 -54t6.5 -54.5t21 -44t36.5 -29.5t53 -11z" />
    <glyph glyph-name="plusminus" unicode="&#xb1;" horiz-adv-x="540" 
d="M255 124v208h-207v27h207v207h28v-207h207v-27h-207v-208h-28zM49 53v27h442v-27h-442z" />
    <glyph glyph-name="uni00B2" unicode="&#xb2;" horiz-adv-x="235" 
d="M34 343v89q0 21 5 40.5t25 32.5q15 10 34.5 15.5t37 13t29.5 19t12 32.5q0 15 -1 29t-6 24.5t-17 16.5t-34 6q-12 0 -22.5 -1.5t-19 -6t-13.5 -13t-5 -23.5v-29h-22v30q0 38 24 51.5t56 13.5q45 0 64 -19t19 -65q0 -38 -13 -55.5t-49 -31.5q-12 -5 -29 -11t-28 -12
q-17 -10 -19 -28.5t-2 -36.5v-59h139v-22h-165z" />
    <glyph glyph-name="uni00B3" unicode="&#xb3;" horiz-adv-x="231" 
d="M174 445q0 31 -11.5 44t-37.5 13h-35v20h36q46 0 46 60v19q0 35 -16 47.5t-45 12.5t-43.5 -12.5t-14.5 -49.5v-26h-23v29q0 47 21.5 64t59.5 17q40 0 63 -17t23 -64v-20q0 -29 -11.5 -47.5t-36.5 -22.5q50 -7 50 -67v-30q0 -45 -24 -63t-64 -18q-38 0 -59.5 17t-21.5 64
v30h23v-28q0 -36 15 -48.5t43 -12.5q29 0 46 12.5t17 46.5v30z" />
    <glyph glyph-name="acute" unicode="&#xb4;" horiz-adv-x="302" 
d="M42 534v21l216 155v-33z" />
    <glyph glyph-name="mu" unicode="&#xb5;" horiz-adv-x="409" 
d="M337 492h28v-481q-23 -9 -60.5 -18.5t-92.5 -9.5q-54 0 -90 16t-51 56v-288h-28v725h28v-351q0 -37 10 -62t27.5 -40.5t41 -22t51.5 -6.5q51 0 83.5 6.5t52.5 14.5v461z" />
    <glyph glyph-name="mu" unicode="&#x3bc;" horiz-adv-x="409" 
d="M337 492h28v-481q-23 -9 -60.5 -18.5t-92.5 -9.5q-54 0 -90 16t-51 56v-288h-28v725h28v-351q0 -37 10 -62t27.5 -40.5t41 -22t51.5 -6.5q51 0 83.5 6.5t52.5 14.5v461z" />
    <glyph glyph-name="paragraph" unicode="&#xb6;" horiz-adv-x="495" 
d="M391 -100v741h-147v-741h-24v491h-62q-52 0 -78.5 33.5t-26.5 105.5q0 134 108 134h294v-23h-41v-741h-23z" />
    <glyph glyph-name="periodcentered" unicode="&#xb7;" horiz-adv-x="173" 
d="M69 240v151h35v-151h-35z" />
    <glyph glyph-name="cedilla" unicode="&#xb8;" horiz-adv-x="176" 
d="M82 -34h32l-8 -81q-2 -22 -6 -44.5t-9 -40.5t-12.5 -30t-16.5 -13z" />
    <glyph glyph-name="uni00B9" unicode="&#xb9;" horiz-adv-x="162" 
d="M102 343v254q0 34 -18 46t-45 12q-8 0 -11 -1v24q3 0 5.5 0.5t6.5 0.5q36 0 62 -17.5t26 -63.5v-255h-26z" />
    <glyph glyph-name="ordmasculine" unicode="&#xba;" horiz-adv-x="245" 
d="M213 370q0 -51 -27 -70t-65 -19q-40 0 -66 19t-26 70v113q0 52 26 71t66 19q38 0 65 -19t27 -71v-113zM187 483q0 36 -19 49.5t-47 13.5q-29 0 -47.5 -13.5t-18.5 -49.5v-113q0 -36 18.5 -49.5t47.5 -13.5q28 0 47 13.5t19 49.5v113z" />
    <glyph glyph-name="guillemotright" unicode="&#xbb;" horiz-adv-x="384" 
d="M169 317l-130 -172l-17 18l117 154l-117 154l17 20zM361 317l-130 -172l-17 18l117 154l-117 154l17 20z" />
    <glyph glyph-name="onequarter" unicode="&#xbc;" horiz-adv-x="512" 
d="M149 343v254q0 34 -18 46t-45 12q-8 0 -11 -1v24q3 0 5.5 0.5t6.5 0.5q36 0 62 -17.5t26 -63.5v-255h-26zM33 -20l398 704h30l-398 -704h-30zM432 -10v70h-133v25l113 237h25l-115 -239h110v90h23v-183h-23z" />
    <glyph glyph-name="onehalf" unicode="&#xbd;" horiz-adv-x="518" 
d="M149 343v254q0 34 -18 46t-45 12q-8 0 -11 -1v24q3 0 5.5 0.5t6.5 0.5q36 0 62 -17.5t26 -63.5v-255h-26zM33 -20l398 704h30l-398 -704h-30zM316 -10v89q0 21 5 40.5t25 32.5q15 10 34.5 15.5t37 13t29.5 19t12 32.5q0 15 -1 29t-6 24.5t-17 16.5t-34 6
q-12 0 -22.5 -1.5t-19 -6t-13.5 -13t-5 -23.5v-29h-22v30q0 38 24 51.5t56 13.5q45 0 64 -19t19 -65q0 -38 -13 -55.5t-49 -31.5q-12 -5 -29 -11t-28 -12q-17 -10 -19 -28.5t-2 -36.5v-59h139v-22h-165z" />
    <glyph glyph-name="threequarters" unicode="&#xbe;" horiz-adv-x="512" 
d="M192 445q0 31 -11.5 44t-37.5 13h-35v20h36q46 0 46 60v19q0 35 -16 47.5t-45 12.5t-43.5 -12.5t-14.5 -49.5v-26h-23v29q0 47 21.5 64t59.5 17q40 0 63 -17t23 -64v-20q0 -29 -11.5 -47.5t-36.5 -22.5q50 -7 50 -67v-30q0 -45 -24 -63t-64 -18q-38 0 -59.5 17t-21.5 64
v30h23v-28q0 -36 15 -48.5t43 -12.5q29 0 46 12.5t17 46.5v30zM33 -20l398 704h30l-398 -704h-30zM422 -10v70h-133v25l113 237h25l-115 -239h110v90h23v-183h-23z" />
    <glyph glyph-name="questiondown" unicode="&#xbf;" horiz-adv-x="370" 
d="M216.01 455.013v-27.998q0 -17.999 -3 -31.998t-12.499 -26.999q-9.5 -12.999 -26.499 -26.998t-45.9971 -32.998q-22.998 -14.999 -37.9971 -29.498q-15 -14.499 -23.999 -31.998t-12.499 -37.998q-3.5 -20.498 -3.5 -47.4971q0 -37.9971 5.5 -65.9951
q5.49902 -27.999 20.498 -46.998q15 -18.998 41.498 -27.998q26.498 -8.99902 68.4961 -8.99902q29.998 0 54.4961 5.49902q24.499 5.5 41.998 19.499q17.498 13.999 27.498 37.998q9.99902 23.998 9.99902 59.9961v63.9961h27.998v-63.9961q0 -43.9971 -11.499 -72.9951
t-32.498 -45.9971q-20.998 -16.999 -50.9971 -23.999q-29.998 -7 -66.9951 -7q-49.9971 0 -81.9951 11q-31.998 10.999 -50.4971 32.498q-18.499 21.498 -25.499 53.4961q-6.99902 31.998 -6.99902 74.9961q0 33.998 4 58.9961q3.99902 24.998 13.999 43.9971
q9.99902 18.999 25.498 34.498t39.498 30.498q26.998 17.999 43.4971 30.998t25.498 24.499q9 11.499 12 22.998q2.99902 11.5 2.99902 25.499v26.998h27.999zM219.01 664v-145.991h-33.998v145.991h33.998z" />
    <glyph glyph-name="Agrave" unicode="&#xc0;" horiz-adv-x="425" 
d="M357 0v266h-291v-266h-30v426q0 55 14.5 95t39 69.5t56 50.5t66.5 39q33 -18 64.5 -39.5t56.5 -50.5t40 -69t15 -95v-426h-31zM357 428q0 47 -12 81.5t-32.5 60t-46.5 44t-54 33.5q-29 -15 -55.5 -33.5t-46.5 -44t-32 -60t-12 -81.5v-135h291v135zM84 849v33l216 -155
v-21z" />
    <glyph glyph-name="Aacute" unicode="&#xc1;" horiz-adv-x="425" 
d="M357 0v266h-291v-266h-30v426q0 55 14.5 95t39 69.5t56 50.5t66.5 39q33 -18 64.5 -39.5t56.5 -50.5t40 -69t15 -95v-426h-31zM357 428q0 47 -12 81.5t-32.5 60t-46.5 44t-54 33.5q-29 -15 -55.5 -33.5t-46.5 -44t-32 -60t-12 -81.5v-135h291v135zM124 706v21l216 155
v-33z" />
    <glyph glyph-name="Acircumflex" unicode="&#xc2;" horiz-adv-x="425" 
d="M357 0v266h-291v-266h-30v426q0 55 14.5 95t39 69.5t56 50.5t66.5 39q33 -18 64.5 -39.5t56.5 -50.5t40 -69t15 -95v-426h-31zM357 428q0 47 -12 81.5t-32.5 60t-46.5 44t-54 33.5q-29 -15 -55.5 -33.5t-46.5 -44t-32 -60t-12 -81.5v-135h291v135zM367 723l-153 163
l-153 -163l-13 13l151 172h30l151 -172z" />
    <glyph glyph-name="Atilde" unicode="&#xc3;" horiz-adv-x="425" 
d="M357 0v266h-291v-266h-30v426q0 55 14.5 95t39 69.5t56 50.5t66.5 39q33 -18 64.5 -39.5t56.5 -50.5t40 -69t15 -95v-426h-31zM357 428q0 47 -12 81.5t-32.5 60t-46.5 44t-54 33.5q-29 -15 -55.5 -33.5t-46.5 -44t-32 -60t-12 -81.5v-135h291v135zM62 792v25h301v-25
h-301z" />
    <glyph glyph-name="Adieresis" unicode="&#xc4;" horiz-adv-x="425" 
d="M357 0v266h-291v-266h-30v426q0 55 14.5 95t39 69.5t56 50.5t66.5 39q33 -18 64.5 -39.5t56.5 -50.5t40 -69t15 -95v-426h-31zM357 428q0 47 -12 81.5t-32.5 60t-46.5 44t-54 33.5q-29 -15 -55.5 -33.5t-46.5 -44t-32 -60t-12 -81.5v-135h291v135zM102 726v133h38v-133
h-38zM284 726v133h38v-133h-38z" />
    <glyph glyph-name="Aring" unicode="&#xc5;" horiz-adv-x="425" 
d="M357 0v266h-291v-266h-30v426q0 55 14.5 95t39 69.5t56 50.5t66.5 39q33 -18 64.5 -39.5t56.5 -50.5t40 -69t15 -95v-426h-31zM357 428q0 47 -12 81.5t-32.5 60t-46.5 44t-54 33.5q-29 -15 -55.5 -33.5t-46.5 -44t-32 -60t-12 -81.5v-135h291v135zM212 696q-95 0 -95 96
q0 46 22 71t73 25q52 0 74 -25t22 -71q0 -48 -22 -72t-74 -24zM212 713q42 0 60 20t18 59q0 38 -18 58.5t-60 20.5q-77 0 -77 -79t77 -79z" />
    <glyph glyph-name="AE" unicode="&#xc6;" horiz-adv-x="512" 
d="M258 0v266h-192v-266h-30v426q0 58 14.5 102.5t41 74.5t62 45.5t77.5 15.5h247v-27h-191v-275h179v-27h-179v-308h197v-27h-226zM258 637h-27q-36 0 -66 -14t-52 -41t-34.5 -66t-12.5 -90v-133h192v344z" />
    <glyph glyph-name="Ccedilla" unicode="&#xc7;" horiz-adv-x="404" 
d="M341 275h28v-130q0 -47 -11.5 -78t-32 -49.5t-49.5 -26.5t-65 -8q-37 0 -69 8t-55.5 26.5t-37 49.5t-13.5 78v373q0 46 13.5 77.5t37 50t55.5 26.5t69 8q36 0 65 -8t49.5 -26.5t32 -50t11.5 -77.5v-135h-28v135q0 76 -34 105.5t-96 29.5q-33 0 -59.5 -7t-45.5 -22.5
t-29.5 -41.5t-10.5 -64v-373q0 -38 10.5 -64t29.5 -42t46 -22.5t59 -6.5q31 0 55 6.5t40.5 22.5t25.5 42t9 64v130zM196 -34h32l-8 -81q-2 -22 -6 -44.5t-9 -40.5t-12.5 -30t-16.5 -13z" />
    <glyph glyph-name="Egrave" unicode="&#xc8;" horiz-adv-x="324" 
d="M43 0v664h247v-27h-217v-275h205v-27h-205v-308h223v-27h-253zM40 849v33l216 -155v-21z" />
    <glyph glyph-name="Eacute" unicode="&#xc9;" horiz-adv-x="324" 
d="M43 0v664h247v-27h-217v-275h205v-27h-205v-308h223v-27h-253zM81 706v21l216 155v-33z" />
    <glyph glyph-name="Ecircumflex" unicode="&#xca;" horiz-adv-x="324" 
d="M43 0v664h247v-27h-217v-275h205v-27h-205v-308h223v-27h-253zM321 723l-153 163l-153 -163l-13 13l151 172h30l151 -172z" />
    <glyph glyph-name="Edieresis" unicode="&#xcb;" horiz-adv-x="324" 
d="M43 0v664h247v-27h-217v-275h205v-27h-205v-308h223v-27h-253zM58 726v133h38v-133h-38zM240 726v133h38v-133h-38z" />
    <glyph glyph-name="Igrave" unicode="&#xcc;" horiz-adv-x="116" 
d="M43 0v664h30v-664h-30zM-69 849v33l216 -155v-21z" />
    <glyph glyph-name="Iacute" unicode="&#xcd;" horiz-adv-x="116" 
d="M43 0v664h30v-664h-30zM-29 706v21l216 155v-33z" />
    <glyph glyph-name="Icircumflex" unicode="&#xce;" horiz-adv-x="116" 
d="M43 0v664h30v-664h-30zM212 723l-153 163l-153 -163l-13 13l151 172h30l151 -172z" />
    <glyph glyph-name="Idieresis" unicode="&#xcf;" horiz-adv-x="116" 
d="M43 0v664h30v-664h-30zM-51 726v133h38v-133h-38zM131 726v133h38v-133h-38z" />
    <glyph glyph-name="Eth" unicode="&#xd0;" horiz-adv-x="432" 
d="M45 0v335h-25v27h25v302h176q36 0 68 -7.5t56 -30t38 -62.5t14 -105v-270q0 -52 -14 -88t-38 -58.5t-56 -32.5t-68 -10h-176zM366 459q0 57 -11.5 92t-31 54t-46 25.5t-56.5 6.5h-146v-275h166v-27h-166v-308h146q30 0 56.5 8.5t46 27.5t31 50t11.5 76v270z" />
    <glyph glyph-name="Ntilde" unicode="&#xd1;" horiz-adv-x="435" 
d="M365 0v519q0 39 -11 64.5t-30.5 41t-45.5 22t-56 6.5q-55 0 -90.5 -7t-58.5 -15v-631h-30v651q25 9 67.5 19t111.5 10q35 0 66.5 -7.5t55 -26.5t37.5 -50t14 -77v-519h-30zM67 792v25h301v-25h-301z" />
    <glyph glyph-name="Ograve" unicode="&#xd2;" horiz-adv-x="425" 
d="M36 518q0 46 13.5 77.5t37.5 50t56 26.5t69 8q36 0 68 -8t56 -26.5t38 -50t14 -77.5v-373q0 -47 -14 -78t-38 -49.5t-56 -26.5t-68 -8q-37 0 -69 8t-56 26.5t-37.5 49.5t-13.5 78v373zM357 518q0 39 -11 65t-30.5 41.5t-46 22t-57.5 6.5q-32 0 -59 -6.5t-46.5 -22
t-30 -41.5t-10.5 -65v-373q0 -39 10.5 -65t30 -41.5t46.5 -22t59 -6.5q31 0 57.5 6.5t46 22t30.5 41.5t11 65v373zM84 849v33l216 -155v-21z" />
    <glyph glyph-name="Oacute" unicode="&#xd3;" horiz-adv-x="425" 
d="M36 518q0 46 13.5 77.5t37.5 50t56 26.5t69 8q36 0 68 -8t56 -26.5t38 -50t14 -77.5v-373q0 -47 -14 -78t-38 -49.5t-56 -26.5t-68 -8q-37 0 -69 8t-56 26.5t-37.5 49.5t-13.5 78v373zM357 518q0 39 -11 65t-30.5 41.5t-46 22t-57.5 6.5q-32 0 -59 -6.5t-46.5 -22
t-30 -41.5t-10.5 -65v-373q0 -39 10.5 -65t30 -41.5t46.5 -22t59 -6.5q31 0 57.5 6.5t46 22t30.5 41.5t11 65v373zM124 706v21l216 155v-33z" />
    <glyph glyph-name="Ocircumflex" unicode="&#xd4;" horiz-adv-x="425" 
d="M36 518q0 46 13.5 77.5t37.5 50t56 26.5t69 8q36 0 68 -8t56 -26.5t38 -50t14 -77.5v-373q0 -47 -14 -78t-38 -49.5t-56 -26.5t-68 -8q-37 0 -69 8t-56 26.5t-37.5 49.5t-13.5 78v373zM357 518q0 39 -11 65t-30.5 41.5t-46 22t-57.5 6.5q-32 0 -59 -6.5t-46.5 -22
t-30 -41.5t-10.5 -65v-373q0 -39 10.5 -65t30 -41.5t46.5 -22t59 -6.5q31 0 57.5 6.5t46 22t30.5 41.5t11 65v373zM367 723l-153 163l-153 -163l-13 13l151 172h30l151 -172z" />
    <glyph glyph-name="Otilde" unicode="&#xd5;" horiz-adv-x="425" 
d="M36 518q0 46 13.5 77.5t37.5 50t56 26.5t69 8q36 0 68 -8t56 -26.5t38 -50t14 -77.5v-373q0 -47 -14 -78t-38 -49.5t-56 -26.5t-68 -8q-37 0 -69 8t-56 26.5t-37.5 49.5t-13.5 78v373zM357 518q0 39 -11 65t-30.5 41.5t-46 22t-57.5 6.5q-32 0 -59 -6.5t-46.5 -22
t-30 -41.5t-10.5 -65v-373q0 -39 10.5 -65t30 -41.5t46.5 -22t59 -6.5q31 0 57.5 6.5t46 22t30.5 41.5t11 65v373zM62 792v25h301v-25h-301z" />
    <glyph glyph-name="Odieresis" unicode="&#xd6;" horiz-adv-x="425" 
d="M36 518q0 46 13.5 77.5t37.5 50t56 26.5t69 8q36 0 68 -8t56 -26.5t38 -50t14 -77.5v-373q0 -47 -14 -78t-38 -49.5t-56 -26.5t-68 -8q-37 0 -69 8t-56 26.5t-37.5 49.5t-13.5 78v373zM357 518q0 39 -11 65t-30.5 41.5t-46 22t-57.5 6.5q-32 0 -59 -6.5t-46.5 -22
t-30 -41.5t-10.5 -65v-373q0 -39 10.5 -65t30 -41.5t46.5 -22t59 -6.5q31 0 57.5 6.5t46 22t30.5 41.5t11 65v373zM102 726v133h38v-133h-38zM284 726v133h38v-133h-38z" />
    <glyph glyph-name="multiply" unicode="&#xd7;" horiz-adv-x="540" 
d="M269 325l-147 -146l-19 19l147 147l-147 146l19 20l147 -147l147 147l19 -19l-147 -147l147 -147l-19 -19z" />
    <glyph glyph-name="Oslash" unicode="&#xd8;" horiz-adv-x="425" 
d="M36 518q0 46 13.5 77.5t37.5 50t56 26.5t69 8q35 0 65.5 -7.5t54.5 -24.5l32 74l24 -12l-35 -81q17 -19 26 -46t9 -65v-373q0 -47 -14 -78t-38 -49.5t-56 -26.5t-68 -8q-37 0 -69 8t-56 26l-28 -66l-23 12l32 73q-15 19 -23.5 45.5t-8.5 63.5v373zM357 518q0 25 -5 44.5
t-13 34.5l-240 -552q20 -20 48.5 -27.5t64.5 -7.5q31 0 57.5 6.5t46 22t30.5 41.5t11 65v373zM66 145q0 -47 16 -76l238 551q-20 18 -48 25.5t-60 7.5t-59 -6.5t-46.5 -22t-30 -41.5t-10.5 -65v-373z" />
    <glyph glyph-name="Ugrave" unicode="&#xd9;" horiz-adv-x="435" 
d="M361 664h31v-652q-25 -9 -68.5 -19t-110.5 -10q-36 0 -67.5 7.5t-55 26.5t-37 49.5t-13.5 77.5v520h30v-520q0 -39 11 -64.5t30.5 -41t45.5 -22t56 -6.5q55 0 91 7t57 15v632zM89 849v33l216 -155v-21z" />
    <glyph glyph-name="Uacute" unicode="&#xda;" horiz-adv-x="435" 
d="M361 664h31v-652q-25 -9 -68.5 -19t-110.5 -10q-36 0 -67.5 7.5t-55 26.5t-37 49.5t-13.5 77.5v520h30v-520q0 -39 11 -64.5t30.5 -41t45.5 -22t56 -6.5q55 0 91 7t57 15v632zM129 706v21l216 155v-33z" />
    <glyph glyph-name="Ucircumflex" unicode="&#xdb;" horiz-adv-x="435" 
d="M361 664h31v-652q-25 -9 -68.5 -19t-110.5 -10q-36 0 -67.5 7.5t-55 26.5t-37 49.5t-13.5 77.5v520h30v-520q0 -39 11 -64.5t30.5 -41t45.5 -22t56 -6.5q55 0 91 7t57 15v632zM372 723l-153 163l-153 -163l-13 13l151 172h30l151 -172z" />
    <glyph glyph-name="Udieresis" unicode="&#xdc;" horiz-adv-x="435" 
d="M361 664h31v-652q-25 -9 -68.5 -19t-110.5 -10q-36 0 -67.5 7.5t-55 26.5t-37 49.5t-13.5 77.5v520h30v-520q0 -39 11 -64.5t30.5 -41t45.5 -22t56 -6.5q55 0 91 7t57 15v632zM107 726v133h38v-133h-38zM289 726v133h38v-133h-38z" />
    <glyph glyph-name="Yacute" unicode="&#xdd;" horiz-adv-x="410" 
d="M190 0v236q-31 17 -60 38t-51.5 50t-36 67.5t-13.5 90.5v182h30v-184q0 -47 12.5 -81.5t33 -60t46.5 -44t54 -34.5q28 16 54.5 34.5t46.5 44t32.5 59.5t12.5 82v184h30v-182q0 -52 -13 -90.5t-35.5 -67t-51.5 -50t-60 -38.5v-236h-31zM117 706v21l216 155v-33z" />
    <glyph glyph-name="Thorn" unicode="&#xde;" horiz-adv-x="411" 
d="M73 129v-129h-30v664h30v-113h176q43 0 70.5 -13t43 -39t21.5 -65.5t6 -93.5t-6 -93.5t-21.5 -66t-43 -39t-70.5 -12.5h-176zM249 154q34 0 55.5 10t34 32.5t17.5 57.5t5 86q0 50 -5 85.5t-17.5 57.5t-34 32t-55.5 10h-176v-371h176z" />
    <glyph glyph-name="germandbls" unicode="&#xdf;" horiz-adv-x="512" 
d="M460 174q0 27 -3 46.5t-10.5 33t-20 23.5t-31.5 19q-20 9 -34 19.5t-23 25t-13 35.5t-4 51v87q0 40 -9 67t-25.5 43t-40 22.5t-51.5 6.5q-64 0 -95.5 -28.5t-31.5 -100.5v-524h-28v524q0 45 11.5 75t31.5 48t48.5 25.5t63.5 7.5q33 0 61 -7.5t48.5 -25.5t32.5 -48t12 -75
v-92q0 -29 4 -48t12 -32t20.5 -21.5t29.5 -16.5q42 -20 57 -50t15 -87v-41q0 -79 -30 -116t-105 -37t-107.5 27.5t-32.5 93.5v57h25v-52q0 -54 26.5 -76.5t87.5 -22.5q60 0 84.5 29.5t24.5 95.5v39z" />
    <glyph glyph-name="agrave" unicode="&#xe0;" horiz-adv-x="397" 
d="M328 348q0 35 -10 59.5t-28 40t-42.5 22.5t-53.5 7q-47 0 -79.5 -6t-64.5 -20v29q25 11 59 18t86 7q34 0 64 -7.5t51.5 -25.5t34 -48t12.5 -75v-338q-11 -6 -25 -11t-32 -9t-42 -6t-56 -2q-40 0 -72 7.5t-55 24t-35.5 43.5t-12.5 66v32q0 41 13 67t34.5 41t50.5 20.5
t62 5.5q48 0 84.5 -14t56.5 -28v100zM328 227q-26 17 -61.5 29t-74.5 12q-29 0 -54 -4.5t-43 -17t-28.5 -34.5t-10.5 -57v-29q0 -64 39 -90t106 -26q53 0 80.5 6t46.5 15v196zM70 677v33l216 -155v-21z" />
    <glyph glyph-name="aacute" unicode="&#xe1;" horiz-adv-x="397" 
d="M328 348q0 35 -10 59.5t-28 40t-42.5 22.5t-53.5 7q-47 0 -79.5 -6t-64.5 -20v29q25 11 59 18t86 7q34 0 64 -7.5t51.5 -25.5t34 -48t12.5 -75v-338q-11 -6 -25 -11t-32 -9t-42 -6t-56 -2q-40 0 -72 7.5t-55 24t-35.5 43.5t-12.5 66v32q0 41 13 67t34.5 41t50.5 20.5
t62 5.5q48 0 84.5 -14t56.5 -28v100zM328 227q-26 17 -61.5 29t-74.5 12q-29 0 -54 -4.5t-43 -17t-28.5 -34.5t-10.5 -57v-29q0 -64 39 -90t106 -26q53 0 80.5 6t46.5 15v196zM110 534v21l216 155v-33z" />
    <glyph glyph-name="acircumflex" unicode="&#xe2;" horiz-adv-x="397" 
d="M328 348q0 35 -10 59.5t-28 40t-42.5 22.5t-53.5 7q-47 0 -79.5 -6t-64.5 -20v29q25 11 59 18t86 7q34 0 64 -7.5t51.5 -25.5t34 -48t12.5 -75v-338q-11 -6 -25 -11t-32 -9t-42 -6t-56 -2q-40 0 -72 7.5t-55 24t-35.5 43.5t-12.5 66v32q0 41 13 67t34.5 41t50.5 20.5
t62 5.5q48 0 84.5 -14t56.5 -28v100zM328 227q-26 17 -61.5 29t-74.5 12q-29 0 -54 -4.5t-43 -17t-28.5 -34.5t-10.5 -57v-29q0 -64 39 -90t106 -26q53 0 80.5 6t46.5 15v196zM353 551l-153 163l-153 -163l-13 13l151 172h30l151 -172z" />
    <glyph glyph-name="atilde" unicode="&#xe3;" horiz-adv-x="397" 
d="M328 348q0 35 -10 59.5t-28 40t-42.5 22.5t-53.5 7q-47 0 -79.5 -6t-64.5 -20v29q25 11 59 18t86 7q34 0 64 -7.5t51.5 -25.5t34 -48t12.5 -75v-338q-11 -6 -25 -11t-32 -9t-42 -6t-56 -2q-40 0 -72 7.5t-55 24t-35.5 43.5t-12.5 66v32q0 41 13 67t34.5 41t50.5 20.5
t62 5.5q48 0 84.5 -14t56.5 -28v100zM328 227q-26 17 -61.5 29t-74.5 12q-29 0 -54 -4.5t-43 -17t-28.5 -34.5t-10.5 -57v-29q0 -64 39 -90t106 -26q53 0 80.5 6t46.5 15v196zM49 620v25h301v-25h-301z" />
    <glyph glyph-name="adieresis" unicode="&#xe4;" horiz-adv-x="397" 
d="M328 348q0 35 -10 59.5t-28 40t-42.5 22.5t-53.5 7q-47 0 -79.5 -6t-64.5 -20v29q25 11 59 18t86 7q34 0 64 -7.5t51.5 -25.5t34 -48t12.5 -75v-338q-11 -6 -25 -11t-32 -9t-42 -6t-56 -2q-40 0 -72 7.5t-55 24t-35.5 43.5t-12.5 66v32q0 41 13 67t34.5 41t50.5 20.5
t62 5.5q48 0 84.5 -14t56.5 -28v100zM328 227q-26 17 -61.5 29t-74.5 12q-29 0 -54 -4.5t-43 -17t-28.5 -34.5t-10.5 -57v-29q0 -64 39 -90t106 -26q53 0 80.5 6t46.5 15v196zM88 554v133h38v-133h-38zM270 554v133h38v-133h-38z" />
    <glyph glyph-name="aring" unicode="&#xe5;" horiz-adv-x="397" 
d="M328 348q0 35 -10 59.5t-28 40t-42.5 22.5t-53.5 7q-47 0 -79.5 -6t-64.5 -20v29q25 11 59 18t86 7q34 0 64 -7.5t51.5 -25.5t34 -48t12.5 -75v-338q-11 -6 -25 -11t-32 -9t-42 -6t-56 -2q-40 0 -72 7.5t-55 24t-35.5 43.5t-12.5 66v32q0 41 13 67t34.5 41t50.5 20.5
t62 5.5q48 0 84.5 -14t56.5 -28v100zM328 227q-26 17 -61.5 29t-74.5 12q-29 0 -54 -4.5t-43 -17t-28.5 -34.5t-10.5 -57v-29q0 -64 39 -90t106 -26q53 0 80.5 6t46.5 15v196zM198 524q-95 0 -95 96q0 46 22 71t73 25q52 0 74 -25t22 -71q0 -48 -22 -72t-74 -24zM198 541
q42 0 60 20t18 59q0 38 -18 58.5t-60 20.5q-77 0 -77 -79t77 -79z" />
    <glyph glyph-name="ae" unicode="&#xe6;" horiz-adv-x="686" 
d="M647 8q-23 -10 -63 -17.5t-94 -7.5q-42 0 -77 11.5t-56 40.5v-24q-11 -6 -25 -11t-32 -9t-42 -6t-56 -2q-40 0 -72 7.5t-55 24t-35.5 43.5t-12.5 66v32q0 41 13 67t34.5 41t50.5 20.5t62 5.5q48 0 84.5 -14t56.5 -28v100q0 35 -10 59.5t-28 40t-42.5 22.5t-53.5 7
q-47 0 -79.5 -6t-64.5 -20v29q25 11 59 18t86 7q51 0 90 -17t58 -60q18 43 56.5 60t90.5 17q34 0 63.5 -7.5t51.5 -25.5t34.5 -48t12.5 -75v-121h-295v-95q0 -36 10.5 -59.5t29.5 -37.5t43.5 -19.5t53.5 -5.5q48 0 85.5 7t67.5 18v-28zM328 227q-26 17 -61.5 29t-74.5 12
q-29 0 -54 -4.5t-43 -17t-28.5 -34.5t-10.5 -57v-29q0 -64 39 -90t106 -26q53 0 80.5 6t46.5 15v196zM624 349q0 36 -10 60.5t-28 39.5t-42.5 21.5t-53.5 6.5q-60 0 -96.5 -28.5t-36.5 -99.5v-95h267v95z" />
    <glyph glyph-name="ccedilla" unicode="&#xe7;" horiz-adv-x="383" 
d="M324 206h28v-67q0 -45 -12 -75t-33 -48t-49.5 -25.5t-62.5 -7.5q-36 0 -65.5 7.5t-50.5 25.5t-33 48t-12 75v210q0 45 12 75t33 48t50.5 25.5t65.5 7.5q34 0 62.5 -7.5t49.5 -25.5t33 -48t12 -75v-63h-28v63q0 37 -10 61.5t-27 39.5t-40.5 21t-51.5 6q-29 0 -53.5 -6
t-42 -21t-27.5 -39.5t-10 -61.5v-200q0 -41 9 -67.5t26.5 -42.5t42 -22.5t55.5 -6.5q28 0 51.5 6t40.5 21t27 39.5t10 62.5v67zM185 -34h32l-8 -81q-2 -22 -6 -44.5t-9 -40.5t-12.5 -30t-16.5 -13z" />
    <glyph glyph-name="egrave" unicode="&#xe8;" 
d="M352 8q-23 -10 -63 -17.5t-94 -7.5q-34 0 -63.5 7.5t-51 25.5t-34 48t-12.5 75v210q0 45 12 75t33.5 48t51 25.5t64.5 7.5q34 0 63.5 -7.5t51.5 -25.5t34.5 -48t12.5 -75v-121h-295v-87q0 -38 10.5 -63t29 -40t43.5 -21t54 -6q48 0 85.5 7t67.5 18v-28zM329 349
q0 36 -10 60.5t-28 39.5t-42.5 21.5t-53.5 6.5q-60 0 -96.5 -28.5t-36.5 -99.5v-95h267v95zM67 677v33l216 -155v-21z" />
    <glyph glyph-name="eacute" unicode="&#xe9;" 
d="M352 8q-23 -10 -63 -17.5t-94 -7.5q-34 0 -63.5 7.5t-51 25.5t-34 48t-12.5 75v210q0 45 12 75t33.5 48t51 25.5t64.5 7.5q34 0 63.5 -7.5t51.5 -25.5t34.5 -48t12.5 -75v-121h-295v-87q0 -38 10.5 -63t29 -40t43.5 -21t54 -6q48 0 85.5 7t67.5 18v-28zM329 349
q0 36 -10 60.5t-28 39.5t-42.5 21.5t-53.5 6.5q-60 0 -96.5 -28.5t-36.5 -99.5v-95h267v95zM107 534v21l216 155v-33z" />
    <glyph glyph-name="ecircumflex" unicode="&#xea;" 
d="M352 8q-23 -10 -63 -17.5t-94 -7.5q-34 0 -63.5 7.5t-51 25.5t-34 48t-12.5 75v210q0 45 12 75t33.5 48t51 25.5t64.5 7.5q34 0 63.5 -7.5t51.5 -25.5t34.5 -48t12.5 -75v-121h-295v-87q0 -38 10.5 -63t29 -40t43.5 -21t54 -6q48 0 85.5 7t67.5 18v-28zM329 349
q0 36 -10 60.5t-28 39.5t-42.5 21.5t-53.5 6.5q-60 0 -96.5 -28.5t-36.5 -99.5v-95h267v95zM350 551l-153 163l-153 -163l-13 13l151 172h30l151 -172z" />
    <glyph glyph-name="edieresis" unicode="&#xeb;" 
d="M352 8q-23 -10 -63 -17.5t-94 -7.5q-34 0 -63.5 7.5t-51 25.5t-34 48t-12.5 75v210q0 45 12 75t33.5 48t51 25.5t64.5 7.5q34 0 63.5 -7.5t51.5 -25.5t34.5 -48t12.5 -75v-121h-295v-87q0 -38 10.5 -63t29 -40t43.5 -21t54 -6q48 0 85.5 7t67.5 18v-28zM329 349
q0 36 -10 60.5t-28 39.5t-42.5 21.5t-53.5 6.5q-60 0 -96.5 -28.5t-36.5 -99.5v-95h267v95zM85 554v133h38v-133h-38zM267 554v133h38v-133h-38z" />
    <glyph glyph-name="igrave" unicode="&#xec;" horiz-adv-x="125" 
d="M48 0v492h29v-492h-29zM-64 677v33l216 -155v-21z" />
    <glyph glyph-name="iacute" unicode="&#xed;" horiz-adv-x="125" 
d="M48 0v492h29v-492h-29zM-24 534v21l216 155v-33z" />
    <glyph glyph-name="icircumflex" unicode="&#xee;" horiz-adv-x="125" 
d="M48 0v492h29v-492h-29zM217 551l-153 163l-153 -163l-13 13l151 172h30l151 -172z" />
    <glyph glyph-name="idieresis" unicode="&#xef;" horiz-adv-x="125" 
d="M48 0v492h29v-492h-29zM-46 554v133h38v-133h-38zM136 554v133h38v-133h-38z" />
    <glyph glyph-name="eth" unicode="&#xf0;" horiz-adv-x="401" 
d="M334 398q-1 40 -15.5 85.5t-49.5 85.5l-172 -49l-5 21l162 46q-29 29 -68.5 51t-91.5 34h42q48 -10 84.5 -29.5t63.5 -47.5l72 21l6 -20l-64 -19q35 -42 50.5 -91t15.5 -95v-252q0 -45 -12 -75t-33.5 -48t-51.5 -25.5t-65 -7.5q-34 0 -64 7.5t-52.5 25.5t-36 48t-13.5 75
v160q0 49 13 79.5t34 47.5t48.5 23t57.5 6q55 0 86 -18t59 -55v16zM336 352q-14 18 -28.5 32t-31 23.5t-37 14t-46.5 4.5t-49 -5t-40.5 -19t-28 -39.5t-10.5 -66.5v-146q0 -40 10.5 -66.5t29 -42.5t43.5 -23t54 -7t53.5 6.5t42.5 21.5t28 40t10 62v211z" />
    <glyph glyph-name="ntilde" unicode="&#xf1;" horiz-adv-x="405" 
d="M338 0v348q0 37 -10 62t-27.5 40t-41.5 21t-52 6q-54 0 -84.5 -6.5t-51.5 -14.5v-456h-28v477q24 9 62.5 18.5t101.5 9.5q34 0 63 -7.5t50.5 -25.5t33.5 -48t12 -75v-349h-28zM52 620v25h301v-25h-301z" />
    <glyph glyph-name="ograve" unicode="&#xf2;" 
d="M357 139q0 -45 -12.5 -75t-34.5 -48t-51.5 -25.5t-63.5 -7.5q-35 0 -64.5 7.5t-51 25.5t-33.5 48t-12 75v210q0 45 12 75t33.5 48t51 25.5t64.5 7.5q34 0 63.5 -7.5t51.5 -25.5t34.5 -48t12.5 -75v-210zM329 349q0 37 -10.5 61.5t-28.5 39.5t-42.5 21t-52.5 6
q-29 0 -53.5 -6t-42 -21t-27.5 -39.5t-10 -61.5v-210q0 -38 10 -62.5t27.5 -39.5t42 -21t53.5 -6q28 0 52.5 6t42.5 21t28.5 39.5t10.5 62.5v210zM67 677v33l216 -155v-21z" />
    <glyph glyph-name="oacute" unicode="&#xf3;" 
d="M357 139q0 -45 -12.5 -75t-34.5 -48t-51.5 -25.5t-63.5 -7.5q-35 0 -64.5 7.5t-51 25.5t-33.5 48t-12 75v210q0 45 12 75t33.5 48t51 25.5t64.5 7.5q34 0 63.5 -7.5t51.5 -25.5t34.5 -48t12.5 -75v-210zM329 349q0 37 -10.5 61.5t-28.5 39.5t-42.5 21t-52.5 6
q-29 0 -53.5 -6t-42 -21t-27.5 -39.5t-10 -61.5v-210q0 -38 10 -62.5t27.5 -39.5t42 -21t53.5 -6q28 0 52.5 6t42.5 21t28.5 39.5t10.5 62.5v210zM107 534v21l216 155v-33z" />
    <glyph glyph-name="ocircumflex" unicode="&#xf4;" 
d="M357 139q0 -45 -12.5 -75t-34.5 -48t-51.5 -25.5t-63.5 -7.5q-35 0 -64.5 7.5t-51 25.5t-33.5 48t-12 75v210q0 45 12 75t33.5 48t51 25.5t64.5 7.5q34 0 63.5 -7.5t51.5 -25.5t34.5 -48t12.5 -75v-210zM329 349q0 37 -10.5 61.5t-28.5 39.5t-42.5 21t-52.5 6
q-29 0 -53.5 -6t-42 -21t-27.5 -39.5t-10 -61.5v-210q0 -38 10 -62.5t27.5 -39.5t42 -21t53.5 -6q28 0 52.5 6t42.5 21t28.5 39.5t10.5 62.5v210zM350 551l-153 163l-153 -163l-13 13l151 172h30l151 -172z" />
    <glyph glyph-name="otilde" unicode="&#xf5;" 
d="M357 139q0 -45 -12.5 -75t-34.5 -48t-51.5 -25.5t-63.5 -7.5q-35 0 -64.5 7.5t-51 25.5t-33.5 48t-12 75v210q0 45 12 75t33.5 48t51 25.5t64.5 7.5q34 0 63.5 -7.5t51.5 -25.5t34.5 -48t12.5 -75v-210zM329 349q0 37 -10.5 61.5t-28.5 39.5t-42.5 21t-52.5 6
q-29 0 -53.5 -6t-42 -21t-27.5 -39.5t-10 -61.5v-210q0 -38 10 -62.5t27.5 -39.5t42 -21t53.5 -6q28 0 52.5 6t42.5 21t28.5 39.5t10.5 62.5v210zM46 620v25h301v-25h-301z" />
    <glyph glyph-name="odieresis" unicode="&#xf6;" 
d="M357 139q0 -45 -12.5 -75t-34.5 -48t-51.5 -25.5t-63.5 -7.5q-35 0 -64.5 7.5t-51 25.5t-33.5 48t-12 75v210q0 45 12 75t33.5 48t51 25.5t64.5 7.5q34 0 63.5 -7.5t51.5 -25.5t34.5 -48t12.5 -75v-210zM329 349q0 37 -10.5 61.5t-28.5 39.5t-42.5 21t-52.5 6
q-29 0 -53.5 -6t-42 -21t-27.5 -39.5t-10 -61.5v-210q0 -38 10 -62.5t27.5 -39.5t42 -21t53.5 -6q28 0 52.5 6t42.5 21t28.5 39.5t10.5 62.5v210zM85 554v133h38v-133h-38zM267 554v133h38v-133h-38z" />
    <glyph glyph-name="divide" unicode="&#xf7;" horiz-adv-x="540" 
d="M48 332v27h442v-27h-442zM252 449v151h35v-151h-35zM252 91v151h35v-151h-35z" />
    <glyph glyph-name="oslash" unicode="&#xf8;" 
d="M34 -37l33 64q-16 19 -24.5 46.5t-8.5 65.5v210q0 45 12 75t33.5 48t51 25.5t64.5 7.5q31 0 58 -6.5t49 -21.5l33 63l22 -12l-36 -68q17 -19 26.5 -46t9.5 -65v-210q0 -45 -12.5 -75t-34.5 -48t-51.5 -25.5t-63.5 -7.5q-32 0 -60 6.5t-49 21.5l-31 -60zM329 349
q0 52 -22 83l-207 -395q17 -15 41.5 -21t53.5 -6q28 0 52.5 6t42.5 21t28.5 39.5t10.5 62.5v210zM62 139q0 -54 20 -83l206 395q-18 14 -41.5 20t-51.5 6q-29 0 -53.5 -6t-42 -21t-27.5 -39.5t-10 -61.5v-210z" />
    <glyph glyph-name="ugrave" unicode="&#xf9;" horiz-adv-x="407" 
d="M333 492h28v-481q-23 -9 -62 -18.5t-102 -9.5q-34 0 -63 7.5t-50 25.5t-33 48t-12 75v353h28v-353q0 -38 10 -62.5t27.5 -39.5t41 -21t51.5 -6q51 0 83.5 6.5t52.5 14.5v461zM75 677v33l216 -155v-21z" />
    <glyph glyph-name="uacute" unicode="&#xfa;" horiz-adv-x="407" 
d="M333 492h28v-481q-23 -9 -62 -18.5t-102 -9.5q-34 0 -63 7.5t-50 25.5t-33 48t-12 75v353h28v-353q0 -38 10 -62.5t27.5 -39.5t41 -21t51.5 -6q51 0 83.5 6.5t52.5 14.5v461zM115 534v21l216 155v-33z" />
    <glyph glyph-name="ucircumflex" unicode="&#xfb;" horiz-adv-x="407" 
d="M333 492h28v-481q-23 -9 -62 -18.5t-102 -9.5q-34 0 -63 7.5t-50 25.5t-33 48t-12 75v353h28v-353q0 -38 10 -62.5t27.5 -39.5t41 -21t51.5 -6q51 0 83.5 6.5t52.5 14.5v461zM358 551l-153 163l-153 -163l-13 13l151 172h30l151 -172z" />
    <glyph glyph-name="udieresis" unicode="&#xfc;" horiz-adv-x="407" 
d="M333 492h28v-481q-23 -9 -62 -18.5t-102 -9.5q-34 0 -63 7.5t-50 25.5t-33 48t-12 75v353h28v-353q0 -38 10 -62.5t27.5 -39.5t41 -21t51.5 -6q51 0 83.5 6.5t52.5 14.5v461zM93 554v133h38v-133h-38zM275 554v133h38v-133h-38z" />
    <glyph glyph-name="yacute" unicode="&#xfd;" horiz-adv-x="402" 
d="M333 35q-21 -15 -56.5 -28t-89.5 -13q-31 0 -58 7t-47.5 24.5t-32 47.5t-11.5 77v342h29v-341q0 -39 9.5 -64t26 -39.5t39.5 -20t50 -5.5q54 0 87.5 13t53.5 27v430h29v-587q0 -43 -12.5 -72t-34 -46.5t-51.5 -25t-64 -7.5q-33 0 -60.5 7.5t-47.5 25t-31.5 46.5t-11.5 72
v39h27v-39q0 -35 9.5 -59t26 -38.5t39 -20.5t49.5 -6q28 0 52.5 6t42.5 20.5t28 38.5t10 59v130zM113 534v21l216 155v-33z" />
    <glyph glyph-name="thorn" unicode="&#xfe;" horiz-adv-x="400" 
d="M43 -233v905h28v-208q22 15 57 28t89 13q31 0 58.5 -7t47.5 -24.5t31.5 -48t11.5 -76.5v-210q0 -47 -11.5 -77.5t-31.5 -48t-47.5 -24t-58.5 -6.5q-54 0 -89 12.5t-57 27.5v-256h-28zM338 346q0 39 -9.5 64t-26 40t-39.5 20.5t-50 5.5q-54 0 -88 -13t-54 -28v-383
q20 -15 54 -28t88 -13q27 0 50 5.5t39.5 20.5t26 40t9.5 64v205z" />
    <glyph glyph-name="ydieresis" unicode="&#xff;" horiz-adv-x="402" 
d="M333 35q-21 -15 -56.5 -28t-89.5 -13q-31 0 -58 7t-47.5 24.5t-32 47.5t-11.5 77v342h29v-341q0 -39 9.5 -64t26 -39.5t39.5 -20t50 -5.5q54 0 87.5 13t53.5 27v430h29v-587q0 -43 -12.5 -72t-34 -46.5t-51.5 -25t-64 -7.5q-33 0 -60.5 7.5t-47.5 25t-31.5 46.5t-11.5 72
v39h27v-39q0 -35 9.5 -59t26 -38.5t39 -20.5t49.5 -6q28 0 52.5 6t42.5 20.5t28 38.5t10 59v130zM91 554v133h38v-133h-38zM273 554v133h38v-133h-38z" />
    <glyph glyph-name="Amacron" unicode="&#x100;" horiz-adv-x="425" 
d="M357 0v266h-291v-266h-30v426q0 55 14.5 95t39 69.5t56 50.5t66.5 39q33 -18 64.5 -39.5t56.5 -50.5t40 -69t15 -95v-426h-31zM357 428q0 47 -12 81.5t-32.5 60t-46.5 44t-54 33.5q-29 -15 -55.5 -33.5t-46.5 -44t-32 -60t-12 -81.5v-135h291v135zM62 792v25h301v-25
h-301z" />
    <glyph glyph-name="amacron" unicode="&#x101;" horiz-adv-x="397" 
d="M328 348q0 35 -10 59.5t-28 40t-42.5 22.5t-53.5 7q-47 0 -79.5 -6t-64.5 -20v29q25 11 59 18t86 7q34 0 64 -7.5t51.5 -25.5t34 -48t12.5 -75v-338q-11 -6 -25 -11t-32 -9t-42 -6t-56 -2q-40 0 -72 7.5t-55 24t-35.5 43.5t-12.5 66v32q0 41 13 67t34.5 41t50.5 20.5
t62 5.5q48 0 84.5 -14t56.5 -28v100zM328 227q-26 17 -61.5 29t-74.5 12q-29 0 -54 -4.5t-43 -17t-28.5 -34.5t-10.5 -57v-29q0 -64 39 -90t106 -26q53 0 80.5 6t46.5 15v196zM49 620v25h301v-25h-301z" />
    <glyph glyph-name="Abreve" unicode="&#x102;" horiz-adv-x="425" 
d="M357 0v266h-291v-266h-30v426q0 55 14.5 95t39 69.5t56 50.5t66.5 39q33 -18 64.5 -39.5t56.5 -50.5t40 -69t15 -95v-426h-31zM357 428q0 47 -12 81.5t-32.5 60t-46.5 44t-54 33.5q-29 -15 -55.5 -33.5t-46.5 -44t-32 -60t-12 -81.5v-135h291v135zM363 888
q0 -42 -12.5 -73t-33.5 -51.5t-48 -31t-55 -10.5q-29 0 -56 10.5t-47.5 31t-33 51.5t-12.5 73h24q1 -36 11.5 -63t27.5 -45t39 -26.5t47 -8.5q24 0 46.5 8.5t40 26t28 44.5t10.5 64h24z" />
    <glyph glyph-name="abreve" unicode="&#x103;" horiz-adv-x="397" 
d="M328 348q0 35 -10 59.5t-28 40t-42.5 22.5t-53.5 7q-47 0 -79.5 -6t-64.5 -20v29q25 11 59 18t86 7q34 0 64 -7.5t51.5 -25.5t34 -48t12.5 -75v-338q-11 -6 -25 -11t-32 -9t-42 -6t-56 -2q-40 0 -72 7.5t-55 24t-35.5 43.5t-12.5 66v32q0 41 13 67t34.5 41t50.5 20.5
t62 5.5q48 0 84.5 -14t56.5 -28v100zM328 227q-26 17 -61.5 29t-74.5 12q-29 0 -54 -4.5t-43 -17t-28.5 -34.5t-10.5 -57v-29q0 -64 39 -90t106 -26q53 0 80.5 6t46.5 15v196zM349 716q0 -42 -12.5 -73t-33.5 -51.5t-48 -31t-55 -10.5q-29 0 -56 10.5t-47.5 31t-33 51.5
t-12.5 73h24q1 -36 11.5 -63t27.5 -45t39 -26.5t47 -8.5q24 0 46.5 8.5t40 26t28 44.5t10.5 64h24z" />
    <glyph glyph-name="Aogonek" unicode="&#x104;" horiz-adv-x="425" 
d="M388 -229q-5 -2 -16 -3t-33 -1q-38 0 -61.5 8.5t-36.5 22.5t-17.5 32.5t-4.5 38.5q0 43 16.5 68.5t61.5 40.5l60 20v268h-291v-266h-30v426q0 55 14.5 95t39 69.5t56 50.5t66.5 39q33 -18 64.5 -39.5t56.5 -50.5t40 -69t15 -95v-426l-79 -27q-38 -14 -52 -37.5t-14 -59.5
q0 -17 3.5 -32t14 -26.5t29.5 -18t51 -6.5q38 0 47 4v-26zM357 428q0 47 -12 81.5t-32.5 60t-46.5 44t-54 33.5q-29 -15 -55.5 -33.5t-46.5 -44t-32 -60t-12 -81.5v-135h291v135z" />
    <glyph glyph-name="aogonek" unicode="&#x105;" horiz-adv-x="397" 
d="M331 -229q-5 -2 -16 -3t-33 -1q-38 0 -61.5 8.5t-36.5 22.5t-17.5 32.5t-4.5 38.5q0 43 16.5 68t61.5 41l23 8q-27 -3 -61 -3q-40 0 -72 7.5t-55 24t-35.5 43.5t-12.5 66v32q0 41 13 67t34.5 41t50.5 20.5t62 5.5q48 0 84.5 -14t56.5 -28v100q0 35 -10 59.5t-28 40
t-42.5 22.5t-53.5 7q-47 0 -79.5 -6t-64.5 -20v29q25 11 59 18t86 7q34 0 64 -7.5t51.5 -25.5t34 -48t12.5 -75v-338q-5 -3 -11 -6t-17 -7t-29.5 -10t-47.5 -15q-38 -12 -52 -37t-14 -60q0 -17 3.5 -32t14 -26.5t29.5 -18t51 -6.5q38 0 47 4v-26zM328 227q-26 17 -61.5 29
t-74.5 12q-29 0 -54 -4.5t-43 -17t-28.5 -34.5t-10.5 -57v-29q0 -64 39 -90t106 -26q53 0 80.5 6t46.5 15v196z" />
    <glyph glyph-name="Cacute" unicode="&#x106;" horiz-adv-x="404" 
d="M341 275h28v-130q0 -47 -11.5 -78t-32 -49.5t-49.5 -26.5t-65 -8q-37 0 -69 8t-55.5 26.5t-37 49.5t-13.5 78v373q0 46 13.5 77.5t37 50t55.5 26.5t69 8q36 0 65 -8t49.5 -26.5t32 -50t11.5 -77.5v-135h-28v135q0 76 -34 105.5t-96 29.5q-33 0 -59.5 -7t-45.5 -22.5
t-29.5 -41.5t-10.5 -64v-373q0 -38 10.5 -64t29.5 -42t46 -22.5t59 -6.5q31 0 55 6.5t40.5 22.5t25.5 42t9 64v130zM114 706v21l216 155v-33z" />
    <glyph glyph-name="cacute" unicode="&#x107;" horiz-adv-x="383" 
d="M324 206h28v-67q0 -45 -12 -75t-33 -48t-49.5 -25.5t-62.5 -7.5q-36 0 -65.5 7.5t-50.5 25.5t-33 48t-12 75v210q0 45 12 75t33 48t50.5 25.5t65.5 7.5q34 0 62.5 -7.5t49.5 -25.5t33 -48t12 -75v-63h-28v63q0 37 -10 61.5t-27 39.5t-40.5 21t-51.5 6q-29 0 -53.5 -6
t-42 -21t-27.5 -39.5t-10 -61.5v-200q0 -41 9 -67.5t26.5 -42.5t42 -22.5t55.5 -6.5q28 0 51.5 6t40.5 21t27 39.5t10 62.5v67zM103 534v21l216 155v-33z" />
    <glyph glyph-name="Ccircumflex" unicode="&#x108;" horiz-adv-x="404" 
d="M341 275h28v-130q0 -47 -11.5 -78t-32 -49.5t-49.5 -26.5t-65 -8q-37 0 -69 8t-55.5 26.5t-37 49.5t-13.5 78v373q0 46 13.5 77.5t37 50t55.5 26.5t69 8q36 0 65 -8t49.5 -26.5t32 -50t11.5 -77.5v-135h-28v135q0 76 -34 105.5t-96 29.5q-33 0 -59.5 -7t-45.5 -22.5
t-29.5 -41.5t-10.5 -64v-373q0 -38 10.5 -64t29.5 -42t46 -22.5t59 -6.5q31 0 55 6.5t40.5 22.5t25.5 42t9 64v130zM356 723l-153 163l-153 -163l-13 13l151 172h30l151 -172z" />
    <glyph glyph-name="ccircumflex" unicode="&#x109;" horiz-adv-x="383" 
d="M324 206h28v-67q0 -45 -12 -75t-33 -48t-49.5 -25.5t-62.5 -7.5q-36 0 -65.5 7.5t-50.5 25.5t-33 48t-12 75v210q0 45 12 75t33 48t50.5 25.5t65.5 7.5q34 0 62.5 -7.5t49.5 -25.5t33 -48t12 -75v-63h-28v63q0 37 -10 61.5t-27 39.5t-40.5 21t-51.5 6q-29 0 -53.5 -6
t-42 -21t-27.5 -39.5t-10 -61.5v-200q0 -41 9 -67.5t26.5 -42.5t42 -22.5t55.5 -6.5q28 0 51.5 6t40.5 21t27 39.5t10 62.5v67zM346 551l-153 163l-153 -163l-13 13l151 172h30l151 -172z" />
    <glyph glyph-name="Cdotaccent" unicode="&#x10a;" horiz-adv-x="404" 
d="M341 275h28v-130q0 -47 -11.5 -78t-32 -49.5t-49.5 -26.5t-65 -8q-37 0 -69 8t-55.5 26.5t-37 49.5t-13.5 78v373q0 46 13.5 77.5t37 50t55.5 26.5t69 8q36 0 65 -8t49.5 -26.5t32 -50t11.5 -77.5v-135h-28v135q0 76 -34 105.5t-96 29.5q-33 0 -59.5 -7t-45.5 -22.5
t-29.5 -41.5t-10.5 -64v-373q0 -38 10.5 -64t29.5 -42t46 -22.5t59 -6.5q31 0 55 6.5t40.5 22.5t25.5 42t9 64v130zM183 726v133h38v-133h-38z" />
    <glyph glyph-name="cdotaccent" unicode="&#x10b;" horiz-adv-x="383" 
d="M324 206h28v-67q0 -45 -12 -75t-33 -48t-49.5 -25.5t-62.5 -7.5q-36 0 -65.5 7.5t-50.5 25.5t-33 48t-12 75v210q0 45 12 75t33 48t50.5 25.5t65.5 7.5q34 0 62.5 -7.5t49.5 -25.5t33 -48t12 -75v-63h-28v63q0 37 -10 61.5t-27 39.5t-40.5 21t-51.5 6q-29 0 -53.5 -6
t-42 -21t-27.5 -39.5t-10 -61.5v-200q0 -41 9 -67.5t26.5 -42.5t42 -22.5t55.5 -6.5q28 0 51.5 6t40.5 21t27 39.5t10 62.5v67zM172 554v133h38v-133h-38z" />
    <glyph glyph-name="Ccaron" unicode="&#x10c;" horiz-adv-x="404" 
d="M341 275h28v-130q0 -47 -11.5 -78t-32 -49.5t-49.5 -26.5t-65 -8q-37 0 -69 8t-55.5 26.5t-37 49.5t-13.5 78v373q0 46 13.5 77.5t37 50t55.5 26.5t69 8q36 0 65 -8t49.5 -26.5t32 -50t11.5 -77.5v-135h-28v135q0 76 -34 105.5t-96 29.5q-33 0 -59.5 -7t-45.5 -22.5
t-29.5 -41.5t-10.5 -64v-373q0 -38 10.5 -64t29.5 -42t46 -22.5t59 -6.5q31 0 55 6.5t40.5 22.5t25.5 42t9 64v130zM35 882l12 16l155 -162l156 162l13 -16l-169 -179z" />
    <glyph glyph-name="ccaron" unicode="&#x10d;" horiz-adv-x="383" 
d="M324 206h28v-67q0 -45 -12 -75t-33 -48t-49.5 -25.5t-62.5 -7.5q-36 0 -65.5 7.5t-50.5 25.5t-33 48t-12 75v210q0 45 12 75t33 48t50.5 25.5t65.5 7.5q34 0 62.5 -7.5t49.5 -25.5t33 -48t12 -75v-63h-28v63q0 37 -10 61.5t-27 39.5t-40.5 21t-51.5 6q-29 0 -53.5 -6
t-42 -21t-27.5 -39.5t-10 -61.5v-200q0 -41 9 -67.5t26.5 -42.5t42 -22.5t55.5 -6.5q28 0 51.5 6t40.5 21t27 39.5t10 62.5v67zM25 710l12 16l155 -162l156 162l13 -16l-169 -179z" />
    <glyph glyph-name="Dcaron" unicode="&#x10e;" horiz-adv-x="432" 
d="M43 0v664h176q36 0 68 -7.5t56 -30t38 -62.5t14 -105v-270q0 -52 -14 -88t-38 -58.5t-56 -32.5t-68 -10h-176zM365 459q0 57 -11.5 92t-31 54t-46 25.5t-57.5 6.5h-146v-610h146q31 0 57.5 8.5t46 27.5t31 50t11.5 76v270zM39 882l12 16l155 -162l156 162l13 -16
l-169 -179z" />
    <glyph glyph-name="dcaron" unicode="&#x10f;" horiz-adv-x="467" 
d="M34 349q0 46 11.5 76.5t31.5 48t47 24.5t59 7q54 0 89 -13t57 -28v208h28v-661q-24 -9 -62.5 -18.5t-101.5 -9.5q-34 0 -63 7.5t-50.5 25.5t-33.5 48t-12 75v210zM329 437q-20 14 -54 27t-88 13q-27 0 -50 -5.5t-39.5 -20t-26 -39.5t-9.5 -64v-209q0 -38 10 -62.5
t27.5 -39.5t41.5 -21t52 -6q52 0 83.5 6.5t52.5 14.5v406zM416 672h35l-12 -141q-2 -21 -5 -44.5t-8.5 -43t-14 -33t-20.5 -14.5z" />
    <glyph glyph-name="Dcroat" unicode="&#x110;" horiz-adv-x="432" 
d="M45 0v335h-25v27h25v302h176q36 0 68 -7.5t56 -30t38 -62.5t14 -105v-270q0 -52 -14 -88t-38 -58.5t-56 -32.5t-68 -10h-176zM366 459q0 57 -11.5 92t-31 54t-46 25.5t-56.5 6.5h-146v-275h166v-27h-166v-308h146q30 0 56.5 8.5t46 27.5t31 50t11.5 76v270z" />
    <glyph glyph-name="dcroat" unicode="&#x111;" horiz-adv-x="400" 
d="M357 565v-554q-24 -9 -62.5 -18.5t-101.5 -9.5q-34 0 -63 7.5t-50.5 25.5t-33.5 48t-12 75v210q0 46 11.5 76.5t31.5 48t47 24.5t59 7q54 0 89 -13t57 -28v101h-230v25h230v82h28v-82h43v-25h-43zM329 437q-20 14 -54 27t-88 13q-27 0 -50 -5.5t-39.5 -20t-26 -39.5
t-9.5 -64v-209q0 -38 10 -62.5t27.5 -39.5t41.5 -21t52 -6q52 0 83.5 6.5t52.5 14.5v406z" />
    <glyph glyph-name="Emacron" unicode="&#x112;" horiz-adv-x="324" 
d="M43 0v664h247v-27h-217v-275h205v-27h-205v-308h223v-27h-253zM21 792v25h301v-25h-301z" />
    <glyph glyph-name="emacron" unicode="&#x113;" 
d="M352 8q-23 -10 -63 -17.5t-94 -7.5q-34 0 -63.5 7.5t-51 25.5t-34 48t-12.5 75v210q0 45 12 75t33.5 48t51 25.5t64.5 7.5q34 0 63.5 -7.5t51.5 -25.5t34.5 -48t12.5 -75v-121h-295v-87q0 -38 10.5 -63t29 -40t43.5 -21t54 -6q48 0 85.5 7t67.5 18v-28zM329 349
q0 36 -10 60.5t-28 39.5t-42.5 21.5t-53.5 6.5q-60 0 -96.5 -28.5t-36.5 -99.5v-95h267v95zM46 620v25h301v-25h-301z" />
    <glyph glyph-name="Ebreve" unicode="&#x114;" horiz-adv-x="324" 
d="M43 0v664h247v-27h-217v-275h205v-27h-205v-308h223v-27h-253zM318 888q0 -42 -12.5 -73t-33.5 -51.5t-48 -31t-55 -10.5q-29 0 -56 10.5t-47.5 31t-33 51.5t-12.5 73h24q1 -36 11.5 -63t27.5 -45t39 -26.5t47 -8.5q24 0 46.5 8.5t40 26t28 44.5t10.5 64h24z" />
    <glyph glyph-name="ebreve" unicode="&#x115;" 
d="M352 8q-23 -10 -63 -17.5t-94 -7.5q-34 0 -63.5 7.5t-51 25.5t-34 48t-12.5 75v210q0 45 12 75t33.5 48t51 25.5t64.5 7.5q34 0 63.5 -7.5t51.5 -25.5t34.5 -48t12.5 -75v-121h-295v-87q0 -38 10.5 -63t29 -40t43.5 -21t54 -6q48 0 85.5 7t67.5 18v-28zM329 349
q0 36 -10 60.5t-28 39.5t-42.5 21.5t-53.5 6.5q-60 0 -96.5 -28.5t-36.5 -99.5v-95h267v95zM346 716q0 -42 -12.5 -73t-33.5 -51.5t-48 -31t-55 -10.5q-29 0 -56 10.5t-47.5 31t-33 51.5t-12.5 73h24q1 -36 11.5 -63t27.5 -45t39 -26.5t47 -8.5q24 0 46.5 8.5t40 26t28 44.5
t10.5 64h24z" />
    <glyph glyph-name="Edotaccent" unicode="&#x116;" horiz-adv-x="324" 
d="M43 0v664h247v-27h-217v-275h205v-27h-205v-308h223v-27h-253zM153 726v133h38v-133h-38z" />
    <glyph glyph-name="edotaccent" unicode="&#x117;" 
d="M352 8q-23 -10 -63 -17.5t-94 -7.5q-34 0 -63.5 7.5t-51 25.5t-34 48t-12.5 75v210q0 45 12 75t33.5 48t51 25.5t64.5 7.5q34 0 63.5 -7.5t51.5 -25.5t34.5 -48t12.5 -75v-121h-295v-87q0 -38 10.5 -63t29 -40t43.5 -21t54 -6q48 0 85.5 7t67.5 18v-28zM329 349
q0 36 -10 60.5t-28 39.5t-42.5 21.5t-53.5 6.5q-60 0 -96.5 -28.5t-36.5 -99.5v-95h267v95zM176 554v133h38v-133h-38z" />
    <glyph glyph-name="Eogonek" unicode="&#x118;" horiz-adv-x="324" 
d="M296 -229q-5 -2 -16 -3t-33 -1q-38 0 -61.5 8.5t-36.5 22.5t-17.5 32.5t-4.5 38.5q0 42 16.5 68t61.5 41l67 22h-229v664h247v-27h-217v-275h205v-27h-205v-308h223v-27l-79 -27q-38 -14 -52 -37.5t-14 -59.5q0 -17 3.5 -32t14 -26.5t29.5 -18t51 -6.5q38 0 47 4v-26z
" />
    <glyph glyph-name="eogonek" unicode="&#x119;" 
d="M327 -229q-5 -2 -16 -3t-33 -1q-38 0 -61.5 8.5t-36.5 22.5t-17.5 32.5t-4.5 38.5q0 43 16.5 68.5t61.5 40.5l27 9q-15 -2 -32.5 -3t-35.5 -1q-34 0 -63.5 7.5t-51 25.5t-34 48t-12.5 75v210q0 45 12 75t33.5 48t51 25.5t64.5 7.5q34 0 63.5 -7.5t51.5 -25.5t34.5 -48
t12.5 -75v-121h-295v-87q0 -38 10.5 -63t29 -40t43.5 -21t54 -6q48 0 85.5 7t67.5 18v-28q-4 -2 -9 -4t-16 -5.5t-29.5 -9.5t-49.5 -16q-38 -13 -52 -37.5t-14 -59.5q0 -17 3.5 -32t14 -26.5t29.5 -18t51 -6.5q38 0 47 4v-26zM329 349q0 36 -10 60.5t-28 39.5t-42.5 21.5
t-53.5 6.5q-60 0 -96.5 -28.5t-36.5 -99.5v-95h267v95z" />
    <glyph glyph-name="Ecaron" unicode="&#x11a;" horiz-adv-x="324" 
d="M43 0v664h247v-27h-217v-275h205v-27h-205v-308h223v-27h-253zM1 882l12 16l155 -162l156 162l13 -16l-169 -179z" />
    <glyph glyph-name="ecaron" unicode="&#x11b;" 
d="M352 8q-23 -10 -63 -17.5t-94 -7.5q-34 0 -63.5 7.5t-51 25.5t-34 48t-12.5 75v210q0 45 12 75t33.5 48t51 25.5t64.5 7.5q34 0 63.5 -7.5t51.5 -25.5t34.5 -48t12.5 -75v-121h-295v-87q0 -38 10.5 -63t29 -40t43.5 -21t54 -6q48 0 85.5 7t67.5 18v-28zM329 349
q0 36 -10 60.5t-28 39.5t-42.5 21.5t-53.5 6.5q-60 0 -96.5 -28.5t-36.5 -99.5v-95h267v95zM29 710l12 16l155 -162l156 162l13 -16l-169 -179z" />
    <glyph glyph-name="Gcircumflex" unicode="&#x11c;" horiz-adv-x="418" 
d="M349 340h29v-328q-25 -9 -63.5 -19t-105.5 -10q-36 0 -67.5 7.5t-55 26.5t-37 49.5t-13.5 77.5v374q0 46 13.5 77.5t37 50t55.5 26.5t69 8q36 0 65 -8t49.5 -26.5t32 -50t11.5 -77.5v-92h-28v92q0 76 -34 105.5t-96 29.5q-33 0 -59.5 -7t-45.5 -22.5t-29.5 -41.5
t-10.5 -64v-374q0 -39 11 -64.5t30.5 -41t46 -22t56.5 -6.5q54 0 86 7t53 15v308zM363 723l-153 163l-153 -163l-13 13l151 172h30l151 -172z" />
    <glyph glyph-name="gcircumflex" unicode="&#x11d;" horiz-adv-x="393" 
d="M329 35q-22 -15 -57 -28t-89 -13q-32 0 -59 7t-47 24.5t-31.5 47.5t-11.5 77v199q0 45 12.5 75t34 48t51 25.5t63.5 7.5q35 0 65 -7.5t51.5 -25.5t33.5 -48t12 -75v-444q0 -43 -12.5 -72t-34 -46.5t-51.5 -25t-64 -7.5q-32 0 -59.5 7.5t-47.5 25t-31.5 46.5t-11.5 72v39
h27v-39q0 -35 9 -59t25.5 -38.5t39 -20.5t49.5 -6q28 0 52.5 6t42.5 20.5t28.5 38.5t10.5 59v130zM329 349q0 37 -10 61.5t-28 39.5t-42.5 21t-53.5 6q-28 0 -52 -6t-42 -21t-28.5 -39.5t-10.5 -61.5v-198q0 -39 9.5 -64t26 -39.5t39.5 -20t50 -5.5q54 0 88 13t54 27v287z
M351 551l-153 163l-153 -163l-13 13l151 172h30l151 -172z" />
    <glyph glyph-name="Gbreve" unicode="&#x11e;" horiz-adv-x="418" 
d="M349 340h29v-328q-25 -9 -63.5 -19t-105.5 -10q-36 0 -67.5 7.5t-55 26.5t-37 49.5t-13.5 77.5v374q0 46 13.5 77.5t37 50t55.5 26.5t69 8q36 0 65 -8t49.5 -26.5t32 -50t11.5 -77.5v-92h-28v92q0 76 -34 105.5t-96 29.5q-33 0 -59.5 -7t-45.5 -22.5t-29.5 -41.5
t-10.5 -64v-374q0 -39 11 -64.5t30.5 -41t46 -22t56.5 -6.5q54 0 86 7t53 15v308zM359 888q0 -42 -12.5 -73t-33.5 -51.5t-48 -31t-55 -10.5q-29 0 -56 10.5t-47.5 31t-33 51.5t-12.5 73h24q1 -36 11.5 -63t27.5 -45t39 -26.5t47 -8.5q24 0 46.5 8.5t40 26t28 44.5t10.5 64
h24z" />
    <glyph glyph-name="gbreve" unicode="&#x11f;" horiz-adv-x="393" 
d="M329 35q-22 -15 -57 -28t-89 -13q-32 0 -59 7t-47 24.5t-31.5 47.5t-11.5 77v199q0 45 12.5 75t34 48t51 25.5t63.5 7.5q35 0 65 -7.5t51.5 -25.5t33.5 -48t12 -75v-444q0 -43 -12.5 -72t-34 -46.5t-51.5 -25t-64 -7.5q-32 0 -59.5 7.5t-47.5 25t-31.5 46.5t-11.5 72v39
h27v-39q0 -35 9 -59t25.5 -38.5t39 -20.5t49.5 -6q28 0 52.5 6t42.5 20.5t28.5 38.5t10.5 59v130zM329 349q0 37 -10 61.5t-28 39.5t-42.5 21t-53.5 6q-28 0 -52 -6t-42 -21t-28.5 -39.5t-10.5 -61.5v-198q0 -39 9.5 -64t26 -39.5t39.5 -20t50 -5.5q54 0 88 13t54 27v287z
M347 716q0 -42 -12.5 -73t-33.5 -51.5t-48 -31t-55 -10.5q-29 0 -56 10.5t-47.5 31t-33 51.5t-12.5 73h24q1 -36 11.5 -63t27.5 -45t39 -26.5t47 -8.5q24 0 46.5 8.5t40 26t28 44.5t10.5 64h24z" />
    <glyph glyph-name="Gdotaccent" unicode="&#x120;" horiz-adv-x="418" 
d="M349 340h29v-328q-25 -9 -63.5 -19t-105.5 -10q-36 0 -67.5 7.5t-55 26.5t-37 49.5t-13.5 77.5v374q0 46 13.5 77.5t37 50t55.5 26.5t69 8q36 0 65 -8t49.5 -26.5t32 -50t11.5 -77.5v-92h-28v92q0 76 -34 105.5t-96 29.5q-33 0 -59.5 -7t-45.5 -22.5t-29.5 -41.5
t-10.5 -64v-374q0 -39 11 -64.5t30.5 -41t46 -22t56.5 -6.5q54 0 86 7t53 15v308zM190 726v133h38v-133h-38z" />
    <glyph glyph-name="gdotaccent" unicode="&#x121;" horiz-adv-x="393" 
d="M329 35q-22 -15 -57 -28t-89 -13q-32 0 -59 7t-47 24.5t-31.5 47.5t-11.5 77v199q0 45 12.5 75t34 48t51 25.5t63.5 7.5q35 0 65 -7.5t51.5 -25.5t33.5 -48t12 -75v-444q0 -43 -12.5 -72t-34 -46.5t-51.5 -25t-64 -7.5q-32 0 -59.5 7.5t-47.5 25t-31.5 46.5t-11.5 72v39
h27v-39q0 -35 9 -59t25.5 -38.5t39 -20.5t49.5 -6q28 0 52.5 6t42.5 20.5t28.5 38.5t10.5 59v130zM329 349q0 37 -10 61.5t-28 39.5t-42.5 21t-53.5 6q-28 0 -52 -6t-42 -21t-28.5 -39.5t-10.5 -61.5v-198q0 -39 9.5 -64t26 -39.5t39.5 -20t50 -5.5q54 0 88 13t54 27v287z
M177 554v133h38v-133h-38z" />
    <glyph glyph-name="uni0122" unicode="&#x122;" horiz-adv-x="418" 
d="M349 340h29v-328q-25 -9 -63.5 -19t-105.5 -10q-36 0 -67.5 7.5t-55 26.5t-37 49.5t-13.5 77.5v374q0 46 13.5 77.5t37 50t55.5 26.5t69 8q36 0 65 -8t49.5 -26.5t32 -50t11.5 -77.5v-92h-28v92q0 76 -34 105.5t-96 29.5q-33 0 -59.5 -7t-45.5 -22.5t-29.5 -41.5
t-10.5 -64v-374q0 -39 11 -64.5t30.5 -41t46 -22t56.5 -6.5q54 0 86 7t53 15v308zM203 -34h32l-8 -81q-2 -22 -6 -44.5t-9 -40.5t-12.5 -30t-16.5 -13z" />
    <glyph glyph-name="uni0123" unicode="&#x123;" horiz-adv-x="393" 
d="M329 35q-22 -15 -57 -28t-89 -13q-32 0 -59 7t-47 24.5t-31.5 47.5t-11.5 77v199q0 45 12.5 75t34 48t51 25.5t63.5 7.5q35 0 65 -7.5t51.5 -25.5t33.5 -48t12 -75v-444q0 -43 -12.5 -72t-34 -46.5t-51.5 -25t-64 -7.5q-32 0 -59.5 7.5t-47.5 25t-31.5 46.5t-11.5 72v39
h27v-39q0 -35 9 -59t25.5 -38.5t39 -20.5t49.5 -6q28 0 52.5 6t42.5 20.5t28.5 38.5t10.5 59v130zM329 349q0 37 -10 61.5t-28 39.5t-42.5 21t-53.5 6q-28 0 -52 -6t-42 -21t-28.5 -39.5t-10.5 -61.5v-198q0 -39 9.5 -64t26 -39.5t39.5 -20t50 -5.5q54 0 88 13t54 27v287z
M212.005 528.998h-31.998l8 80.9951q1.99902 21.998 5.99902 44.4971t9 40.498q4.99902 17.998 12.499 29.998q7.49902 11.999 16.499 12.999z" />
    <glyph glyph-name="Hcircumflex" unicode="&#x124;" horiz-adv-x="439" 
d="M365 0v323h-292v-323h-30v664h30v-314h292v314h30v-664h-30zM374 723l-153 163l-153 -163l-13 13l151 172h30l151 -172z" />
    <glyph glyph-name="hcircumflex" unicode="&#x125;" horiz-adv-x="405" 
d="M338 0v348q0 39 -9.5 64t-26 39.5t-39.5 20t-50 5.5q-54 0 -88 -13t-54 -27v-437h-28v672h28v-208q22 15 57 28t89 13q31 0 58.5 -7t47.5 -24.5t31.5 -48t11.5 -76.5v-349h-28zM363 723l-153 163l-153 -163l-13 13l151 172h30l151 -172z" />
    <glyph glyph-name="Hbar" unicode="&#x126;" horiz-adv-x="439" 
d="M365 0v323h-292v-323h-30v664h30v-147h292v147h30v-664h-30zM365 350v142h-292v-142h292z" />
    <glyph glyph-name="hbar" unicode="&#x127;" horiz-adv-x="405" 
d="M71 570v-106q22 15 57 28t89 13q31 0 58.5 -7t47.5 -24.5t31.5 -48t11.5 -76.5v-349h-28v348q0 39 -9.5 64t-26 39.5t-39.5 20t-50 5.5q-54 0 -88 -13t-54 -27v-437h-28v570h-43v25h43v77h28v-77h230v-25h-230z" />
    <glyph glyph-name="Itilde" unicode="&#x128;" horiz-adv-x="116" 
d="M43 0v664h30v-664h-30zM-91 792v25h301v-25h-301z" />
    <glyph glyph-name="itilde" unicode="&#x129;" horiz-adv-x="125" 
d="M48 0v492h29v-492h-29zM-87 620v25h301v-25h-301z" />
    <glyph glyph-name="Imacron" unicode="&#x12a;" horiz-adv-x="116" 
d="M43 0v664h30v-664h-30zM-91 792v25h301v-25h-301z" />
    <glyph glyph-name="imacron" unicode="&#x12b;" horiz-adv-x="125" 
d="M48 0v492h29v-492h-29zM-87 620v25h301v-25h-301z" />
    <glyph glyph-name="Ibreve" unicode="&#x12c;" horiz-adv-x="116" 
d="M43 0v664h30v-664h-30zM208 888q0 -42 -12.5 -73t-33.5 -51.5t-48 -31t-55 -10.5q-29 0 -56 10.5t-47.5 31t-33 51.5t-12.5 73h24q1 -36 11.5 -63t27.5 -45t39 -26.5t47 -8.5q24 0 46.5 8.5t40 26t28 44.5t10.5 64h24z" />
    <glyph glyph-name="ibreve" unicode="&#x12d;" horiz-adv-x="125" 
d="M48 0v492h29v-492h-29zM213 716q0 -42 -12.5 -73t-33.5 -51.5t-48 -31t-55 -10.5q-29 0 -56 10.5t-47.5 31t-33 51.5t-12.5 73h24q1 -36 11.5 -63t27.5 -45t39 -26.5t47 -8.5q24 0 46.5 8.5t40 26t28 44.5t10.5 64h24z" />
    <glyph glyph-name="Iogonek" unicode="&#x12e;" horiz-adv-x="116" 
d="M73 -229q-5 -2 -16 -3t-33 -1q-38 0 -61.5 8.5t-36.5 22.5t-17.5 32.5t-4.5 38.5q0 42 16.5 68t61.5 41l61 20v666h30v-664l-79 -27q-38 -14 -52 -37.5t-14 -59.5q0 -17 3.5 -32t14 -26.5t29.5 -18t51 -6.5q38 0 47 4v-26z" />
    <glyph glyph-name="iogonek" unicode="&#x12f;" horiz-adv-x="125" 
d="M77 -229q-5 -2 -16 -3t-33 -1q-38 0 -61.5 8.5t-36.5 22.5t-17.5 32.5t-4.5 38.5q0 43 16.5 68.5t61.5 40.5l62 21v493h29v-492l-79 -27q-38 -14 -52 -37.5t-14 -59.5q0 -17 3.5 -32t14 -26.5t29.5 -18t51 -6.5q38 0 47 4v-26zM46 551v121h33v-121h-33z" />
    <glyph glyph-name="Idotaccent" unicode="&#x130;" horiz-adv-x="116" 
d="M43 0v664h30v-664h-30zM40 726v133h38v-133h-38z" />
    <glyph glyph-name="dotlessi" unicode="&#x131;" horiz-adv-x="125" 
d="M48 0v492h29v-492h-29z" />
    <glyph glyph-name="IJ" unicode="&#x132;" horiz-adv-x="380" 
d="M43 0v664h30v-664h-30zM309 664h31v-525q0 -47 -13.5 -77.5t-37.5 -49.5t-55.5 -26.5t-67.5 -7.5q-6 0 -11.5 0.5t-10.5 1.5v28q10 -3 22 -3q30 0 56.5 6.5t45.5 22t30 41.5t11 64v525z" />
    <glyph glyph-name="ij" unicode="&#x133;" horiz-adv-x="333" 
d="M48 0v492h29v-492h-29zM46 551v121h33v-121h-33zM257 492h28v-586q0 -41 -11 -67.5t-29 -42.5t-42.5 -22.5t-51.5 -6.5q-13 0 -22 3v26q9 -3 22 -3q21 0 40.5 5.5t34 19t23 35.5t8.5 55v584zM254 551v121h33v-121h-33z" />
    <glyph glyph-name="Jcircumflex" unicode="&#x134;" horiz-adv-x="264" 
d="M193 664h31v-525q0 -47 -13.5 -77.5t-37.5 -49.5t-55.5 -26.5t-67.5 -7.5q-6 0 -11.5 0.5t-10.5 1.5v28q10 -3 22 -3q30 0 56.5 6.5t45.5 22t30 41.5t11 64v525zM276 723l-153 163l-153 -163l-13 13l151 172h30l151 -172z" />
    <glyph glyph-name="jcircumflex" unicode="&#x135;" horiz-adv-x="208" 
d="M132 492h28v-586q0 -41 -11 -67.5t-29 -42.5t-42.5 -22.5t-51.5 -6.5q-13 0 -22 3v26q9 -3 22 -3q21 0 40.5 5.5t34 19t23 35.5t8.5 55v584zM238 551l-153 163l-153 -163l-13 13l151 172h30l151 -172z" />
    <glyph glyph-name="uni0136" unicode="&#x136;" horiz-adv-x="435" 
d="M385 0l-313 345v-345h-29v664h29v-299l298 299h41l-312 -307l324 -357h-38zM211 -34h32l-8 -81q-2 -22 -6 -44.5t-9 -40.5t-12.5 -30t-16.5 -13z" />
    <glyph glyph-name="uni0137" unicode="&#x137;" horiz-adv-x="409" 
d="M358 0l-287 256v-256h-28v672h28v-401l272 221h43l-288 -227l299 -265h-39zM198 -34h32l-8 -81q-2 -22 -6 -44.5t-9 -40.5t-12.5 -30t-16.5 -13z" />
    <glyph glyph-name="Lacute" unicode="&#x139;" horiz-adv-x="318" 
d="M43 0v664h30v-637h221v-27h-251zM-28 706v21l216 155v-33z" />
    <glyph glyph-name="lacute" unicode="&#x13a;" horiz-adv-x="114" 
d="M43 0v672h28v-672h-28zM-30 706v21l216 155v-33z" />
    <glyph glyph-name="uni013B" unicode="&#x13b;" horiz-adv-x="318" 
d="M43 0v664h30v-637h221v-27h-251zM153 -34h32l-8 -81q-2 -22 -6 -44.5t-9 -40.5t-12.5 -30t-16.5 -13z" />
    <glyph glyph-name="uni013C" unicode="&#x13c;" horiz-adv-x="114" 
d="M43 0v672h28v-672h-28zM43 -34h32l-8 -81q-2 -22 -6 -44.5t-9 -40.5t-12.5 -30t-16.5 -13z" />
    <glyph glyph-name="Lcaron" unicode="&#x13d;" horiz-adv-x="318" 
d="M43 0v664h30v-637h221v-27h-251zM214 798h35l-12 -141q-2 -21 -5 -44.5t-8.5 -43t-14 -33t-20.5 -14.5z" />
    <glyph glyph-name="lcaron" unicode="&#x13e;" horiz-adv-x="161" 
d="M43 0v672h28v-672h-28zM126 672h35l-12 -141q-2 -21 -5 -44.5t-8.5 -43t-14 -33t-20.5 -14.5z" />
    <glyph glyph-name="Ldot" unicode="&#x13f;" horiz-adv-x="318" 
d="M43 0v664h30v-637h221v-27h-251zM166 278v133h38v-133h-38z" />
    <glyph glyph-name="ldot" unicode="&#x140;" horiz-adv-x="152" 
d="M43 0v672h28v-672h-28zM114 282v133h38v-133h-38z" />
    <glyph glyph-name="Lslash" unicode="&#x141;" horiz-adv-x="318" 
d="M43 0v664h30v-351l196 120v-24l-196 -120v-262h221v-27h-251z" />
    <glyph glyph-name="lslash" unicode="&#x142;" horiz-adv-x="125" 
d="M48 0v310l-46 -53v27l46 53v335h28v-305l47 54v-27l-47 -55v-339h-28z" />
    <glyph glyph-name="Nacute" unicode="&#x143;" horiz-adv-x="435" 
d="M365 0v519q0 39 -11 64.5t-30.5 41t-45.5 22t-56 6.5q-55 0 -90.5 -7t-58.5 -15v-631h-30v651q25 9 67.5 19t111.5 10q35 0 66.5 -7.5t55 -26.5t37.5 -50t14 -77v-519h-30zM129 706v21l216 155v-33z" />
    <glyph glyph-name="nacute" unicode="&#x144;" horiz-adv-x="405" 
d="M338 0v348q0 37 -10 62t-27.5 40t-41.5 21t-52 6q-54 0 -84.5 -6.5t-51.5 -14.5v-456h-28v477q24 9 62.5 18.5t101.5 9.5q34 0 63 -7.5t50.5 -25.5t33.5 -48t12 -75v-349h-28zM114 534v21l216 155v-33z" />
    <glyph glyph-name="uni0145" unicode="&#x145;" horiz-adv-x="435" 
d="M365 0v519q0 39 -11 64.5t-30.5 41t-45.5 22t-56 6.5q-55 0 -90.5 -7t-58.5 -15v-631h-30v651q25 9 67.5 19t111.5 10q35 0 66.5 -7.5t55 -26.5t37.5 -50t14 -77v-519h-30zM211 -34h32l-8 -81q-2 -22 -6 -44.5t-9 -40.5t-12.5 -30t-16.5 -13z" />
    <glyph glyph-name="uni0146" unicode="&#x146;" horiz-adv-x="405" 
d="M338 0v348q0 37 -10 62t-27.5 40t-41.5 21t-52 6q-54 0 -84.5 -6.5t-51.5 -14.5v-456h-28v477q24 9 62.5 18.5t101.5 9.5q34 0 63 -7.5t50.5 -25.5t33.5 -48t12 -75v-349h-28zM196 -34h32l-8 -81q-2 -22 -6 -44.5t-9 -40.5t-12.5 -30t-16.5 -13z" />
    <glyph glyph-name="Ncaron" unicode="&#x147;" horiz-adv-x="435" 
d="M365 0v519q0 39 -11 64.5t-30.5 41t-45.5 22t-56 6.5q-55 0 -90.5 -7t-58.5 -15v-631h-30v651q25 9 67.5 19t111.5 10q35 0 66.5 -7.5t55 -26.5t37.5 -50t14 -77v-519h-30zM51 882l12 16l155 -162l156 162l13 -16l-169 -179z" />
    <glyph glyph-name="ncaron" unicode="&#x148;" horiz-adv-x="405" 
d="M338 0v348q0 37 -10 62t-27.5 40t-41.5 21t-52 6q-54 0 -84.5 -6.5t-51.5 -14.5v-456h-28v477q24 9 62.5 18.5t101.5 9.5q34 0 63 -7.5t50.5 -25.5t33.5 -48t12 -75v-349h-28zM36 710l12 16l155 -162l156 162l13 -16l-169 -179z" />
    <glyph glyph-name="Eng" unicode="&#x14a;" horiz-adv-x="435" 
d="M365 519q0 39 -11 64.5t-30.5 41t-45.5 22t-56 6.5q-55 0 -90.5 -7t-58.5 -15v-631h-30v651q25 9 67.5 19t111.5 10q35 0 66.5 -7.5t55 -26.5t37.5 -50t14 -77v-623q0 -41 -11 -67.5t-29 -42.5t-42.5 -22.5t-51.5 -6.5q-13 0 -22 3v26q9 -3 22 -3q21 0 40 5.5t33.5 19
t22.5 35.5t8 55v621z" />
    <glyph glyph-name="eng" unicode="&#x14b;" horiz-adv-x="405" 
d="M338 348q0 37 -10 62t-27.5 40t-41.5 21t-52 6q-54 0 -84.5 -6.5t-51.5 -14.5v-456h-28v477q24 9 62.5 18.5t101.5 9.5q34 0 63 -7.5t50.5 -25.5t33.5 -48t12 -75v-453q0 -41 -11 -67.5t-29 -42.5t-42.5 -22.5t-51.5 -6.5q-13 0 -22 3v26q9 -3 22 -3q21 0 40.5 5.5t34 19
t23 35.5t8.5 55v450z" />
    <glyph glyph-name="Omacron" unicode="&#x14c;" horiz-adv-x="425" 
d="M36 518q0 46 13.5 77.5t37.5 50t56 26.5t69 8q36 0 68 -8t56 -26.5t38 -50t14 -77.5v-373q0 -47 -14 -78t-38 -49.5t-56 -26.5t-68 -8q-37 0 -69 8t-56 26.5t-37.5 49.5t-13.5 78v373zM357 518q0 39 -11 65t-30.5 41.5t-46 22t-57.5 6.5q-32 0 -59 -6.5t-46.5 -22
t-30 -41.5t-10.5 -65v-373q0 -39 10.5 -65t30 -41.5t46.5 -22t59 -6.5q31 0 57.5 6.5t46 22t30.5 41.5t11 65v373zM62 792v25h301v-25h-301z" />
    <glyph glyph-name="omacron" unicode="&#x14d;" 
d="M357 139q0 -45 -12.5 -75t-34.5 -48t-51.5 -25.5t-63.5 -7.5q-35 0 -64.5 7.5t-51 25.5t-33.5 48t-12 75v210q0 45 12 75t33.5 48t51 25.5t64.5 7.5q34 0 63.5 -7.5t51.5 -25.5t34.5 -48t12.5 -75v-210zM329 349q0 37 -10.5 61.5t-28.5 39.5t-42.5 21t-52.5 6
q-29 0 -53.5 -6t-42 -21t-27.5 -39.5t-10 -61.5v-210q0 -38 10 -62.5t27.5 -39.5t42 -21t53.5 -6q28 0 52.5 6t42.5 21t28.5 39.5t10.5 62.5v210zM46 620v25h301v-25h-301z" />
    <glyph glyph-name="Obreve" unicode="&#x14e;" horiz-adv-x="425" 
d="M36 518q0 46 13.5 77.5t37.5 50t56 26.5t69 8q36 0 68 -8t56 -26.5t38 -50t14 -77.5v-373q0 -47 -14 -78t-38 -49.5t-56 -26.5t-68 -8q-37 0 -69 8t-56 26.5t-37.5 49.5t-13.5 78v373zM357 518q0 39 -11 65t-30.5 41.5t-46 22t-57.5 6.5q-32 0 -59 -6.5t-46.5 -22
t-30 -41.5t-10.5 -65v-373q0 -39 10.5 -65t30 -41.5t46.5 -22t59 -6.5q31 0 57.5 6.5t46 22t30.5 41.5t11 65v373zM363 888q0 -42 -12.5 -73t-33.5 -51.5t-48 -31t-55 -10.5q-29 0 -56 10.5t-47.5 31t-33 51.5t-12.5 73h24q1 -36 11.5 -63t27.5 -45t39 -26.5t47 -8.5
q24 0 46.5 8.5t40 26t28 44.5t10.5 64h24z" />
    <glyph glyph-name="obreve" unicode="&#x14f;" 
d="M357 139q0 -45 -12.5 -75t-34.5 -48t-51.5 -25.5t-63.5 -7.5q-35 0 -64.5 7.5t-51 25.5t-33.5 48t-12 75v210q0 45 12 75t33.5 48t51 25.5t64.5 7.5q34 0 63.5 -7.5t51.5 -25.5t34.5 -48t12.5 -75v-210zM329 349q0 37 -10.5 61.5t-28.5 39.5t-42.5 21t-52.5 6
q-29 0 -53.5 -6t-42 -21t-27.5 -39.5t-10 -61.5v-210q0 -38 10 -62.5t27.5 -39.5t42 -21t53.5 -6q28 0 52.5 6t42.5 21t28.5 39.5t10.5 62.5v210zM346 716q0 -42 -12.5 -73t-33.5 -51.5t-48 -31t-55 -10.5q-29 0 -56 10.5t-47.5 31t-33 51.5t-12.5 73h24q1 -36 11.5 -63
t27.5 -45t39 -26.5t47 -8.5q24 0 46.5 8.5t40 26t28 44.5t10.5 64h24z" />
    <glyph glyph-name="Ohungarumlaut" unicode="&#x150;" horiz-adv-x="425" 
d="M36 518q0 46 13.5 77.5t37.5 50t56 26.5t69 8q36 0 68 -8t56 -26.5t38 -50t14 -77.5v-373q0 -47 -14 -78t-38 -49.5t-56 -26.5t-68 -8q-37 0 -69 8t-56 26.5t-37.5 49.5t-13.5 78v373zM357 518q0 39 -11 65t-30.5 41.5t-46 22t-57.5 6.5q-32 0 -59 -6.5t-46.5 -22
t-30 -41.5t-10.5 -65v-373q0 -39 10.5 -65t30 -41.5t46.5 -22t59 -6.5q31 0 57.5 6.5t46 22t30.5 41.5t11 65v373zM229 728l136 156l16 -12l-138 -155zM84 728l135 157l15 -12l-137 -156z" />
    <glyph glyph-name="ohungarumlaut" unicode="&#x151;" 
d="M357 139q0 -45 -12.5 -75t-34.5 -48t-51.5 -25.5t-63.5 -7.5q-35 0 -64.5 7.5t-51 25.5t-33.5 48t-12 75v210q0 45 12 75t33.5 48t51 25.5t64.5 7.5q34 0 63.5 -7.5t51.5 -25.5t34.5 -48t12.5 -75v-210zM329 349q0 37 -10.5 61.5t-28.5 39.5t-42.5 21t-52.5 6
q-29 0 -53.5 -6t-42 -21t-27.5 -39.5t-10 -61.5v-210q0 -38 10 -62.5t27.5 -39.5t42 -21t53.5 -6q28 0 52.5 6t42.5 21t28.5 39.5t10.5 62.5v210zM213 556l136 156l16 -12l-138 -155zM68 556l135 157l15 -12l-137 -156z" />
    <glyph glyph-name="OE" unicode="&#x152;" horiz-adv-x="622" 
d="M359 0v58q-19 -42 -59 -58.5t-88 -16.5q-37 0 -69 8t-56 26.5t-37.5 49.5t-13.5 78v373q0 46 13.5 77.5t37.5 50t56 26.5t69 8q48 0 87.5 -17t58.5 -59v60h229v-27h-199v-275h187v-27h-187v-308h205v-27h-234zM357 518q0 39 -11 65t-30.5 41.5t-46 22t-57.5 6.5
q-32 0 -59 -6.5t-46.5 -22t-30 -41.5t-10.5 -65v-373q0 -39 10.5 -65t30 -41.5t46.5 -22t59 -6.5q30 0 56.5 7t46 23t31 41.5t11.5 63.5v373z" />
    <glyph glyph-name="oe" unicode="&#x153;" horiz-adv-x="692" 
d="M647 8q-23 -10 -63 -17.5t-94 -7.5q-53 0 -92.5 19t-54.5 69q-16 -50 -56 -69t-92 -19q-35 0 -64.5 7.5t-51 25.5t-33.5 48t-12 75v210q0 45 12 75t33.5 48t51 25.5t64.5 7.5q52 0 92 -19.5t56 -70.5q15 51 54 70.5t93 19.5q34 0 63.5 -7.5t51.5 -25.5t34.5 -48t12.5 -75
v-121h-295v-89q0 -38 10.5 -62.5t29 -39t43.5 -20.5t54 -6q48 0 85.5 7t67.5 18v-28zM329 349q0 37 -10.5 61.5t-28.5 39.5t-42.5 21t-52.5 6q-29 0 -53.5 -6t-42 -21t-27.5 -39.5t-10 -61.5v-210q0 -38 10 -62.5t27.5 -39.5t42 -21t53.5 -6q28 0 52.5 6t42.5 21t28.5 39.5
t10.5 62.5v210zM624 349q0 36 -10 60.5t-28 39.5t-42.5 21.5t-53.5 6.5q-60 0 -96.5 -28.5t-36.5 -99.5v-95h267v95z" />
    <glyph glyph-name="Racute" unicode="&#x154;" horiz-adv-x="422" 
d="M355 0v206q0 25 -4.5 46t-16 36.5t-31 24.5t-48.5 9h-183v-322h-29v664h210q41 0 66.5 -14t40 -36.5t19.5 -51t5 -57.5q0 -66 -21.5 -113t-70.5 -56q51 -8 71.5 -42.5t20.5 -91.5v-202h-29zM255 347q30 0 49 12.5t30.5 33t16 48t4.5 57.5q0 26 -4.5 51t-16.5 44.5
t-33.5 31.5t-55.5 12h-173v-290h183zM123 706v21l216 155v-33z" />
    <glyph glyph-name="racute" unicode="&#x155;" horiz-adv-x="375" 
d="M43 0v477q23 9 59 18.5t95 9.5q33 0 61 -6.5t48.5 -22t32.5 -41.5t12 -65v-63h-26v59q0 32 -9.5 53.5t-27 34t-40.5 18t-50 5.5q-48 0 -77.5 -6.5t-49.5 -14.5v-456h-28zM99 534v21l216 155v-33z" />
    <glyph glyph-name="uni0156" unicode="&#x156;" horiz-adv-x="422" 
d="M355 0v206q0 25 -4.5 46t-16 36.5t-31 24.5t-48.5 9h-183v-322h-29v664h210q41 0 66.5 -14t40 -36.5t19.5 -51t5 -57.5q0 -66 -21.5 -113t-70.5 -56q51 -8 71.5 -42.5t20.5 -91.5v-202h-29zM255 347q30 0 49 12.5t30.5 33t16 48t4.5 57.5q0 26 -4.5 51t-16.5 44.5
t-33.5 31.5t-55.5 12h-173v-290h183zM205 -34h32l-8 -81q-2 -22 -6 -44.5t-9 -40.5t-12.5 -30t-16.5 -13z" />
    <glyph glyph-name="uni0157" unicode="&#x157;" horiz-adv-x="375" 
d="M43 0v477q23 9 59 18.5t95 9.5q33 0 61 -6.5t48.5 -22t32.5 -41.5t12 -65v-63h-26v59q0 32 -9.5 53.5t-27 34t-40.5 18t-50 5.5q-48 0 -77.5 -6.5t-49.5 -14.5v-456h-28zM42 -34h32l-8 -81q-2 -22 -6 -44.5t-9 -40.5t-12.5 -30t-16.5 -13z" />
    <glyph glyph-name="Rcaron" unicode="&#x158;" horiz-adv-x="422" 
d="M355 0v206q0 25 -4.5 46t-16 36.5t-31 24.5t-48.5 9h-183v-322h-29v664h210q41 0 66.5 -14t40 -36.5t19.5 -51t5 -57.5q0 -66 -21.5 -113t-70.5 -56q51 -8 71.5 -42.5t20.5 -91.5v-202h-29zM255 347q30 0 49 12.5t30.5 33t16 48t4.5 57.5q0 26 -4.5 51t-16.5 44.5
t-33.5 31.5t-55.5 12h-173v-290h183zM34 882l12 16l155 -162l156 162l13 -16l-169 -179z" />
    <glyph glyph-name="rcaron" unicode="&#x159;" horiz-adv-x="375" 
d="M43 0v477q23 9 59 18.5t95 9.5q33 0 61 -6.5t48.5 -22t32.5 -41.5t12 -65v-63h-26v59q0 32 -9.5 53.5t-27 34t-40.5 18t-50 5.5q-48 0 -77.5 -6.5t-49.5 -14.5v-456h-28zM21 710l12 16l155 -162l156 162l13 -16l-169 -179z" />
    <glyph glyph-name="Sacute" unicode="&#x15a;" 
d="M331 466v59q0 37 -9 61.5t-25.5 39.5t-40 21t-52.5 6q-42 0 -70 -9.5t-44.5 -27.5t-23 -43t-6.5 -56q0 -35 8 -59t25 -41.5t45 -29.5t68 -22q49 -13 80.5 -28.5t48.5 -37.5t23.5 -53t6.5 -74q0 -40 -6.5 -74.5t-25 -60t-52.5 -40t-89 -14.5q-77 0 -119.5 38t-42.5 127v88
h28v-87q0 -76 34.5 -107.5t100.5 -31.5q45 0 73 12t43 33t20.5 51t5.5 66q0 41 -5.5 68t-21.5 45.5t-44.5 31t-73.5 24.5q-42 11 -72.5 25.5t-50 35t-28.5 48.5t-9 67q0 34 8 64t27.5 52t53.5 34.5t85 12.5q34 0 62 -7t48.5 -24.5t32 -46.5t11.5 -72v-64h-27zM107 706v21
l216 155v-33z" />
    <glyph glyph-name="sacute" unicode="&#x15b;" horiz-adv-x="387" 
d="M325 347v44q0 29 -11.5 46.5t-30.5 26.5t-42 11.5t-47 2.5q-25 0 -50 -3t-45 -13t-32.5 -28.5t-12.5 -49.5q0 -40 22.5 -61.5t56 -33.5t72.5 -19t73 -19q45 -16 63.5 -44t18.5 -76q0 -42 -12 -70.5t-34 -45.5t-53.5 -24.5t-71.5 -7.5q-30 0 -59.5 5t-53 18.5t-37.5 37.5
t-14 62v55h28v-50q0 -32 11.5 -52t30.5 -31t43 -15t49 -4q31 0 57.5 5t45.5 18.5t29.5 37t10.5 61.5q0 43 -17 63.5t-49 32.5q-33 12 -74.5 19t-78 20.5t-61.5 39t-25 75.5q0 39 14.5 63.5t38 38t54 18t62.5 4.5q29 0 57.5 -4t51 -16t36.5 -34t14 -58v-46h-28zM105 534v21
l216 155v-33z" />
    <glyph glyph-name="Scircumflex" unicode="&#x15c;" 
d="M331 466v59q0 37 -9 61.5t-25.5 39.5t-40 21t-52.5 6q-42 0 -70 -9.5t-44.5 -27.5t-23 -43t-6.5 -56q0 -35 8 -59t25 -41.5t45 -29.5t68 -22q49 -13 80.5 -28.5t48.5 -37.5t23.5 -53t6.5 -74q0 -40 -6.5 -74.5t-25 -60t-52.5 -40t-89 -14.5q-77 0 -119.5 38t-42.5 127v88
h28v-87q0 -76 34.5 -107.5t100.5 -31.5q45 0 73 12t43 33t20.5 51t5.5 66q0 41 -5.5 68t-21.5 45.5t-44.5 31t-73.5 24.5q-42 11 -72.5 25.5t-50 35t-28.5 48.5t-9 67q0 34 8 64t27.5 52t53.5 34.5t85 12.5q34 0 62 -7t48.5 -24.5t32 -46.5t11.5 -72v-64h-27zM350 723
l-153 163l-153 -163l-13 13l151 172h30l151 -172z" />
    <glyph glyph-name="scircumflex" unicode="&#x15d;" horiz-adv-x="387" 
d="M325 347v44q0 29 -11.5 46.5t-30.5 26.5t-42 11.5t-47 2.5q-25 0 -50 -3t-45 -13t-32.5 -28.5t-12.5 -49.5q0 -40 22.5 -61.5t56 -33.5t72.5 -19t73 -19q45 -16 63.5 -44t18.5 -76q0 -42 -12 -70.5t-34 -45.5t-53.5 -24.5t-71.5 -7.5q-30 0 -59.5 5t-53 18.5t-37.5 37.5
t-14 62v55h28v-50q0 -32 11.5 -52t30.5 -31t43 -15t49 -4q31 0 57.5 5t45.5 18.5t29.5 37t10.5 61.5q0 43 -17 63.5t-49 32.5q-33 12 -74.5 19t-78 20.5t-61.5 39t-25 75.5q0 39 14.5 63.5t38 38t54 18t62.5 4.5q29 0 57.5 -4t51 -16t36.5 -34t14 -58v-46h-28zM348 551
l-153 163l-153 -163l-13 13l151 172h30l151 -172z" />
    <glyph glyph-name="Scedilla" unicode="&#x15e;" 
d="M331 466v59q0 37 -9 61.5t-25.5 39.5t-40 21t-52.5 6q-42 0 -70 -9.5t-44.5 -27.5t-23 -43t-6.5 -56q0 -35 8 -59t25 -41.5t45 -29.5t68 -22q49 -13 80.5 -28.5t48.5 -37.5t23.5 -53t6.5 -74q0 -40 -6.5 -74.5t-25 -60t-52.5 -40t-89 -14.5q-77 0 -119.5 38t-42.5 127v88
h28v-87q0 -76 34.5 -107.5t100.5 -31.5q45 0 73 12t43 33t20.5 51t5.5 66q0 41 -5.5 68t-21.5 45.5t-44.5 31t-73.5 24.5q-42 11 -72.5 25.5t-50 35t-28.5 48.5t-9 67q0 34 8 64t27.5 52t53.5 34.5t85 12.5q34 0 62 -7t48.5 -24.5t32 -46.5t11.5 -72v-64h-27zM181 -34h32
l-8 -81q-2 -22 -6 -44.5t-9 -40.5t-12.5 -30t-16.5 -13z" />
    <glyph glyph-name="scedilla" unicode="&#x15f;" horiz-adv-x="387" 
d="M325 347v44q0 29 -11.5 46.5t-30.5 26.5t-42 11.5t-47 2.5q-25 0 -50 -3t-45 -13t-32.5 -28.5t-12.5 -49.5q0 -40 22.5 -61.5t56 -33.5t72.5 -19t73 -19q45 -16 63.5 -44t18.5 -76q0 -42 -12 -70.5t-34 -45.5t-53.5 -24.5t-71.5 -7.5q-30 0 -59.5 5t-53 18.5t-37.5 37.5
t-14 62v55h28v-50q0 -32 11.5 -52t30.5 -31t43 -15t49 -4q31 0 57.5 5t45.5 18.5t29.5 37t10.5 61.5q0 43 -17 63.5t-49 32.5q-33 12 -74.5 19t-78 20.5t-61.5 39t-25 75.5q0 39 14.5 63.5t38 38t54 18t62.5 4.5q29 0 57.5 -4t51 -16t36.5 -34t14 -58v-46h-28zM180 -34h32
l-8 -81q-2 -22 -6 -44.5t-9 -40.5t-12.5 -30t-16.5 -13z" />
    <glyph glyph-name="Scaron" unicode="&#x160;" 
d="M331 466v59q0 37 -9 61.5t-25.5 39.5t-40 21t-52.5 6q-42 0 -70 -9.5t-44.5 -27.5t-23 -43t-6.5 -56q0 -35 8 -59t25 -41.5t45 -29.5t68 -22q49 -13 80.5 -28.5t48.5 -37.5t23.5 -53t6.5 -74q0 -40 -6.5 -74.5t-25 -60t-52.5 -40t-89 -14.5q-77 0 -119.5 38t-42.5 127v88
h28v-87q0 -76 34.5 -107.5t100.5 -31.5q45 0 73 12t43 33t20.5 51t5.5 66q0 41 -5.5 68t-21.5 45.5t-44.5 31t-73.5 24.5q-42 11 -72.5 25.5t-50 35t-28.5 48.5t-9 67q0 34 8 64t27.5 52t53.5 34.5t85 12.5q34 0 62 -7t48.5 -24.5t32 -46.5t11.5 -72v-64h-27zM29 882l12 16
l155 -162l156 162l13 -16l-169 -179z" />
    <glyph glyph-name="scaron" unicode="&#x161;" horiz-adv-x="387" 
d="M325 347v44q0 29 -11.5 46.5t-30.5 26.5t-42 11.5t-47 2.5q-25 0 -50 -3t-45 -13t-32.5 -28.5t-12.5 -49.5q0 -40 22.5 -61.5t56 -33.5t72.5 -19t73 -19q45 -16 63.5 -44t18.5 -76q0 -42 -12 -70.5t-34 -45.5t-53.5 -24.5t-71.5 -7.5q-30 0 -59.5 5t-53 18.5t-37.5 37.5
t-14 62v55h28v-50q0 -32 11.5 -52t30.5 -31t43 -15t49 -4q31 0 57.5 5t45.5 18.5t29.5 37t10.5 61.5q0 43 -17 63.5t-49 32.5q-33 12 -74.5 19t-78 20.5t-61.5 39t-25 75.5q0 39 14.5 63.5t38 38t54 18t62.5 4.5q29 0 57.5 -4t51 -16t36.5 -34t14 -58v-46h-28zM27 710l12 16
l155 -162l156 162l13 -16l-169 -179z" />
    <glyph glyph-name="uni0162" unicode="&#x162;" horiz-adv-x="349" 
d="M159 0v637h-146v27h322v-27h-146v-637h-30zM158 -34h32l-8 -81q-2 -22 -6 -44.5t-9 -40.5t-12.5 -30t-16.5 -13z" />
    <glyph glyph-name="uni0163" unicode="&#x163;" horiz-adv-x="212" 
d="M90 0v469h-69v23h69v112h28v-112h72v-23h-72v-469h-28zM87 -34h32l-8 -81q-2 -22 -6 -44.5t-9 -40.5t-12.5 -30t-16.5 -13z" />
    <glyph glyph-name="Tcaron" unicode="&#x164;" horiz-adv-x="349" 
d="M159 0v637h-146v27h322v-27h-146v-637h-30zM8 882l12 16l155 -162l156 162l13 -16l-169 -179z" />
    <glyph glyph-name="tcaron" unicode="&#x165;" horiz-adv-x="260" 
d="M90 0v469h-69v23h69v112h28v-112h72v-23h-72v-469h-28zM225 672h35l-12 -141q-2 -21 -5 -44.5t-8.5 -43t-14 -33t-20.5 -14.5z" />
    <glyph glyph-name="Tbar" unicode="&#x166;" horiz-adv-x="349" 
d="M159 0v325h-70v24h70v288h-146v27h322v-27h-146v-288h72v-24h-72v-325h-30z" />
    <glyph glyph-name="tbar" unicode="&#x167;" horiz-adv-x="212" 
d="M90 0v242h-50v24h50v203h-69v23h69v112h28v-112h72v-23h-72v-203h54v-24h-54v-242h-28z" />
    <glyph glyph-name="Utilde" unicode="&#x168;" horiz-adv-x="435" 
d="M361 664h31v-652q-25 -9 -68.5 -19t-110.5 -10q-36 0 -67.5 7.5t-55 26.5t-37 49.5t-13.5 77.5v520h30v-520q0 -39 11 -64.5t30.5 -41t45.5 -22t56 -6.5q55 0 91 7t57 15v632zM67 792v25h301v-25h-301z" />
    <glyph glyph-name="utilde" unicode="&#x169;" horiz-adv-x="407" 
d="M333 492h28v-481q-23 -9 -62 -18.5t-102 -9.5q-34 0 -63 7.5t-50 25.5t-33 48t-12 75v353h28v-353q0 -38 10 -62.5t27.5 -39.5t41 -21t51.5 -6q51 0 83.5 6.5t52.5 14.5v461zM53 620v25h301v-25h-301z" />
    <glyph glyph-name="Umacron" unicode="&#x16a;" horiz-adv-x="435" 
d="M361 664h31v-652q-25 -9 -68.5 -19t-110.5 -10q-36 0 -67.5 7.5t-55 26.5t-37 49.5t-13.5 77.5v520h30v-520q0 -39 11 -64.5t30.5 -41t45.5 -22t56 -6.5q55 0 91 7t57 15v632zM67 792v25h301v-25h-301z" />
    <glyph glyph-name="umacron" unicode="&#x16b;" horiz-adv-x="407" 
d="M333 492h28v-481q-23 -9 -62 -18.5t-102 -9.5q-34 0 -63 7.5t-50 25.5t-33 48t-12 75v353h28v-353q0 -38 10 -62.5t27.5 -39.5t41 -21t51.5 -6q51 0 83.5 6.5t52.5 14.5v461zM53 620v25h301v-25h-301z" />
    <glyph glyph-name="Ubreve" unicode="&#x16c;" horiz-adv-x="435" 
d="M361 664h31v-652q-25 -9 -68.5 -19t-110.5 -10q-36 0 -67.5 7.5t-55 26.5t-37 49.5t-13.5 77.5v520h30v-520q0 -39 11 -64.5t30.5 -41t45.5 -22t56 -6.5q55 0 91 7t57 15v632zM368 888q0 -42 -12.5 -73t-33.5 -51.5t-48 -31t-55 -10.5q-29 0 -56 10.5t-47.5 31t-33 51.5
t-12.5 73h24q1 -36 11.5 -63t27.5 -45t39 -26.5t47 -8.5q24 0 46.5 8.5t40 26t28 44.5t10.5 64h24z" />
    <glyph glyph-name="ubreve" unicode="&#x16d;" horiz-adv-x="407" 
d="M333 492h28v-481q-23 -9 -62 -18.5t-102 -9.5q-34 0 -63 7.5t-50 25.5t-33 48t-12 75v353h28v-353q0 -38 10 -62.5t27.5 -39.5t41 -21t51.5 -6q51 0 83.5 6.5t52.5 14.5v461zM354 716q0 -42 -12.5 -73t-33.5 -51.5t-48 -31t-55 -10.5q-29 0 -56 10.5t-47.5 31t-33 51.5
t-12.5 73h24q1 -36 11.5 -63t27.5 -45t39 -26.5t47 -8.5q24 0 46.5 8.5t40 26t28 44.5t10.5 64h24z" />
    <glyph glyph-name="Uring" unicode="&#x16e;" horiz-adv-x="435" 
d="M361 664h31v-652q-25 -9 -68.5 -19t-110.5 -10q-36 0 -67.5 7.5t-55 26.5t-37 49.5t-13.5 77.5v520h30v-520q0 -39 11 -64.5t30.5 -41t45.5 -22t56 -6.5q55 0 91 7t57 15v632zM217 696q-95 0 -95 96q0 46 22 71t73 25q52 0 74 -25t22 -71q0 -48 -22 -72t-74 -24zM217 713
q42 0 60 20t18 59q0 38 -18 58.5t-60 20.5q-77 0 -77 -79t77 -79z" />
    <glyph glyph-name="uring" unicode="&#x16f;" horiz-adv-x="407" 
d="M333 492h28v-481q-23 -9 -62 -18.5t-102 -9.5q-34 0 -63 7.5t-50 25.5t-33 48t-12 75v353h28v-353q0 -38 10 -62.5t27.5 -39.5t41 -21t51.5 -6q51 0 83.5 6.5t52.5 14.5v461zM203 524q-95 0 -95 96q0 46 22 71t73 25q52 0 74 -25t22 -71q0 -48 -22 -72t-74 -24zM203 541
q42 0 60 20t18 59q0 38 -18 58.5t-60 20.5q-77 0 -77 -79t77 -79z" />
    <glyph glyph-name="Uhungarumlaut" unicode="&#x170;" horiz-adv-x="435" 
d="M361 664h31v-652q-25 -9 -68.5 -19t-110.5 -10q-36 0 -67.5 7.5t-55 26.5t-37 49.5t-13.5 77.5v520h30v-520q0 -39 11 -64.5t30.5 -41t45.5 -22t56 -6.5q55 0 91 7t57 15v632zM234 728l136 156l16 -12l-138 -155zM89 728l135 157l15 -12l-137 -156z" />
    <glyph glyph-name="uhungarumlaut" unicode="&#x171;" horiz-adv-x="407" 
d="M333 492h28v-481q-23 -9 -62 -18.5t-102 -9.5q-34 0 -63 7.5t-50 25.5t-33 48t-12 75v353h28v-353q0 -38 10 -62.5t27.5 -39.5t41 -21t51.5 -6q51 0 83.5 6.5t52.5 14.5v461zM220 556l136 156l16 -12l-138 -155zM75 556l135 157l15 -12l-137 -156z" />
    <glyph glyph-name="Uogonek" unicode="&#x172;" horiz-adv-x="435" 
d="M352 -229q-5 -2 -16 -3t-33 -1q-38 0 -61.5 8.5t-36.5 22.5t-17.5 32.5t-4.5 38.5q0 43 16.5 68t61.5 41l29 10q-17 -2 -36 -3.5t-41 -1.5q-36 0 -67.5 7.5t-55 26.5t-37 49.5t-13.5 77.5v520h30v-520q0 -39 11 -64.5t30.5 -41t45.5 -22t56 -6.5q55 0 91 7t57 15v632h31
v-652q-5 -2 -11.5 -4t-19 -6.5t-33.5 -11t-55 -17.5q-38 -13 -52 -37t-14 -60q0 -17 3.5 -32t14 -26.5t29.5 -18t51 -6.5q38 0 47 4v-26z" />
    <glyph glyph-name="uogonek" unicode="&#x173;" horiz-adv-x="407" 
d="M329 -229q-5 -2 -16 -3t-33 -1q-38 0 -61.5 8.5t-36.5 22.5t-17.5 32.5t-4.5 38.5q0 43 16.5 68t61.5 41l26 9q-14 -2 -31 -3t-36 -1q-34 0 -63 7.5t-50 25.5t-33 48t-12 75v353h28v-353q0 -38 10 -62.5t27.5 -39.5t41 -21t51.5 -6q51 0 83.5 6.5t52.5 14.5v461h28v-481
q-4 -2 -9.5 -4t-17 -6t-31.5 -10.5t-53 -17.5q-38 -13 -52 -37t-14 -60q0 -17 3.5 -32t14 -26.5t29.5 -18t51 -6.5q38 0 47 4v-26z" />
    <glyph glyph-name="Wcircumflex" unicode="&#x174;" horiz-adv-x="646" 
d="M579 664h29v-427q0 -55 -13 -94.5t-34 -69t-48 -50.5t-55 -39q-24 15 -46.5 32t-41 39t-31.5 49.5t-17 63.5q-4 -35 -16.5 -63t-31.5 -50.5t-41.5 -39.5t-46.5 -31q-29 18 -56 39t-48 50.5t-33.5 69t-12.5 94.5v427h30v-427q0 -45 10 -79.5t27 -61t38.5 -45.5t44.5 -34
q24 15 46 33.5t39 44t27 60t10 82.5v427h29v-427q0 -48 10 -82t26.5 -59.5t39 -44t46.5 -34.5q23 15 45 34t38.5 45.5t26.5 61t10 79.5v427zM476 723l-153 163l-153 -163l-13 13l151 172h30l151 -172z" />
    <glyph glyph-name="wcircumflex" unicode="&#x175;" horiz-adv-x="571" 
d="M508 492h29v-289q0 -51 -11 -87t-29.5 -63t-42.5 -46t-49 -35q-22 13 -42 28.5t-36 35t-27 44t-15 56.5q-4 -32 -15.5 -57t-27.5 -44.5t-35.5 -35t-40.5 -27.5q-25 16 -49 35t-42.5 46t-29.5 63t-11 87v289h28v-293q0 -41 8.5 -71.5t23 -54t33 -40.5t38.5 -30
q21 13 40 29t33.5 38.5t23.5 54t9 74.5v293h28v-292q0 -43 8.5 -74t23.5 -54t34 -39.5t40 -29.5q19 13 38 30t33 40t23 54t9 72v293zM438 551l-153 163l-153 -163l-13 13l151 172h30l151 -172z" />
    <glyph glyph-name="Ycircumflex" unicode="&#x176;" horiz-adv-x="410" 
d="M190 0v236q-31 17 -60 38t-51.5 50t-36 67.5t-13.5 90.5v182h30v-184q0 -47 12.5 -81.5t33 -60t46.5 -44t54 -34.5q28 16 54.5 34.5t46.5 44t32.5 59.5t12.5 82v184h30v-182q0 -52 -13 -90.5t-35.5 -67t-51.5 -50t-60 -38.5v-236h-31zM359 723l-153 163l-153 -163l-13 13
l151 172h30l151 -172z" />
    <glyph glyph-name="ycircumflex" unicode="&#x177;" horiz-adv-x="402" 
d="M333 35q-21 -15 -56.5 -28t-89.5 -13q-31 0 -58 7t-47.5 24.5t-32 47.5t-11.5 77v342h29v-341q0 -39 9.5 -64t26 -39.5t39.5 -20t50 -5.5q54 0 87.5 13t53.5 27v430h29v-587q0 -43 -12.5 -72t-34 -46.5t-51.5 -25t-64 -7.5q-33 0 -60.5 7.5t-47.5 25t-31.5 46.5t-11.5 72
v39h27v-39q0 -35 9.5 -59t26 -38.5t39 -20.5t49.5 -6q28 0 52.5 6t42.5 20.5t28 38.5t10 59v130zM355 551l-153 163l-153 -163l-13 13l151 172h30l151 -172z" />
    <glyph glyph-name="Ydieresis" unicode="&#x178;" horiz-adv-x="410" 
d="M190 0v236q-31 17 -60 38t-51.5 50t-36 67.5t-13.5 90.5v182h30v-184q0 -47 12.5 -81.5t33 -60t46.5 -44t54 -34.5q28 16 54.5 34.5t46.5 44t32.5 59.5t12.5 82v184h30v-182q0 -52 -13 -90.5t-35.5 -67t-51.5 -50t-60 -38.5v-236h-31zM95 726v133h38v-133h-38zM277 726
v133h38v-133h-38z" />
    <glyph glyph-name="Zacute" unicode="&#x179;" horiz-adv-x="382" 
d="M27 0v30l287 607h-278v27h311v-23l-287 -614h287v-27h-320zM103 706v21l216 155v-33z" />
    <glyph glyph-name="zacute" unicode="&#x17a;" horiz-adv-x="359" 
d="M25 0v26l267 441h-253v25h288v-21l-269 -446h275v-25h-308zM91 534v21l216 155v-33z" />
    <glyph glyph-name="Zdotaccent" unicode="&#x17b;" horiz-adv-x="382" 
d="M27 0v30l287 607h-278v27h311v-23l-287 -614h287v-27h-320zM172 726v133h38v-133h-38z" />
    <glyph glyph-name="zdotaccent" unicode="&#x17c;" horiz-adv-x="359" 
d="M25 0v26l267 441h-253v25h288v-21l-269 -446h275v-25h-308zM160 554v133h38v-133h-38z" />
    <glyph glyph-name="Zcaron" unicode="&#x17d;" horiz-adv-x="382" 
d="M27 0v30l287 607h-278v27h311v-23l-287 -614h287v-27h-320zM24 882l12 16l155 -162l156 162l13 -16l-169 -179z" />
    <glyph glyph-name="zcaron" unicode="&#x17e;" horiz-adv-x="359" 
d="M25 0v26l267 441h-253v25h288v-21l-269 -446h275v-25h-308zM13 710l12 16l155 -162l156 162l13 -16l-169 -179z" />
    <glyph glyph-name="florin" unicode="&#x192;" horiz-adv-x="477" 
d="M224 405h-111v24h114l9 61q7 51 25 86t44.5 56t61 30.5t75.5 9.5h13v-27h-13q-67 0 -114.5 -35.5t-60.5 -120.5l-9 -60h114v-24h-117l-52 -396q-13 -96 -68 -139t-140 -43h-8v27h8q33 0 63 8.5t53.5 27.5t39 49t21.5 73z" />
    <glyph glyph-name="uni0218" unicode="&#x218;" 
d="M331 466v59q0 37 -9 61.5t-25.5 39.5t-40 21t-52.5 6q-42 0 -70 -9.5t-44.5 -27.5t-23 -43t-6.5 -56q0 -35 8 -59t25 -41.5t45 -29.5t68 -22q49 -13 80.5 -28.5t48.5 -37.5t23.5 -53t6.5 -74q0 -40 -6.5 -74.5t-25 -60t-52.5 -40t-89 -14.5q-77 0 -119.5 38t-42.5 127v88
h28v-87q0 -76 34.5 -107.5t100.5 -31.5q45 0 73 12t43 33t20.5 51t5.5 66q0 41 -5.5 68t-21.5 45.5t-44.5 31t-73.5 24.5q-42 11 -72.5 25.5t-50 35t-28.5 48.5t-9 67q0 34 8 64t27.5 52t53.5 34.5t85 12.5q34 0 62 -7t48.5 -24.5t32 -46.5t11.5 -72v-64h-27zM181 -34h32
l-8 -81q-2 -22 -6 -44.5t-9 -40.5t-12.5 -30t-16.5 -13z" />
    <glyph glyph-name="uni0219" unicode="&#x219;" horiz-adv-x="387" 
d="M325 347v44q0 29 -11.5 46.5t-30.5 26.5t-42 11.5t-47 2.5q-25 0 -50 -3t-45 -13t-32.5 -28.5t-12.5 -49.5q0 -40 22.5 -61.5t56 -33.5t72.5 -19t73 -19q45 -16 63.5 -44t18.5 -76q0 -42 -12 -70.5t-34 -45.5t-53.5 -24.5t-71.5 -7.5q-30 0 -59.5 5t-53 18.5t-37.5 37.5
t-14 62v55h28v-50q0 -32 11.5 -52t30.5 -31t43 -15t49 -4q31 0 57.5 5t45.5 18.5t29.5 37t10.5 61.5q0 43 -17 63.5t-49 32.5q-33 12 -74.5 19t-78 20.5t-61.5 39t-25 75.5q0 39 14.5 63.5t38 38t54 18t62.5 4.5q29 0 57.5 -4t51 -16t36.5 -34t14 -58v-46h-28zM180 -34h32
l-8 -81q-2 -22 -6 -44.5t-9 -40.5t-12.5 -30t-16.5 -13z" />
    <glyph glyph-name="uni021A" unicode="&#x21a;" horiz-adv-x="349" 
d="M159 0v637h-146v27h322v-27h-146v-637h-30zM158 -34h32l-8 -81q-2 -22 -6 -44.5t-9 -40.5t-12.5 -30t-16.5 -13z" />
    <glyph glyph-name="uni021B" unicode="&#x21b;" horiz-adv-x="212" 
d="M90 0v469h-69v23h69v112h28v-112h72v-23h-72v-469h-28zM87 -34h32l-8 -81q-2 -22 -6 -44.5t-9 -40.5t-12.5 -30t-16.5 -13z" />
    <glyph glyph-name="uni0237" unicode="&#x237;" horiz-adv-x="208" 
d="M132 492h28v-586q0 -41 -11 -67.5t-29 -42.5t-42.5 -22.5t-51.5 -6.5q-13 0 -22 3v26q9 -3 22 -3q21 0 40.5 5.5t34 19t23 35.5t8.5 55v584z" />
    <glyph glyph-name="circumflex" unicode="&#x2c6;" horiz-adv-x="478" 
d="M391 551l-153 163l-153 -163l-13 13l151 172h30l151 -172z" />
    <glyph glyph-name="caron" unicode="&#x2c7;" horiz-adv-x="480" 
d="M72 710l12 16l155 -162l156 162l13 -16l-169 -179z" />
    <glyph glyph-name="breve" unicode="&#x2d8;" horiz-adv-x="443" 
d="M370 716q0 -42 -12.5 -73t-33.5 -51.5t-48 -31t-55 -10.5q-29 0 -56 10.5t-47.5 31t-33 51.5t-12.5 73h24q1 -36 11.5 -63t27.5 -45t39 -26.5t47 -8.5q24 0 46.5 8.5t40 26t28 44.5t10.5 64h24z" />
    <glyph glyph-name="dotaccent" unicode="&#x2d9;" horiz-adv-x="183" 
d="M72 554v133h38v-133h-38z" />
    <glyph glyph-name="ring" unicode="&#x2da;" horiz-adv-x="335" 
d="M167 524q-95 0 -95 96q0 46 22 71t73 25q52 0 74 -25t22 -71q0 -48 -22 -72t-74 -24zM167 541q42 0 60 20t18 59q0 38 -18 58.5t-60 20.5q-77 0 -77 -79t77 -79z" />
    <glyph glyph-name="ogonek" unicode="&#x2db;" horiz-adv-x="273" 
d="M220 -229q-5 -2 -16 -3t-33 -1q-38 0 -61.5 8.5t-36.5 22.5t-17.5 32.5t-4.5 38.5q0 42 16.5 68t61.5 41l67 22h24l-79 -27q-38 -14 -52 -37.5t-14 -59.5q0 -17 3.5 -32t14 -26.5t29.5 -18t51 -6.5q38 0 47 4v-26z" />
    <glyph glyph-name="tilde" unicode="&#x2dc;" horiz-adv-x="404" 
d="M51 620v25h301v-25h-301z" />
    <glyph glyph-name="hungarumlaut" unicode="&#x2dd;" horiz-adv-x="441" 
d="M217 556l136 156l16 -12l-138 -155zM72 556l135 157l15 -12l-137 -156z" />
    <glyph glyph-name="uni0394" unicode="&#x394;" horiz-adv-x="406" 
d="M9 0l193 733l194 -733h-387zM202 637l-158 -610h317z" />
    <glyph glyph-name="uni0394" unicode="&#x2206;" horiz-adv-x="406" 
d="M9 0l193 733l194 -733h-387zM202 637l-158 -610h317z" />
    <glyph glyph-name="uni03A9" unicode="&#x3a9;" horiz-adv-x="437" 
d="M251 0v33q52 24 82.5 74t30.5 122v289q0 39 -11.5 65t-31.5 41.5t-46.5 22t-56.5 6.5t-56.5 -6.5t-46.5 -22t-31.5 -41.5t-11.5 -65v-289q0 -72 29.5 -122t83.5 -74v-33h-145v27h122q-60 27 -90 81t-30 129v281q0 46 14 77.5t38 50t56 26.5t68 8t68 -8t56 -26.5t38 -50
t14 -77.5v-281q0 -75 -30 -129t-90 -81h122v-27h-145z" />
    <glyph glyph-name="uni03A9" unicode="&#x2126;" horiz-adv-x="437" 
d="M251 0v33q52 24 82.5 74t30.5 122v289q0 39 -11.5 65t-31.5 41.5t-46.5 22t-56.5 6.5t-56.5 -6.5t-46.5 -22t-31.5 -41.5t-11.5 -65v-289q0 -72 29.5 -122t83.5 -74v-33h-145v27h122q-60 27 -90 81t-30 129v281q0 46 14 77.5t38 50t56 26.5t68 8t68 -8t56 -26.5t38 -50
t14 -77.5v-281q0 -75 -30 -129t-90 -81h122v-27h-145z" />
    <glyph glyph-name="pi" unicode="&#x3c0;" horiz-adv-x="413" 
d="M340 0v465h-268v-465h-30v492h328v-492h-30z" />
    <glyph glyph-name="Wgrave" unicode="&#x1e80;" horiz-adv-x="646" 
d="M579 664h29v-427q0 -55 -13 -94.5t-34 -69t-48 -50.5t-55 -39q-24 15 -46.5 32t-41 39t-31.5 49.5t-17 63.5q-4 -35 -16.5 -63t-31.5 -50.5t-41.5 -39.5t-46.5 -31q-29 18 -56 39t-48 50.5t-33.5 69t-12.5 94.5v427h30v-427q0 -45 10 -79.5t27 -61t38.5 -45.5t44.5 -34
q24 15 46 33.5t39 44t27 60t10 82.5v427h29v-427q0 -48 10 -82t26.5 -59.5t39 -44t46.5 -34.5q23 15 45 34t38.5 45.5t26.5 61t10 79.5v427zM195 849v33l216 -155v-21z" />
    <glyph glyph-name="wgrave" unicode="&#x1e81;" horiz-adv-x="571" 
d="M508 492h29v-289q0 -51 -11 -87t-29.5 -63t-42.5 -46t-49 -35q-22 13 -42 28.5t-36 35t-27 44t-15 56.5q-4 -32 -15.5 -57t-27.5 -44.5t-35.5 -35t-40.5 -27.5q-25 16 -49 35t-42.5 46t-29.5 63t-11 87v289h28v-293q0 -41 8.5 -71.5t23 -54t33 -40.5t38.5 -30
q21 13 40 29t33.5 38.5t23.5 54t9 74.5v293h28v-292q0 -43 8.5 -74t23.5 -54t34 -39.5t40 -29.5q19 13 38 30t33 40t23 54t9 72v293zM157 677v33l216 -155v-21z" />
    <glyph glyph-name="Wacute" unicode="&#x1e82;" horiz-adv-x="646" 
d="M579 664h29v-427q0 -55 -13 -94.5t-34 -69t-48 -50.5t-55 -39q-24 15 -46.5 32t-41 39t-31.5 49.5t-17 63.5q-4 -35 -16.5 -63t-31.5 -50.5t-41.5 -39.5t-46.5 -31q-29 18 -56 39t-48 50.5t-33.5 69t-12.5 94.5v427h30v-427q0 -45 10 -79.5t27 -61t38.5 -45.5t44.5 -34
q24 15 46 33.5t39 44t27 60t10 82.5v427h29v-427q0 -48 10 -82t26.5 -59.5t39 -44t46.5 -34.5q23 15 45 34t38.5 45.5t26.5 61t10 79.5v427zM235 706v21l216 155v-33z" />
    <glyph glyph-name="wacute" unicode="&#x1e83;" horiz-adv-x="571" 
d="M508 492h29v-289q0 -51 -11 -87t-29.5 -63t-42.5 -46t-49 -35q-22 13 -42 28.5t-36 35t-27 44t-15 56.5q-4 -32 -15.5 -57t-27.5 -44.5t-35.5 -35t-40.5 -27.5q-25 16 -49 35t-42.5 46t-29.5 63t-11 87v289h28v-293q0 -41 8.5 -71.5t23 -54t33 -40.5t38.5 -30
q21 13 40 29t33.5 38.5t23.5 54t9 74.5v293h28v-292q0 -43 8.5 -74t23.5 -54t34 -39.5t40 -29.5q19 13 38 30t33 40t23 54t9 72v293zM197 534v21l216 155v-33z" />
    <glyph glyph-name="Wdieresis" unicode="&#x1e84;" horiz-adv-x="646" 
d="M579 664h29v-427q0 -55 -13 -94.5t-34 -69t-48 -50.5t-55 -39q-24 15 -46.5 32t-41 39t-31.5 49.5t-17 63.5q-4 -35 -16.5 -63t-31.5 -50.5t-41.5 -39.5t-46.5 -31q-29 18 -56 39t-48 50.5t-33.5 69t-12.5 94.5v427h30v-427q0 -45 10 -79.5t27 -61t38.5 -45.5t44.5 -34
q24 15 46 33.5t39 44t27 60t10 82.5v427h29v-427q0 -48 10 -82t26.5 -59.5t39 -44t46.5 -34.5q23 15 45 34t38.5 45.5t26.5 61t10 79.5v427zM213 726v133h38v-133h-38zM395 726v133h38v-133h-38z" />
    <glyph glyph-name="wdieresis" unicode="&#x1e85;" horiz-adv-x="571" 
d="M508 492h29v-289q0 -51 -11 -87t-29.5 -63t-42.5 -46t-49 -35q-22 13 -42 28.5t-36 35t-27 44t-15 56.5q-4 -32 -15.5 -57t-27.5 -44.5t-35.5 -35t-40.5 -27.5q-25 16 -49 35t-42.5 46t-29.5 63t-11 87v289h28v-293q0 -41 8.5 -71.5t23 -54t33 -40.5t38.5 -30
q21 13 40 29t33.5 38.5t23.5 54t9 74.5v293h28v-292q0 -43 8.5 -74t23.5 -54t34 -39.5t40 -29.5q19 13 38 30t33 40t23 54t9 72v293zM175 554v133h38v-133h-38zM357 554v133h38v-133h-38z" />
    <glyph glyph-name="Ygrave" unicode="&#x1ef2;" horiz-adv-x="410" 
d="M190 0v236q-31 17 -60 38t-51.5 50t-36 67.5t-13.5 90.5v182h30v-184q0 -47 12.5 -81.5t33 -60t46.5 -44t54 -34.5q28 16 54.5 34.5t46.5 44t32.5 59.5t12.5 82v184h30v-182q0 -52 -13 -90.5t-35.5 -67t-51.5 -50t-60 -38.5v-236h-31zM77 849v33l216 -155v-21z" />
    <glyph glyph-name="ygrave" unicode="&#x1ef3;" horiz-adv-x="402" 
d="M333 35q-21 -15 -56.5 -28t-89.5 -13q-31 0 -58 7t-47.5 24.5t-32 47.5t-11.5 77v342h29v-341q0 -39 9.5 -64t26 -39.5t39.5 -20t50 -5.5q54 0 87.5 13t53.5 27v430h29v-587q0 -43 -12.5 -72t-34 -46.5t-51.5 -25t-64 -7.5q-33 0 -60.5 7.5t-47.5 25t-31.5 46.5t-11.5 72
v39h27v-39q0 -35 9.5 -59t26 -38.5t39 -20.5t49.5 -6q28 0 52.5 6t42.5 20.5t28 38.5t10 59v130zM73 677v33l216 -155v-21z" />
    <glyph glyph-name="endash" unicode="&#x2013;" horiz-adv-x="472" 
d="M47 300v24h378v-24h-378z" />
    <glyph glyph-name="emdash" unicode="&#x2014;" horiz-adv-x="596" 
d="M23 300v24h549v-24h-549z" />
    <glyph glyph-name="quoteleft" unicode="&#x2018;" horiz-adv-x="148" 
d="M103 396q-12 1 -20.5 14.5t-14 33t-8.5 43t-5 44.5l-12 141h35z" />
    <glyph glyph-name="quoteright" unicode="&#x2019;" horiz-adv-x="148" 
d="M68 672h35l-12 -141q-2 -21 -5 -44.5t-8.5 -43t-14 -33t-20.5 -14.5z" />
    <glyph glyph-name="quotesinglbase" unicode="&#x201a;" horiz-adv-x="148" 
d="M68 151h35l-12 -141q-2 -23 -5.5 -46t-9 -42.5t-13.5 -32t-20 -13.5z" />
    <glyph glyph-name="quotedblleft" unicode="&#x201c;" horiz-adv-x="296" 
d="M103 396q-12 1 -20.5 14.5t-14 33t-8.5 43t-5 44.5l-12 141h35zM251 396q-12 1 -20.5 14.5t-14 33t-8.5 43t-5 44.5l-12 141h35z" />
    <glyph glyph-name="quotedblright" unicode="&#x201d;" horiz-adv-x="296" 
d="M68 672h35l-12 -141q-2 -21 -5 -44.5t-8.5 -43t-14 -33t-20.5 -14.5zM216 672h35l-12 -141q-2 -21 -5 -44.5t-8.5 -43t-14 -33t-20.5 -14.5z" />
    <glyph glyph-name="quotedblbase" unicode="&#x201e;" horiz-adv-x="296" 
d="M68 151h35l-12 -141q-2 -23 -5.5 -46t-9 -42.5t-13.5 -32t-20 -13.5zM216 151h35l-12 -141q-2 -23 -5.5 -46t-9 -42.5t-13.5 -32t-20 -13.5z" />
    <glyph glyph-name="dagger" unicode="&#x2020;" horiz-adv-x="327" 
d="M153 0v490h-111v25h111v149h29v-149h102v-25h-102v-490h-29z" />
    <glyph glyph-name="daggerdbl" unicode="&#x2021;" horiz-adv-x="327" 
d="M153 0v149h-111v24h111v317h-111v25h111v149h29v-149h102v-25h-102v-317h102v-24h-102v-149h-29z" />
    <glyph glyph-name="bullet" unicode="&#x2022;" horiz-adv-x="339" 
d="M285 343q0 -22 -9 -40.5t-24.5 -32t-36.5 -21t-45 -7.5q-51 0 -84 28t-33 73t33 73t84 28q49 0 82 -28t33 -73z" />
    <glyph glyph-name="ellipsis" unicode="&#x2026;" horiz-adv-x="865" 
d="M69 0v151h35v-151h-35zM415 0v151h35v-151h-35zM761 0v151h35v-151h-35z" />
    <glyph glyph-name="perthousand" unicode="&#x2030;" horiz-adv-x="693" 
d="M57 602q0 46 26 63.5t64 17.5q36 0 62.5 -17.5t26.5 -63.5v-187q0 -46 -26.5 -63.5t-62.5 -17.5q-38 0 -64 17.5t-26 63.5v187zM210 602q0 35 -17 47t-46 12q-30 0 -47 -12t-17 -47v-187q0 -34 17 -46.5t47 -12.5q29 0 46 12.5t17 46.5v187zM41 -20l398 704h30l-398 -704
h-30zM274 249q0 46 26 63.5t64 17.5q36 0 62.5 -17.5t26.5 -63.5v-187q0 -46 -26.5 -63.5t-62.5 -17.5q-38 0 -64 17.5t-26 63.5v187zM427 249q0 35 -17 47t-46 12q-30 0 -47 -12t-17 -47v-187q0 -34 17 -46.5t47 -12.5q29 0 46 12.5t17 46.5v187zM478 249q0 46 26 63.5
t64 17.5q36 0 62.5 -17.5t26.5 -63.5v-187q0 -46 -26.5 -63.5t-62.5 -17.5q-38 0 -64 17.5t-26 63.5v187zM631 249q0 35 -17 47t-46 12q-30 0 -47 -12t-17 -47v-187q0 -34 17 -46.5t47 -12.5q29 0 46 12.5t17 46.5v187z" />
    <glyph glyph-name="guilsinglleft" unicode="&#x2039;" horiz-adv-x="192" 
d="M23 317l130 174l17 -20l-117 -154l117 -154l-17 -18z" />
    <glyph glyph-name="guilsinglright" unicode="&#x203a;" horiz-adv-x="192" 
d="M169 317l-130 -172l-17 18l117 154l-117 154l17 20z" />
    <glyph glyph-name="fraction" unicode="&#x2044;" horiz-adv-x="56" 
d="M-186 -20l398 704h30l-398 -704h-30z" />
    <glyph glyph-name="uni2070" unicode="&#x2070;" horiz-adv-x="244" 
d="M32 602q0 46 26 63.5t64 17.5q36 0 62.5 -17.5t26.5 -63.5v-187q0 -46 -26.5 -63.5t-62.5 -17.5q-38 0 -64 17.5t-26 63.5v187zM185 602q0 35 -17 47t-46 12q-30 0 -47 -12t-17 -47v-187q0 -34 17 -46.5t47 -12.5q29 0 46 12.5t17 46.5v187z" />
    <glyph glyph-name="uni2074" unicode="&#x2074;" horiz-adv-x="221" 
d="M160 343v70h-133v25l113 237h25l-115 -239h110v90h23v-183h-23z" />
    <glyph glyph-name="uni2075" unicode="&#x2075;" horiz-adv-x="237" 
d="M178 458q0 29 -13 43t-42 14q-26 0 -38 -4t-25 -17h-21l10 181h145v-22h-122l-8 -136q11 11 26 15.5t39 4.5q42 0 58 -20t16 -59v-43q0 -47 -24.5 -64t-62.5 -17t-60 17t-22 64v30h22v-28q0 -36 16.5 -48.5t42.5 -12.5q35 0 49 13t14 48v41z" />
    <glyph glyph-name="uni2076" unicode="&#x2076;" horiz-adv-x="243" 
d="M211 412q0 -44 -25.5 -61t-62.5 -17t-64 17t-27 61v189q0 47 25.5 64.5t64.5 17.5q38 0 61.5 -17.5t23.5 -64.5v-19h-25v19q0 35 -15.5 47.5t-44.5 12.5t-46.5 -12.5t-17.5 -47.5v-91q7 23 25 32.5t46 9.5q16 0 31 -3t26.5 -11.5t18 -24t6.5 -40.5v-61zM186 470
q0 36 -17.5 48.5t-46.5 12.5q-26 0 -42 -11t-22 -42v-66q0 -32 17 -44t47 -12q27 0 45.5 12t18.5 44v58z" />
    <glyph glyph-name="uni2077" unicode="&#x2077;" horiz-adv-x="215" 
d="M78 343q1 45 8 90t18 85.5t26 75t32 58.5h-136v23h160v-21q-17 -25 -32 -60t-26.5 -76t-18 -85.5t-6.5 -89.5h-25z" />
    <glyph glyph-name="uni2078" unicode="&#x2078;" horiz-adv-x="242" 
d="M210 415q0 -45 -25 -63t-64 -18q-40 0 -65 18t-25 63v30q0 59 50 67q-24 4 -35.5 22.5t-11.5 47.5v20q0 47 23.5 64t63.5 17q39 0 62.5 -17t23.5 -64v-14q0 -29 -10 -50t-37 -26q50 -8 50 -67v-30zM185 445q-1 35 -15 46t-49 11t-49.5 -11t-14.5 -46v-30
q0 -34 17.5 -46.5t46.5 -12.5t46.5 12.5t17.5 46.5v30zM183 601q0 35 -16.5 47.5t-45.5 12.5t-46 -12.5t-17 -47.5v-19q0 -36 15.5 -48t47.5 -12t47 12.5t15 47.5v19z" />
    <glyph glyph-name="uni2079" unicode="&#x2079;" horiz-adv-x="242" 
d="M184 511q-8 -23 -25.5 -32.5t-46.5 -9.5q-17 0 -31.5 3t-26 12t-18 24.5t-6.5 39.5v57q0 44 26 61t62 17q37 0 64 -17t27 -61v-190q0 -47 -25 -64t-65 -17q-38 0 -61 17t-23 64v25h24v-25q0 -34 16 -46.5t44 -12.5q30 0 47.5 12.5t17.5 46.5v96zM184 605q0 32 -17.5 44
t-46.5 12q-28 0 -46.5 -12t-18.5 -44v-53q0 -37 17.5 -49.5t46.5 -12.5q26 0 42.5 11.5t22.5 41.5v62z" />
    <glyph glyph-name="uni2080" unicode="&#x2080;" horiz-adv-x="244" 
d="M32 249q0 46 26 63.5t64 17.5q36 0 62.5 -17.5t26.5 -63.5v-187q0 -46 -26.5 -63.5t-62.5 -17.5q-38 0 -64 17.5t-26 63.5v187zM185 249q0 35 -17 47t-46 12q-30 0 -47 -12t-17 -47v-187q0 -34 17 -46.5t47 -12.5q29 0 46 12.5t17 46.5v187z" />
    <glyph glyph-name="uni2081" unicode="&#x2081;" horiz-adv-x="162" 
d="M102 -10v254q0 34 -18 46t-45 12q-8 0 -11 -1v24q3 0 5.5 0.5t6.5 0.5q36 0 62 -17.5t26 -63.5v-255h-26z" />
    <glyph glyph-name="uni2082" unicode="&#x2082;" horiz-adv-x="235" 
d="M34 -10v89q0 21 5 40.5t25 32.5q15 10 34.5 15.5t37 13t29.5 19t12 32.5q0 15 -1 29t-6 24.5t-17 16.5t-34 6q-12 0 -22.5 -1.5t-19 -6t-13.5 -13t-5 -23.5v-29h-22v30q0 38 24 51.5t56 13.5q45 0 64 -19t19 -65q0 -38 -13 -55.5t-49 -31.5q-12 -5 -29 -11t-28 -12
q-17 -10 -19 -28.5t-2 -36.5v-59h139v-22h-165z" />
    <glyph glyph-name="uni2083" unicode="&#x2083;" horiz-adv-x="231" 
d="M174 92q0 31 -11.5 44t-37.5 13h-35v20h36q46 0 46 60v19q0 35 -16 47.5t-45 12.5t-43.5 -12.5t-14.5 -49.5v-26h-23v29q0 47 21.5 64t59.5 17q40 0 63 -17t23 -64v-20q0 -29 -11.5 -47.5t-36.5 -22.5q50 -7 50 -67v-30q0 -45 -24 -63t-64 -18q-38 0 -59.5 17t-21.5 64
v30h23v-28q0 -36 15 -48.5t43 -12.5q29 0 46 12.5t17 46.5v30z" />
    <glyph glyph-name="uni2084" unicode="&#x2084;" horiz-adv-x="221" 
d="M160 -10v70h-133v25l113 237h25l-115 -239h110v90h23v-183h-23z" />
    <glyph glyph-name="uni2085" unicode="&#x2085;" horiz-adv-x="237" 
d="M178 105q0 29 -13 43t-42 14q-26 0 -38 -4t-25 -17h-21l10 181h145v-22h-122l-8 -136q11 11 26 15.5t39 4.5q42 0 58 -20t16 -59v-43q0 -47 -24.5 -64t-62.5 -17t-60 17t-22 64v30h22v-28q0 -36 16.5 -48.5t42.5 -12.5q35 0 49 13t14 48v41z" />
    <glyph glyph-name="uni2086" unicode="&#x2086;" horiz-adv-x="243" 
d="M211 59q0 -44 -25.5 -61t-62.5 -17t-64 17t-27 61v189q0 47 25.5 64.5t64.5 17.5q38 0 61.5 -17.5t23.5 -64.5v-19h-25v19q0 35 -15.5 47.5t-44.5 12.5t-46.5 -12.5t-17.5 -47.5v-91q7 23 25 32.5t46 9.5q16 0 31 -3t26.5 -11.5t18 -24t6.5 -40.5v-61zM186 117
q0 36 -17.5 48.5t-46.5 12.5q-26 0 -42 -11t-22 -42v-66q0 -32 17 -44t47 -12q27 0 45.5 12t18.5 44v58z" />
    <glyph glyph-name="uni2087" unicode="&#x2087;" horiz-adv-x="215" 
d="M78 -10q1 45 8 90t18 85.5t26 75t32 58.5h-136v23h160v-21q-17 -25 -32 -60t-26.5 -76t-18 -85.5t-6.5 -89.5h-25z" />
    <glyph glyph-name="uni2088" unicode="&#x2088;" horiz-adv-x="242" 
d="M210 62q0 -45 -25 -63t-64 -18q-40 0 -65 18t-25 63v30q0 59 50 67q-24 4 -35.5 22.5t-11.5 47.5v20q0 47 23.5 64t63.5 17q39 0 62.5 -17t23.5 -64v-14q0 -29 -10 -50t-37 -26q50 -8 50 -67v-30zM185 92q-1 35 -15 46t-49 11t-49.5 -11t-14.5 -46v-30q0 -34 17.5 -46.5
t46.5 -12.5t46.5 12.5t17.5 46.5v30zM183 248q0 35 -16.5 47.5t-45.5 12.5t-46 -12.5t-17 -47.5v-19q0 -36 15.5 -48t47.5 -12t47 12.5t15 47.5v19z" />
    <glyph glyph-name="uni2089" unicode="&#x2089;" horiz-adv-x="242" 
d="M184 158q-8 -23 -25.5 -32.5t-46.5 -9.5q-17 0 -31.5 3t-26 12t-18 24.5t-6.5 39.5v57q0 44 26 61t62 17q37 0 64 -17t27 -61v-190q0 -47 -25 -64t-65 -17q-38 0 -61 17t-23 64v25h24v-25q0 -34 16 -46.5t44 -12.5q30 0 47.5 12.5t17.5 46.5v96zM184 252q0 32 -17.5 44
t-46.5 12q-28 0 -46.5 -12t-18.5 -44v-53q0 -37 17.5 -49.5t46.5 -12.5q26 0 42.5 11.5t22.5 41.5v62z" />
    <glyph glyph-name="Euro" unicode="&#x20ac;" horiz-adv-x="351" 
d="M316 -9q-24 -8 -79 -8q-38 0 -70 8t-55.5 26.5t-37 49.5t-13.5 78v114h-37l3 23h34v107h-37l3 23h34v106q0 46 13.5 77.5t37 50t55.5 26.5t70 8q34 0 72 -9l-5 -27q-20 5 -36.5 7t-30.5 2q-32 0 -58.5 -6.5t-46 -22.5t-30.5 -41.5t-11 -64.5v-106h181l-4 -23h-177v-107
h163l-4 -23h-159v-114q0 -39 11 -64.5t30.5 -41.5t46 -22.5t58.5 -6.5q23 0 42 1.5t37 6.5v-27z" />
    <glyph glyph-name="trademark" unicode="&#x2122;" horiz-adv-x="549" 
d="M103 353v299h-68v20h157v-20h-67v-299h-22zM486 353v245q0 31 -16 45.5t-43 14.5q-36 0 -51 -15v-290h-22v290q-8 8 -25 11.5t-30 3.5q-18 0 -31 -2.5t-22 -6.5v-296h-22v313q11 5 29.5 9.5t44.5 4.5q17 0 36 -4.5t30 -14.5q8 8 25 13.5t39 5.5q35 0 57.5 -19.5
t22.5 -61.5v-246h-22z" />
    <glyph glyph-name="onethird" unicode="&#x2153;" horiz-adv-x="527" 
d="M139 343v254q0 34 -18 46t-45 12q-8 0 -11 -1v24q3 0 5.5 0.5t6.5 0.5q36 0 62 -17.5t26 -63.5v-255h-26zM38 -20l398 704h30l-398 -704h-30zM466 92q0 31 -11.5 44t-37.5 13h-35v20h36q46 0 46 60v19q0 35 -16 47.5t-45 12.5t-43.5 -12.5t-14.5 -49.5v-26h-23v29
q0 47 21.5 64t59.5 17q40 0 63 -17t23 -64v-20q0 -29 -11.5 -47.5t-36.5 -22.5q50 -7 50 -67v-30q0 -45 -24 -63t-64 -18q-38 0 -59.5 17t-21.5 64v30h23v-28q0 -36 15 -48.5t43 -12.5q29 0 46 12.5t17 46.5v30z" />
    <glyph glyph-name="twothirds" unicode="&#x2154;" horiz-adv-x="512" 
d="M38 343v89q0 21 5 40.5t25 32.5q15 10 34.5 15.5t37 13t29.5 19t12 32.5q0 15 -1 29t-6 24.5t-17 16.5t-34 6q-12 0 -22.5 -1.5t-19 -6t-13.5 -13t-5 -23.5v-29h-22v30q0 38 24 51.5t56 13.5q45 0 64 -19t19 -65q0 -38 -13 -55.5t-49 -31.5q-12 -5 -29 -11t-28 -12
q-17 -10 -19 -28.5t-2 -36.5v-59h139v-22h-165zM38 -20l398 704h30l-398 -704h-30zM446 92q0 31 -11.5 44t-37.5 13h-35v20h36q46 0 46 60v19q0 35 -16 47.5t-45 12.5t-43.5 -12.5t-14.5 -49.5v-26h-23v29q0 47 21.5 64t59.5 17q40 0 63 -17t23 -64v-20q0 -29 -11.5 -47.5
t-36.5 -22.5q50 -7 50 -67v-30q0 -45 -24 -63t-64 -18q-38 0 -59.5 17t-21.5 64v30h23v-28q0 -36 15 -48.5t43 -12.5q29 0 46 12.5t17 46.5v30z" />
    <glyph glyph-name="oneeighth" unicode="&#x215b;" horiz-adv-x="532" 
d="M149 343v254q0 34 -18 46t-45 12q-8 0 -11 -1v24q3 0 5.5 0.5t6.5 0.5q36 0 62 -17.5t26 -63.5v-255h-26zM38 -20l398 704h30l-398 -704h-30zM492 62q0 -45 -25 -63t-64 -18q-40 0 -65 18t-25 63v30q0 59 50 67q-24 4 -35.5 22.5t-11.5 47.5v20q0 47 23.5 64t63.5 17
q39 0 62.5 -17t23.5 -64v-14q0 -29 -10 -50t-37 -26q50 -8 50 -67v-30zM467 92q-1 35 -15 46t-49 11t-49.5 -11t-14.5 -46v-30q0 -34 17.5 -46.5t46.5 -12.5t46.5 12.5t17.5 46.5v30zM465 248q0 35 -16.5 47.5t-45.5 12.5t-46 -12.5t-17 -47.5v-19q0 -36 15.5 -48t47.5 -12
t47 12.5t15 47.5v19z" />
    <glyph glyph-name="threeeighths" unicode="&#x215c;" horiz-adv-x="512" 
d="M202 445q0 31 -11.5 44t-37.5 13h-35v20h36q46 0 46 60v19q0 35 -16 47.5t-45 12.5t-43.5 -12.5t-14.5 -49.5v-26h-23v29q0 47 21.5 64t59.5 17q40 0 63 -17t23 -64v-20q0 -29 -11.5 -47.5t-36.5 -22.5q50 -7 50 -67v-30q0 -45 -24 -63t-64 -18q-38 0 -59.5 17t-21.5 64
v30h23v-28q0 -36 15 -48.5t43 -12.5q29 0 46 12.5t17 46.5v30zM43 -20l398 704h30l-398 -704h-30zM472 62q0 -45 -25 -63t-64 -18q-40 0 -65 18t-25 63v30q0 59 50 67q-24 4 -35.5 22.5t-11.5 47.5v20q0 47 23.5 64t63.5 17q39 0 62.5 -17t23.5 -64v-14q0 -29 -10 -50
t-37 -26q50 -8 50 -67v-30zM447 92q-1 35 -15 46t-49 11t-49.5 -11t-14.5 -46v-30q0 -34 17.5 -46.5t46.5 -12.5t46.5 12.5t17.5 46.5v30zM445 248q0 35 -16.5 47.5t-45.5 12.5t-46 -12.5t-17 -47.5v-19q0 -36 15.5 -48t47.5 -12t47 12.5t15 47.5v19z" />
    <glyph glyph-name="fiveeighths" unicode="&#x215d;" horiz-adv-x="512" 
d="M200 458q0 29 -13 43t-42 14q-26 0 -38 -4t-25 -17h-21l10 181h145v-22h-122l-8 -136q11 11 26 15.5t39 4.5q42 0 58 -20t16 -59v-43q0 -47 -24.5 -64t-62.5 -17t-60 17t-22 64v30h22v-28q0 -36 16.5 -48.5t42.5 -12.5q35 0 49 13t14 48v41zM43 -20l398 704h30l-398 -704
h-30zM472 62q0 -45 -25 -63t-64 -18q-40 0 -65 18t-25 63v30q0 59 50 67q-24 4 -35.5 22.5t-11.5 47.5v20q0 47 23.5 64t63.5 17q39 0 62.5 -17t23.5 -64v-14q0 -29 -10 -50t-37 -26q50 -8 50 -67v-30zM447 92q-1 35 -15 46t-49 11t-49.5 -11t-14.5 -46v-30
q0 -34 17.5 -46.5t46.5 -12.5t46.5 12.5t17.5 46.5v30zM445 248q0 35 -16.5 47.5t-45.5 12.5t-46 -12.5t-17 -47.5v-19q0 -36 15.5 -48t47.5 -12t47 12.5t15 47.5v19z" />
    <glyph glyph-name="seveneighths" unicode="&#x215e;" horiz-adv-x="522" 
d="M132 343q1 45 8 90t18 85.5t26 75t32 58.5h-136v23h160v-21q-17 -25 -32 -60t-26.5 -76t-18 -85.5t-6.5 -89.5h-25zM40 -20l398 704h30l-398 -704h-30zM482 62q0 -45 -25 -63t-64 -18q-40 0 -65 18t-25 63v30q0 59 50 67q-24 4 -35.5 22.5t-11.5 47.5v20q0 47 23.5 64
t63.5 17q39 0 62.5 -17t23.5 -64v-14q0 -29 -10 -50t-37 -26q50 -8 50 -67v-30zM457 92q-1 35 -15 46t-49 11t-49.5 -11t-14.5 -46v-30q0 -34 17.5 -46.5t46.5 -12.5t46.5 12.5t17.5 46.5v30zM455 248q0 35 -16.5 47.5t-45.5 12.5t-46 -12.5t-17 -47.5v-19q0 -36 15.5 -48
t47.5 -12t47 12.5t15 47.5v19z" />
    <glyph glyph-name="partialdiff" unicode="&#x2202;" horiz-adv-x="454" 
d="M185 675q11 2 22 3.5t22 1.5q37 0 71.5 -15.5t61 -49t42.5 -86t16 -125.5q0 -83 -10 -159t-34.5 -134t-65.5 -93t-103 -35q-48 0 -81.5 15t-53.5 42.5t-29 67.5t-9 91q0 112 49.5 173.5t134.5 61.5q30 0 58 -10t50 -33.5t36 -62t17 -94.5q8 40 10.5 81.5t2.5 84.5
q0 121 -45.5 185t-120.5 64q-11 0 -20.5 -1t-20.5 -4v31zM369 190q-2 58 -14 98.5t-31.5 66t-46.5 37t-58 11.5q-73 0 -114.5 -52.5t-41.5 -152.5q0 -88 32.5 -136t111.5 -48q66 0 104.5 47.5t57.5 128.5z" />
    <glyph glyph-name="product" unicode="&#x220f;" horiz-adv-x="450" 
d="M376 -233v870h-302v-870h-32v897h365v-897h-31z" />
    <glyph glyph-name="summation" unicode="&#x2211;" horiz-adv-x="419" 
d="M46 -182v24l212 399l-212 399v24h327v-30h-288l207 -393l-207 -393h288v-30h-327z" />
    <glyph glyph-name="minus" unicode="&#x2212;" horiz-adv-x="540" 
d="M48 332v27h442v-27h-442z" />
    <glyph glyph-name="radical" unicode="&#x221a;" horiz-adv-x="522" 
d="M244 0l-122 342h-94v24h122l108 -319l218 617h33l-236 -664h-29z" />
    <glyph glyph-name="infinity" unicode="&#x221e;" horiz-adv-x="562" 
d="M281 309q-19 -72 -51 -103t-87 -31q-27 0 -51 10.5t-42 31t-28.5 51.5t-10.5 72t10.5 72t28.5 51.5t42 31t51 10.5q55 0 86.5 -31t51.5 -103q18 72 49.5 103t88.5 31q55 0 93 -41.5t38 -123.5t-38 -123.5t-93 -41.5q-57 0 -89 31t-49 103zM293 339q15 -76 43.5 -106.5
t79.5 -30.5q48 0 78.5 34.5t30.5 103.5t-31.5 103t-77.5 34q-49 0 -78 -30.5t-45 -107.5zM271 339q-20 75 -49.5 106.5t-74.5 31.5q-48 0 -79 -34t-31 -103t31 -103.5t79 -34.5q46 0 75.5 32t48.5 105z" />
    <glyph glyph-name="integral" unicode="&#x222b;" horiz-adv-x="397" 
d="M10 -233v31h23q30 0 57 7.5t47 24.5t31.5 46t11.5 71v544q0 49 13.5 83.5t38 56.5t58 31.5t74.5 9.5h23v-31h-23q-30 0 -57 -7.5t-47.5 -25.5t-32 -46.5t-11.5 -70.5v-544q0 -50 -13.5 -84t-38 -55.5t-58 -31t-73.5 -9.5h-23z" />
    <glyph glyph-name="approxequal" unicode="&#x2248;" horiz-adv-x="567" 
d="M518 233q-29 -35 -61.5 -51t-77.5 -16q-29 0 -53.5 11t-48.5 23.5t-49 23.5t-55 11q-39 0 -69 -19t-56 -54v33q21 25 51 46t73 21q32 0 58.5 -10.5t51 -23.5t48.5 -23.5t50 -10.5q40 0 73.5 16t64.5 55v-32zM518 432q-29 -35 -61.5 -51t-77.5 -16q-29 0 -53.5 11
t-48.5 23.5t-49 23.5t-55 11q-39 0 -69 -19t-56 -54v33q21 25 51 46t73 21q32 0 58.5 -10.5t51 -23.5t48.5 -23.5t50 -10.5q40 0 73.5 16t64.5 55v-32z" />
    <glyph glyph-name="notequal" unicode="&#x2260;" horiz-adv-x="511" 
d="M199 228l-163 -248h-24l163 248h-136v28h154l115 175h-269v27h287l149 226h24l-149 -226h122v-27h-140l-115 -175h255v-28h-273z" />
    <glyph glyph-name="lessequal" unicode="&#x2264;" horiz-adv-x="540" 
d="M48 329v27l442 234v-31l-411 -216l411 -216v-31zM49 43v27h442v-27h-442z" />
    <glyph glyph-name="greaterequal" unicode="&#x2265;" horiz-adv-x="540" 
d="M48 96v31l412 216l-412 216v31l442 -234v-27zM49 43v27h442v-27h-442z" />
    <glyph glyph-name="lozenge" unicode="&#x25ca;" horiz-adv-x="503" 
d="M239 0l-204 332l204 332h34l195 -332l-195 -332h-34zM432 332l-176 297l-185 -297l184 -297z" />
    <glyph glyph-name="uniF8FF" unicode="&#xf8ff;" horiz-adv-x="182" 
 />
    <glyph glyph-name="glyph398" horiz-adv-x="0" 
 />
    </font>
</defs>
</svg>
