<?xml version="1.0" standalone="no"?>
<!DOCTYPE svg PUBLIC "-//W3C//DTD SVG 1.1//EN" "http://www.w3.org/Graphics/SVG/1.1/DTD/svg11.dtd" >
<svg>
<metadata>
Created by FontForge 20120731 at Thu Jul 20 16:34:38 2023
 By www
Copyright (c) 2009 Typodermic Fonts. This font is not freely distributable. Visit typodermic.com for more information.
</metadata>
<defs>
<font id="MaquiW00-BlackItalic" horiz-adv-x="448" >
  <font-face 
    font-family="MaquiW00-BlackItalic"
    font-weight="900"
    font-style="italic"
    font-stretch="normal"
    units-per-em="1000"
    panose-1="2 11 10 6 3 6 2 2 0 4"
    ascent="800"
    descent="-200"
    x-height="492"
    cap-height="664"
    bbox="-154 -246 1397 908"
    underline-thickness="50"
    underline-position="-125"
    slope="-8"
    unicode-range="U+0017-F8FF"
  />
<missing-glyph horiz-adv-x="678" 
d="M151 -241q-114 0 -114 99v799q0 100 114 100h374q116 0 116 -100v-799q0 -99 -116 -99h-374zM321 24l-187 50l-45 -167l188 -49zM336 130q4 16 13 25t20.5 15t25 9.5t26.5 7.5q29 9 50 21.5t37.5 34t29.5 54.5t27 83q8 29 12.5 55t4.5 49q0 49 -26 83t-64.5 55
t-83.5 30.5t-84 9.5q-54 0 -94 -28t-59 -97l-21 -77l175 -48l20 72q3 11 15 11t22.5 -6t10.5 -17l-24 -87q-4 -15 -12.5 -23.5t-21 -14t-27.5 -9.5t-33 -10q-48 -17 -70.5 -52t-35.5 -86l-12 -46l171 -44z" />
    <glyph glyph-name="copyright" unicode="&#x28;C&#x29;" horiz-adv-x="517" 
d="M506 145q-7 -47 -30 -78t-56.5 -49.5t-76 -26.5t-88.5 -8q-48 0 -86 7t-64.5 23.5t-41 44.5t-14.5 69v8.5t2 9.5l52 373q6 46 28 77.5t55 50t76 26.5t91 8q42 0 80 -6.5t66 -22t44.5 -41.5t16.5 -64q0 -7 -0.5 -13.5t-1.5 -14.5zM478 518q0 3 0.5 6t0.5 5q0 20 -11 33.5
t-29.5 22t-43.5 12t-53 3.5q-64 0 -108 -17.5t-51 -64.5l-52 -373q-1 -3 -1 -12q0 -40 38 -55t98 -15q30 0 57 4t49 13.5t36.5 25t17.5 39.5zM376 253q-6 -43 -29.5 -58.5t-58.5 -15.5q-34 0 -56 12.5t-22 46.5q0 12 1 15l24 168q6 42 33 57.5t64 15.5q32 0 50.5 -12
t18.5 -44v-8t-1 -9l-9 -60h-68l8 52q0 7 -9 7q-10 0 -10 -7l-22 -153q0 -4 1 -5t7 -1q9 0 11 6l7 51h68z" />
    <glyph glyph-name="registered" unicode="&#x28;R&#x29;" horiz-adv-x="517" 
d="M506 145q-7 -47 -30 -78t-56.5 -49.5t-76 -26.5t-88.5 -8q-48 0 -86 7t-64.5 23.5t-41 44.5t-14.5 69v8.5t2 9.5l52 373q6 46 28 77.5t55 50t76 26.5t91 8q42 0 80 -6.5t66 -22t44.5 -41.5t16.5 -64q0 -7 -0.5 -13.5t-1.5 -14.5zM478 518q0 3 0.5 6t0.5 5q0 20 -11 33.5
t-29.5 22t-43.5 12t-53 3.5q-64 0 -108 -17.5t-51 -64.5l-52 -373q-1 -3 -1 -12q0 -40 38 -55t98 -15q30 0 57 4t49 13.5t36.5 25t17.5 39.5zM314 362q4 0 7.5 6t5.5 14t3 16t1 13q0 12 -8 12h-10l-9 -61h10zM298 187l15 108q0 4 -1 8.5t-6 4.5h-9l-17 -121h-75l42 300h112
q29 0 38.5 -15.5t9.5 -36.5q0 -8 -1 -22t-5.5 -29t-13 -27.5t-23.5 -17.5q15 -4 19.5 -15t4.5 -25v-10.5t-1 -10.5l-13 -91h-76z" />
    <glyph glyph-name="uni2117" unicode="&#x28;P&#x29;" horiz-adv-x="517" 
d="M506 145q-7 -47 -30 -78t-56.5 -49.5t-76 -26.5t-88.5 -8q-48 0 -86 7t-64.5 23.5t-41 44.5t-14.5 69v8.5t2 9.5l52 373q6 46 28 77.5t55 50t76 26.5t91 8q42 0 80 -6.5t66 -22t44.5 -41.5t16.5 -64q0 -7 -0.5 -13.5t-1.5 -14.5zM478 518q0 3 0.5 6t0.5 5q0 20 -11 33.5
t-29.5 22t-43.5 12t-53 3.5q-64 0 -108 -17.5t-51 -64.5l-52 -373q-1 -3 -1 -12q0 -40 38 -55t98 -15q30 0 57 4t49 13.5t36.5 25t17.5 39.5zM205 187l42 300h102q34 0 47 -14t13 -44q0 -16 -3 -37q-4 -26 -9.5 -44t-15 -29.5t-24 -17t-35.5 -5.5h-25l-15 -109h-77zM316 357
q4 0 7.5 7t5.5 16t3 18.5t1 14.5q0 10 -8 10h-10l-9 -66h10z" />
    <glyph glyph-name=".notdef" horiz-adv-x="678" 
d="M151 -241q-114 0 -114 99v799q0 100 114 100h374q116 0 116 -100v-799q0 -99 -116 -99h-374zM321 24l-187 50l-45 -167l188 -49zM336 130q4 16 13 25t20.5 15t25 9.5t26.5 7.5q29 9 50 21.5t37.5 34t29.5 54.5t27 83q8 29 12.5 55t4.5 49q0 49 -26 83t-64.5 55
t-83.5 30.5t-84 9.5q-54 0 -94 -28t-59 -97l-21 -77l175 -48l20 72q3 11 15 11t22.5 -6t10.5 -17l-24 -87q-4 -15 -12.5 -23.5t-21 -14t-27.5 -9.5t-33 -10q-48 -17 -70.5 -52t-35.5 -86l-12 -46l171 -44z" />
    <glyph glyph-name=".null" horiz-adv-x="0" 
 />
    <glyph glyph-name="nonmarkingreturn" horiz-adv-x="333" 
 />
    <glyph glyph-name="glyph397" horiz-adv-x="0" 
 />
    <glyph glyph-name="glyph397" horiz-adv-x="0" 
 />
    <glyph glyph-name="uni0017" horiz-adv-x="200" 
 />
    <glyph glyph-name="space" unicode=" " horiz-adv-x="200" 
 />
    <glyph glyph-name="exclam" unicode="!" horiz-adv-x="272" 
d="M53 0l20 146h164l-20 -146h-164zM121 198q-6 100 -6 179q0 60 4 115.5t12 116.5q4 35 15 55h168q0 -12 -0.5 -25t-2.5 -30q-7 -51 -16.5 -99t-22.5 -97t-29.5 -101.5t-37.5 -113.5h-84z" />
    <glyph glyph-name="quotedbl" unicode="&#x22;" horiz-adv-x="394" 
d="M95 414l35 250h122l-35 -250h-122zM292 414l35 250h122l-35 -250h-122z" />
    <glyph glyph-name="numbersign" unicode="#" horiz-adv-x="526" 
d="M359 380h-74l-29 -96h75zM252 0l52 180h-74l-48 -180h-104l49 180h-81l25 104h83l27 96h-80l27 104h82l51 180h101l-50 -180h75l48 180h105l-50 -180h83l-30 -104h-81l-27 -96h82l-26 -104h-84l-49 -180h-106z" />
    <glyph glyph-name="dollar" unicode="$" horiz-adv-x="428" 
d="M153 0l10 77q-52 7 -79.5 29t-27.5 67q0 5 0.5 10.5t1.5 11.5l8 57h152l-5 -32q0 -11 19 -11q10 0 15.5 3t7.5 12l3 25q0 13 -5.5 21t-15 13.5t-22 9.5t-26.5 9q-51 18 -74 48t-23 73q0 72 33 114.5t111 53.5l10 73h125l-10 -71q45 -6 71.5 -25t26.5 -61v-10t-1 -10
l-7 -49h-146l4 30q0 9 -18 9q-8 0 -15 -2.5t-8 -10.5l-5 -34q0 -8 10.5 -14.5t26 -12.5t32 -11t28.5 -9q44 -16 59 -43t15 -58q0 -20 -3 -38q-5 -34 -13.5 -61.5t-24 -48.5t-41 -35t-63.5 -20l-11 -79h-125z" />
    <glyph glyph-name="percent" unicode="%" horiz-adv-x="543" 
d="M281 415q-6 -46 -37 -63.5t-70 -17.5q-38 0 -62.5 14t-24.5 52v6.5t1 8.5l26 187q7 47 37 64t72 17q35 0 60 -14t25 -51v-7.5t-1 -8.5zM220 593q0 3 -1 5t-8 2q-11 0 -12 -7l-24 -169q0 -7 10 -7q11 0 11 7zM31 -20l488 704h88l-490 -704h-86zM520 62q-6 -46 -37 -63.5
t-70 -17.5q-38 0 -62.5 14t-24.5 52v6.5t1 8.5l26 187q7 47 37 64t72 17q35 0 60 -14t25 -51v-7.5t-1 -8.5zM459 240q0 3 -1 5t-8 2q-11 0 -12 -7l-24 -169q0 -7 10 -7q11 0 11 7z" />
    <glyph glyph-name="ampersand" unicode="&#x26;" horiz-adv-x="516" 
d="M356 0l-18 30q-23 -21 -60 -34t-94 -13q-26 0 -50.5 6.5t-44 21.5t-31.5 39.5t-12 60.5q0 16 3 34l7 49q3 21 10.5 43t19.5 42t29 36.5t38 26.5q-14 23 -26 50t-12 65q0 16 3 34l3 27q7 46 21 77.5t36.5 50t55.5 26.5t79 8q76 0 110 -24t34 -86q0 -11 -1 -24.5t-3 -27.5
l-3 -27q-6 -52 -26.5 -88.5t-58.5 -57.5l-48 -26l32 -52l37 53h166l-126 -175l91 -145h-161zM314 509q0 7 -3.5 10.5t-15.5 3.5t-17 -3.5t-6 -10.5l-11 -76q0 -2 -0.5 -3.5t-0.5 -3.5q0 -17 15 -32q11 9 18.5 17.5t9.5 21.5zM221 229l-11 -74q0 -10 5 -15t19 -5q17 0 31 14z
" />
    <glyph glyph-name="quotesingle" unicode="'" horiz-adv-x="197" 
d="M95 414l35 250h122l-35 -250h-122z" />
    <glyph glyph-name="parenleft" unicode="(" horiz-adv-x="330" 
d="M207 -143q-54 75 -81 162.5t-27 184.5q0 141 55.5 275t175.5 249h115q-91 -132 -138 -267.5t-47 -282.5q0 -159 62 -321h-115z" />
    <glyph glyph-name="parenright" unicode=")" horiz-adv-x="330" 
d="M-33 -143q185 275 185 557q0 161 -63 314h115q57 -75 83.5 -160t26.5 -176q0 -71 -15.5 -143t-45 -140.5t-73 -132.5t-99.5 -119h-114z" />
    <glyph glyph-name="asterisk" unicode="*" horiz-adv-x="415" 
d="M350 319l-73 97l-71 -97l-68 47l72 102l-109 35l24 75l108 -34v125h88v-125l107 34l27 -75l-110 -35l72 -102z" />
    <glyph glyph-name="plus" unicode="+" horiz-adv-x="567" 
d="M239 101l26 185h-183l16 115h183l26 183h115l-26 -183h184l-16 -115h-184l-26 -185h-115z" />
    <glyph glyph-name="comma" unicode="," horiz-adv-x="329" 
d="M101 151h169l-13 -91q-6 -45 -23.5 -82.5t-44 -65.5t-60 -44.5t-72.5 -18.5z" />
    <glyph glyph-name="hyphen" unicode="-" horiz-adv-x="334" 
d="M74 246l17 123h254l-17 -123h-254z" />
    <glyph glyph-name="period" unicode="." horiz-adv-x="287" 
d="M59 0l21 151h169l-21 -151h-169z" />
    <glyph glyph-name="slash" unicode="/" horiz-adv-x="306" 
d="M0 0l265 664h134l-268 -664h-131z" />
    <glyph glyph-name="zero" unicode="0" 
d="M437 145q-7 -47 -27 -78t-49 -49.5t-65 -26.5t-75 -8q-37 0 -68.5 6.5t-55 21.5t-36.5 39.5t-13 60.5q0 16 3 34l52 373q6 46 25 77.5t48 50t65.5 26.5t77.5 8q39 0 70.5 -7t54 -23.5t35 -44t12.5 -68.5v-9.5t-2 -9.5zM315 501q0 7 -3.5 10.5t-15.5 3.5t-17 -3.5
t-6 -10.5l-48 -339q0 -7 2.5 -10.5t16.5 -3.5q12 0 17 3.5t6 10.5z" />
    <glyph glyph-name="one" unicode="1" horiz-adv-x="273" 
d="M67 0l69 494q0 7 -3.5 10.5t-15.5 3.5q-14 0 -23 -4l24 167q6 0 12 0.5t13 0.5q39 0 70 -7t53 -23.5t34 -43.5t12 -67v-10t-2 -10l-71 -511h-172z" />
    <glyph glyph-name="two" unicode="2" horiz-adv-x="428" 
d="M34 0l27 193q4 27 10.5 54t19.5 51t33.5 44t52.5 34q21 9 41 16.5t35.5 15.5t26 18t12.5 24l10 74q0 11 -4.5 14.5t-14.5 3.5q-8 0 -14.5 -2.5t-7.5 -10.5l-9 -63h-146l10 69q6 43 22 71t40 44.5t56 23t71 6.5q46 0 77.5 -7t50.5 -22.5t27 -39t8 -56.5q0 -14 -1.5 -30
t-3.5 -33q-7 -46 -17.5 -79t-26.5 -56.5t-39 -40.5t-55 -31q-15 -7 -30 -13t-27 -13t-20 -17.5t-11 -26.5l-10 -66h182l-20 -149h-355z" />
    <glyph glyph-name="three" unicode="3" horiz-adv-x="422" 
d="M413 145q-7 -47 -26 -78t-47.5 -49.5t-65 -26.5t-77.5 -8q-35 0 -63 6t-48 20.5t-31 38t-11 58.5q0 18 3 39l8 60h152l-6 -48q0 -1 -0.5 -2t-0.5 -2q0 -10 20 -10q12 0 16.5 3.5t6.5 10.5l11 81q1 5 1 9v8q0 12 -4 20t-16 8h-40l16 114h40q17 0 23 13t8 29l10 69
q0 7 -3.5 10.5t-15.5 3.5t-17 -3.5t-6 -10.5l-7 -48h-152l8 58q6 46 23 77.5t42.5 50t58.5 26.5t72 8q37 0 68 -6.5t53 -21t34.5 -39t12.5 -60.5q0 -8 -1 -16.5t-2 -18.5l-3 -27q-4 -22 -10.5 -45t-17.5 -44t-27 -38t-38 -26q32 -14 45 -45.5t13 -67.5q0 -8 -0.5 -15.5
t-1.5 -15.5z" />
    <glyph glyph-name="four" unicode="4" 
d="M254 0l15 113h-232l23 160l219 391h164l-213 -403h64l15 106h156l-51 -367h-160z" />
    <glyph glyph-name="five" unicode="5" horiz-adv-x="433" 
d="M419 145q-6 -47 -25.5 -78t-48 -49.5t-65 -26.5t-77.5 -8q-35 0 -63 6t-48 20.5t-31 38t-11 58.5q0 18 3 39l8 60h152l-6 -47q0 -1 -0.5 -2t-0.5 -2q0 -10 20 -10q12 0 16.5 3.5t6.5 10.5l13 95q1 5 1.5 8.5t0.5 6.5q0 9 -5 12t-18 3h-159l77 381h313l-21 -147h-158
l-23 -118q19 5 33 6.5t32 1.5q102 0 102 -109q0 -20 -3 -44z" />
    <glyph glyph-name="six" unicode="6" 
d="M437 139q-6 -45 -25.5 -75t-49 -48t-65.5 -25.5t-75 -7.5q-41 0 -73 7t-54.5 23t-34.5 42.5t-12 64.5v9.5t2 9.5l53 379q6 46 25 77.5t48 50t65.5 26.5t77.5 8q35 0 65 -6.5t52 -21t34.5 -39t12.5 -60.5q0 -8 -1 -17l-2 -18l-5 -40h-163l4 30q0 7 -3.5 10.5t-15.5 3.5
t-17 -3.5t-6 -10.5l-14 -99q11 4 23 6t34 2q24 0 49 -4.5t45.5 -18t33 -37t12.5 -61.5q0 -16 -3 -35zM283 274q0 7 -3 10.5t-15 3.5q-16 0 -23 -4l-18 -129q0 -6 3 -9.5t16 -3.5q12 0 17 3.5t6 9.5z" />
    <glyph glyph-name="seven" unicode="7" horiz-adv-x="391" 
d="M79 0q11 78 31.5 155t46.5 145t55.5 124.5t58.5 92.5h-180l21 147h348l-17 -122q-69 -94 -119.5 -231t-79.5 -311h-165z" />
    <glyph glyph-name="eight" unicode="8" horiz-adv-x="444" 
d="M435 145q-7 -47 -26 -78t-47.5 -49.5t-65 -26.5t-77.5 -8q-37 0 -68.5 6.5t-55 21.5t-36.5 39.5t-13 60.5q0 16 3 34l7 49q3 21 10 43t19 42t28.5 35.5t38.5 23.5q-30 14 -41 44t-11 65q0 23 3 44l3 27q7 46 25.5 77.5t46 50t63 26.5t76.5 8q37 0 68 -6.5t53 -21
t34.5 -39t12.5 -60.5q0 -8 -1 -16.5t-2 -18.5l-3 -27q-4 -22 -10.5 -45t-17.5 -44t-27 -38t-38 -26q32 -14 45 -45.5t13 -67.5q0 -8 -0.5 -15.5t-1.5 -15.5zM276 241q1 4 1 8v8q0 10 -3 16.5t-13 8.5q-17 -2 -21 -14.5t-6 -26.5l-11 -81q0 -7 2.5 -10.5t16.5 -3.5
q12 0 17 3.5t6 10.5zM313 505q0 7 -3 10.5t-16 3.5q-12 0 -16.5 -3.5t-6.5 -10.5l-10 -72q-1 -3 -1 -11q0 -10 3.5 -17t13.5 -8q14 2 19 12.5t7 23.5z" />
    <glyph glyph-name="nine" unicode="9" horiz-adv-x="445" 
d="M278 263q-10 -4 -22.5 -6t-34.5 -2q-24 0 -49 4.5t-45.5 18t-33 37.5t-12.5 62q0 16 3 34l16 113q6 45 26 75t48.5 48t65 25.5t75.5 7.5q37 0 69 -6.5t55.5 -21t36.5 -38.5t13 -60q0 -7 -0.5 -14.5t-1.5 -15.5l-53 -379q-6 -47 -25.5 -78t-48 -49.5t-65.5 -26.5t-77 -8
q-35 0 -65 6.5t-52 21t-34.5 39t-12.5 60.5q0 15 3 35l7 49h163l-5 -35q0 -7 2.5 -10.5t16.5 -3.5q12 0 17 3.5t6 10.5zM313 508q0 6 -3.5 9.5t-15.5 3.5t-17 -3.5t-6 -9.5l-16 -110q0 -7 2.5 -10.5t15.5 -3.5q16 0 23 4z" />
    <glyph glyph-name="colon" unicode=":" horiz-adv-x="329" 
d="M80 0l21 151h168l-21 -151h-168zM127 339l21 150h168l-21 -150h-168z" />
    <glyph glyph-name="semicolon" unicode=";" horiz-adv-x="328" 
d="M127 339l21 150h168l-21 -150h-168zM101 151h169l-13 -91q-6 -45 -23.5 -82.5t-44 -65.5t-60 -44.5t-72.5 -18.5z" />
    <glyph glyph-name="less" unicode="&#x3c;" horiz-adv-x="567" 
d="M82 286l16 115l508 189l-17 -127l-369 -120l335 -120l-18 -127z" />
    <glyph glyph-name="equal" unicode="=" horiz-adv-x="567" 
d="M96 385l16 115h482l-16 -115h-482zM68 186l16 115h482l-16 -115h-482z" />
    <glyph glyph-name="greater" unicode="&#x3e;" horiz-adv-x="567" 
d="M55 96l18 127l369 120l-335 120l17 127l456 -189l-16 -115z" />
    <glyph glyph-name="question" unicode="?" horiz-adv-x="396" 
d="M90 0l20 146h165l-20 -146h-165zM123 209l5 40q5 46 22 79t55 57q15 9 27.5 16t22 14t16 16t8.5 22l10 71q0 11 -4.5 14.5t-14.5 3.5q-8 0 -14.5 -2.5t-7.5 -10.5l-9 -63h-154l10 69q6 43 23 71t42.5 44.5t59 23t72.5 6.5q46 0 76.5 -8t49 -24t26.5 -40t8 -56
q0 -14 -1.5 -28.5t-3.5 -31.5q-6 -44 -13.5 -72.5t-18 -47.5t-23.5 -30.5t-30 -20.5q-36 -20 -58 -37.5t-27 -47.5l-4 -27h-150z" />
    <glyph glyph-name="at" unicode="@" horiz-adv-x="541" 
d="M165 -102q-28 0 -52 5t-42 16.5t-28.5 30.5t-10.5 48q0 6 0.5 12t1.5 13l65 461q5 36 20 60t37 38.5t50 20.5t59 6h181q28 0 52.5 -5t42.5 -17t28.5 -31.5t10.5 -48.5q0 -5 -0.5 -11t-1.5 -12l-53 -374q-23 -8 -59 -15.5t-96 -7.5q-63 0 -97 24t-34 90v8.5t2 9.5l11 76
q6 42 20.5 67.5t33.5 40t41.5 19.5t43.5 5q17 0 27.5 -2t18.5 -5l7 50q0 6 -3 9t-13 3h-181q-16 0 -17 -12l-61 -433q0 -6 2 -8.5t12 -2.5h329l-18 -128h-329zM418 289q-5 3 -17 3q-18 0 -19 -12l-7 -46q0 -7 2.5 -9.5t13.5 -2.5q5 0 9.5 0.5t8.5 2.5z" />
    <glyph glyph-name="A" unicode="A" 
d="M243 0l29 209h-43l-29 -209h-169l59 426q7 55 28.5 95t52.5 69.5t69 50.5t79 39q30 -16 59 -35t51.5 -43.5t36 -57t13.5 -76.5q0 -20 -3 -42l-59 -426h-174zM303 427q1 5 1 8.5v6.5q0 17 -5 24t-10 12q-8 -5 -17 -15t-12 -36l-17 -76h49z" />
    <glyph glyph-name="B" unicode="B" horiz-adv-x="447" 
d="M37 0l93 664h246q31 0 51 -9t32 -25t16.5 -36.5t4.5 -42.5q0 -17 -2.5 -48t-11.5 -63.5t-27 -61t-48 -40.5q17 -7 28 -20t17.5 -29t9 -34.5t2.5 -37.5q0 -33 -7 -71t-25.5 -70.5t-50 -54t-79.5 -21.5h-249zM243 141q7 0 14 5t12 17t8.5 33t3.5 53q0 14 -3.5 24t-14.5 10
h-21l-20 -142h21zM279 397q12 0 19 12t11.5 28.5t6 33.5t1.5 28q0 14 -4.5 19t-15.5 5h-21l-18 -126h21z" />
    <glyph glyph-name="C" unicode="C" horiz-adv-x="426" 
d="M417 145q-6 -47 -23 -78t-42.5 -49.5t-58.5 -26.5t-72 -8q-37 0 -68.5 6.5t-55 21.5t-36.5 39.5t-13 60.5q0 16 3 34l52 373q6 46 25 77.5t48 50t65.5 26.5t77.5 8q34 0 62.5 -6t48.5 -20.5t31 -38t11 -58.5q0 -18 -3 -39l-18 -132h-152l16 119q0 7 -3 10.5t-16 3.5
q-12 0 -16.5 -3.5t-6.5 -10.5l-48 -345q0 -7 2.5 -10.5t16.5 -3.5q12 0 17 3.5t6 10.5l16 114h152z" />
    <glyph glyph-name="D" unicode="D" horiz-adv-x="454" 
d="M37 0l93 664h193q34 0 64.5 -5t53.5 -21t36.5 -45.5t13.5 -77.5q0 -14 -1.5 -29t-3.5 -32l-37 -265q-8 -52 -29 -88t-50.5 -58.5t-65.5 -32.5t-74 -10h-193zM321 503q0 7 -3.5 10.5t-15.5 3.5h-22l-52 -368h22q21 0 24 20z" />
    <glyph glyph-name="E" unicode="E" horiz-adv-x="338" 
d="M37 0l93 664h271l-21 -147h-100l-14 -98h86l-20 -144h-86l-18 -126h106l-20 -149h-277z" />
    <glyph glyph-name="F" unicode="F" horiz-adv-x="348" 
d="M37 0l93 664h289l-21 -147h-118l-15 -106h113l-20 -143h-113l-37 -268h-171z" />
    <glyph glyph-name="G" unicode="G" horiz-adv-x="440" 
d="M293 340h160l-46 -328q-28 -9 -71.5 -19t-117.5 -10q-35 0 -66 6t-54 21t-36.5 39.5t-13.5 61.5q0 15 3 33l52 374q6 46 25 77.5t48 50t65.5 26.5t77.5 8q34 0 62.5 -6t48.5 -20.5t31 -38t11 -58.5q0 -18 -3 -39l-13 -92h-152l12 81q0 7 -3.5 10.5t-15.5 3.5t-17 -3.5
t-6 -10.5l-49 -346q0 -7 2.5 -10.5t16.5 -3.5t23 4z" />
    <glyph glyph-name="H" unicode="H" horiz-adv-x="460" 
d="M251 0l37 265h-43l-37 -265h-171l93 664h171l-36 -257h43l36 257h172l-93 -664h-172z" />
    <glyph glyph-name="I" unicode="I" horiz-adv-x="245" 
d="M37 0l93 664h171l-93 -664h-171z" />
    <glyph glyph-name="J" unicode="J" horiz-adv-x="273" 
d="M44 146q8 -4 21 -4q12 0 17 3.5t6 10.5l72 508h172l-74 -525q-7 -47 -27 -77.5t-49.5 -49.5t-64.5 -26.5t-72 -7.5q-7 0 -12.5 0.5t-11.5 0.5z" />
    <glyph glyph-name="K" unicode="K" horiz-adv-x="463" 
d="M265 0l-15 327l-45 -327h-168l93 664h168l-40 -283l94 283h181l-117 -283l37 -381h-188z" />
    <glyph glyph-name="L" unicode="L" horiz-adv-x="332" 
d="M37 0l93 664h171l-73 -515h104l-20 -149h-275z" />
    <glyph glyph-name="M" unicode="M" horiz-adv-x="661" 
d="M455 0l70 502q0 7 -3.5 10.5t-15.5 3.5q-11 0 -21 -3l-72 -513h-162l70 505q0 5 -4 8t-15 3q-14 0 -23 -4l-71 -512h-171l91 651q29 9 77 19t108 10q39 0 66.5 -9.5t41.5 -22.5q21 12 50 22t71 10q36 0 65.5 -7t50 -23t32 -43t11.5 -67v-10.5t-2 -10.5l-72 -519h-172z
" />
    <glyph glyph-name="N" unicode="N" horiz-adv-x="457" 
d="M251 0l70 502q0 7 -3.5 10.5t-15.5 3.5q-14 0 -23 -4l-71 -512h-171l91 651q29 9 77 19t123 10q39 0 70 -7t53 -23.5t34 -43.5t12 -67v-10t-2 -10l-72 -519h-172z" />
    <glyph glyph-name="O" unicode="O" 
d="M437 145q-7 -47 -27 -78t-49 -49.5t-65 -26.5t-75 -8q-37 0 -68.5 6.5t-55 21.5t-36.5 39.5t-13 60.5q0 16 3 34l52 373q6 46 25 77.5t48 50t65.5 26.5t77.5 8q39 0 70.5 -7t54 -23.5t35 -44t12.5 -68.5v-9.5t-2 -9.5zM315 501q0 7 -3.5 10.5t-15.5 3.5t-17 -3.5
t-6 -10.5l-48 -339q0 -7 2.5 -10.5t16.5 -3.5q12 0 17 3.5t6 10.5z" />
    <glyph glyph-name="P" unicode="P" horiz-adv-x="438" 
d="M37 0l93 664h226q74 0 103 -30t29 -96q0 -18 -2 -39.5t-5 -45.5q-8 -56 -20 -96t-32.5 -65.5t-52.5 -37.5t-79 -12h-55l-34 -242h-171zM281 377q12 0 19.5 14t12 33.5t6.5 40t2 32.5q0 15 -4 20.5t-15 5.5h-21l-21 -146h21z" />
    <glyph glyph-name="Q" unicode="Q" 
d="M211 -102l-11 105q-33 2 -60 9.5t-47 23t-31 39t-11 57.5q0 15 3 33l49 353q6 46 25 77.5t48 50t65.5 26.5t77.5 8q39 0 70.5 -7t54 -23.5t35 -44t12.5 -68.5v-9.5t-2 -9.5l-49 -353q-7 -48 -28 -79.5t-53 -50.5l24 -137h-172zM315 501q0 7 -3.5 10.5t-15.5 3.5t-17 -3.5
t-6 -10.5l-45 -319q0 -7 2.5 -10.5t16.5 -3.5q12 0 17 3.5t6 10.5z" />
    <glyph glyph-name="R" unicode="R" horiz-adv-x="443" 
d="M278 388q11 0 18.5 13t12 30.5t6.5 36t2 30.5q0 14 -4.5 19.5t-15.5 5.5h-21l-19 -135h21zM243 0l34 246q0 8 -3.5 15t-14.5 7h-19l-37 -268h-166l93 664h249q31 0 51.5 -9t32.5 -25t16.5 -36.5t4.5 -42.5q0 -17 -2.5 -48.5t-12.5 -65t-28.5 -62t-51.5 -39.5
q32 -9 43 -33.5t11 -53.5q0 -12 -1 -24t-3 -23l-28 -202h-168z" />
    <glyph glyph-name="S" unicode="S" horiz-adv-x="415" 
d="M252 232q0 17 -5.5 27.5t-14.5 17.5t-21.5 12.5t-26.5 12.5q-48 24 -71 56.5t-23 83.5q0 18 3 41q7 49 21 85.5t39.5 61.5t64 37.5t94.5 12.5q33 0 60.5 -5.5t48 -18.5t31.5 -35t11 -55q0 -7 -0.5 -15t-1.5 -16l-10 -69h-146l9 63q0 13 -18 13q-8 0 -15.5 -3.5
t-9.5 -14.5l-10 -69q0 -11 10.5 -19.5t25.5 -16t31.5 -14t28.5 -12.5q41 -20 55.5 -53.5t14.5 -71.5q0 -14 -1.5 -29t-3.5 -29q-8 -54 -20.5 -96t-37 -71.5t-64 -44.5t-100.5 -15q-75 0 -116 27.5t-41 96.5q0 17 3 38l13 91h152l-12 -84q0 -9 4.5 -11.5t13.5 -2.5t16 4t9 16
z" />
    <glyph glyph-name="T" unicode="T" horiz-adv-x="377" 
d="M102 0l72 517h-90l21 147h353l-21 -147h-92l-72 -517h-171z" />
    <glyph glyph-name="U" unicode="U" horiz-adv-x="457" 
d="M342 664h171l-92 -652q-28 -9 -76.5 -19t-123.5 -10q-35 0 -66 6t-54 21t-36.5 39.5t-13.5 61.5q0 15 3 33l73 520h172l-71 -503q0 -7 2.5 -10.5t16.5 -3.5t23 4z" />
    <glyph glyph-name="V" unicode="V" 
d="M341 664h169l-60 -426q-8 -56 -29.5 -95.5t-52.5 -69t-69 -50.5t-78 -39q-30 16 -59 34.5t-51.5 43.5t-36 57.5t-13.5 76.5q0 19 3 42l60 426h174l-60 -427q-1 -5 -1 -9v-8q0 -16 5 -22.5t10 -11.5q8 5 16.5 15t12.5 36z" />
    <glyph glyph-name="W" unicode="W" horiz-adv-x="653" 
d="M546 664h169l-60 -427q-8 -55 -29 -95t-51 -69t-67.5 -50.5t-77.5 -39.5q-27 14 -52.5 35.5t-42.5 44.5q-24 -23 -55 -44.5t-63 -35.5q-30 16 -58.5 34.5t-50 43t-34.5 56.5t-13 76q0 20 3 44l60 427h174l-60 -428q-1 -5 -1.5 -10t-0.5 -9q0 -15 4.5 -21.5t11.5 -10.5
q8 5 16.5 15t12.5 36l60 428h162l-60 -428q-1 -5 -1.5 -10t-0.5 -9q0 -15 4.5 -21.5t11.5 -10.5q8 5 16.5 15t12.5 36z" />
    <glyph glyph-name="X" unicode="X" horiz-adv-x="458" 
d="M264 0v253l-79 -253h-175l133 351l-33 313h178v-241l69 241h175l-119 -305l35 -359h-184z" />
    <glyph glyph-name="Y" unicode="Y" horiz-adv-x="436" 
d="M134 0l32 231q-36 29 -59.5 67.5t-23.5 98.5q0 18 3 41l32 226h174l-32 -227q-1 -5 -1 -9v-8q0 -16 5 -22.5t10 -11.5q8 5 16.5 15t12.5 36l32 227h169l-32 -226q-12 -76 -49.5 -125t-85.5 -81l-32 -232h-171z" />
    <glyph glyph-name="Z" unicode="Z" horiz-adv-x="403" 
d="M23 0l23 165l216 352h-157l21 147h341l-17 -122l-214 -393h158l-20 -149h-351z" />
    <glyph glyph-name="bracketleft" unicode="[" horiz-adv-x="340" 
d="M64 -130l120 849h246l-16 -108h-105l-89 -634h105l-15 -107h-246z" />
    <glyph glyph-name="backslash" unicode="\" horiz-adv-x="306" 
d="M175 0l-82 664h133l80 -664h-131z" />
    <glyph glyph-name="bracketright" unicode="]" horiz-adv-x="337" 
d="M-7 -130l14 107h107l89 634h-107l16 108h248l-120 -849h-247z" />
    <glyph glyph-name="asciicircum" unicode="^" horiz-adv-x="344" 
d="M269 473l-20 79l-45 -79h-112l133 191h77l81 -191h-114z" />
    <glyph glyph-name="underscore" unicode="_" horiz-adv-x="371" 
d="M-19 -130l10 66h373l-10 -66h-373z" />
    <glyph glyph-name="grave" unicode="`" horiz-adv-x="309" 
d="M130 594l16 116l222 -96l-11 -80z" />
    <glyph glyph-name="a" unicode="a" horiz-adv-x="419" 
d="M386 11q-26 -12 -65 -20t-108 -8q-80 0 -127.5 25.5t-47.5 87.5q0 6 0.5 12.5t1.5 13.5l6 46q6 42 23 67.5t40.5 39t50 18t51.5 4.5q40 0 57 -6l5 36q0 2 0.5 3.5t0.5 3.5q0 17 -26 17q-42 0 -77 -5t-77 -20l22 154q29 11 67 18t95 7q34 0 63 -6t50 -20.5t33 -38.5
t12 -59q0 -8 -0.5 -16t-1.5 -16zM256 200q-7 4 -21 4q-11 0 -15.5 -3.5t-5.5 -10.5l-6 -44q0 -7 2.5 -10.5t14.5 -3.5q15 0 22 4z" />
    <glyph glyph-name="b" unicode="b" horiz-adv-x="411" 
d="M402 139q-6 -45 -24 -75t-44.5 -48t-59.5 -25.5t-70 -7.5q-35 0 -64.5 6t-50.5 20.5t-32.5 37.5t-11.5 58q0 16 3 34l75 533h157l-25 -175q10 4 22.5 6t32.5 2q23 0 45.5 -4.5t40 -17.5t28.5 -36t11 -60q0 -17 -3 -38zM272 332q0 7 -3 10.5t-14 3.5q-14 0 -21 -4
l-27 -187q0 -6 3 -9.5t15 -3.5q21 0 22 13z" />
    <glyph glyph-name="c" unicode="c" horiz-adv-x="404" 
d="M397 139q-6 -45 -23.5 -75t-43 -48t-58 -25.5t-69.5 -7.5q-35 0 -64 6t-50 20.5t-32.5 37.5t-11.5 58q0 16 3 34l30 210q6 45 23 75t43 48t59.5 25.5t72.5 7.5q33 0 61.5 -6t48.5 -20.5t31.5 -38t11.5 -58.5q0 -8 -0.5 -16t-1.5 -17l-9 -63h-152l6 47q0 6 -3.5 9.5
t-14.5 3.5q-21 0 -22 -13l-25 -178q0 -6 3 -9.5t15 -3.5q21 0 22 13l7 51h152z" />
    <glyph glyph-name="d" unicode="d" horiz-adv-x="420" 
d="M78 349q7 49 24 79.5t39.5 47.5t48.5 23t52 6q20 0 32.5 -2t20.5 -6l25 175h157l-93 -661q-28 -9 -71.5 -18.5t-112.5 -9.5q-34 0 -62.5 6t-49 20t-32 37.5t-11.5 58.5q0 16 3 34zM274 342q-7 4 -21 4q-11 0 -15.5 -3.5t-5.5 -10.5l-25 -176q0 -7 2.5 -10.5t14.5 -3.5
q15 0 22 4z" />
    <glyph glyph-name="e" unicode="e" horiz-adv-x="412" 
d="M379 8q-28 -10 -73.5 -17.5t-102.5 -7.5q-34 0 -63 6t-50 20t-33 38t-12 59q0 15 3 33l30 210q6 45 23 75t43 48t59.5 25.5t72.5 7.5q34 0 63 -6.5t50 -21t33 -38.5t12 -59q0 -8 -0.5 -15.5t-1.5 -15.5l-20 -141h-197l-8 -52q0 -7 2.5 -10.5t14.5 -3.5q37 0 62.5 1t45 4
t35.5 8t34 12zM274 343q0 6 -3.5 9.5t-14.5 3.5q-21 0 -22 -13l-9 -59h40z" />
    <glyph glyph-name="f" unicode="f" horiz-adv-x="279" 
d="M57 0l53 380h-39l16 112h39l7 49q6 40 23.5 67t43.5 43t58 22.5t67 6.5q6 0 11.5 -0.5t10.5 -0.5l-20 -144q-9 3 -20 3t-14.5 -3t-5.5 -9l-4 -34h47l-16 -112h-47l-53 -380h-157z" />
    <glyph glyph-name="g" unicode="g" horiz-adv-x="414" 
d="M226 3q-10 -4 -22.5 -6t-32.5 -2q-23 0 -45 4.5t-39.5 17.5t-28.5 35.5t-11 58.5q0 17 3 40l28 198q6 45 23.5 75t43.5 48t59 25.5t71 7.5q35 0 64.5 -6t50.5 -20.5t32.5 -38.5t11.5 -59q0 -8 -0.5 -16t-1.5 -16l-63 -444q-6 -43 -23.5 -72t-43.5 -46.5t-59.5 -25
t-71.5 -7.5q-32 0 -59 6t-46.5 19.5t-30.5 36.5t-11 56q0 15 3 33l6 39h146l-4 -29q0 -1 -0.5 -1.5t-0.5 -1.5q0 -10 18 -10q11 0 15.5 3.5t6.5 9.5zM272 333q0 6 -3.5 9.5t-14.5 3.5q-21 0 -22 -13l-23 -165q0 -7 2.5 -10.5t14.5 -3.5q15 0 22 4z" />
    <glyph glyph-name="h" unicode="h" horiz-adv-x="424" 
d="M234 0l46 332q0 7 -3 10.5t-14 3.5q-14 0 -21 -4l-48 -342h-157l94 672h157l-25 -175q10 4 22.5 6t32.5 2q23 0 45.5 -4.5t40 -17.5t28.5 -36t11 -60q0 -17 -3 -38l-49 -349h-157z" />
    <glyph glyph-name="i" unicode="i" horiz-adv-x="235" 
d="M39 0l69 492h157l-69 -492h-157zM116 551l17 121h157l-17 -121h-157z" />
    <glyph glyph-name="j" unicode="j" horiz-adv-x="235" 
d="M-8 -88q9 -3 19 -3q11 0 14.5 3t4.5 9l81 571h154l-83 -586q-6 -41 -23 -67.5t-42 -42.5t-57 -22.5t-66 -6.5q-6 0 -11.5 0.5t-10.5 0.5zM119 551l17 121h154l-17 -121h-154z" />
    <glyph glyph-name="k" unicode="k" horiz-adv-x="435" 
d="M249 0l-21 247l-34 -247h-157l94 672h157l-53 -380l74 200h169l-97 -202l44 -290h-176z" />
    <glyph glyph-name="l" unicode="l" horiz-adv-x="231" 
d="M37 0l94 672h157l-94 -672h-157z" />
    <glyph glyph-name="m" unicode="m" horiz-adv-x="614" 
d="M424 0l46 332q0 7 -3 10.5t-14 3.5q-14 0 -21 -4l-48 -342h-150l46 332q0 7 -3 10.5t-14 3.5q-14 0 -21 -4l-48 -342h-157l67 477q27 9 68 18.5t101 9.5q32 0 55.5 -6t32.5 -17q41 23 116 23q34 0 62.5 -6t49 -20.5t32 -38t11.5 -58.5q0 -8 -0.5 -16t-1.5 -17l-49 -349
h-157z" />
    <glyph glyph-name="n" unicode="n" horiz-adv-x="424" 
d="M234 0l46 332q0 7 -3 10.5t-14 3.5q-14 0 -21 -4l-48 -342h-157l67 477q27 9 70.5 18.5t112.5 9.5q34 0 62.5 -6t49 -20.5t32 -38t11.5 -58.5q0 -8 -0.5 -16t-1.5 -17l-49 -349h-157z" />
    <glyph glyph-name="o" unicode="o" horiz-adv-x="412" 
d="M402 139q-6 -45 -24 -75t-44.5 -48t-60 -25.5t-70.5 -7.5q-35 0 -64 6t-50 20.5t-32.5 37.5t-11.5 58q0 16 3 34l30 210q6 45 23 75t43 48t59.5 25.5t72.5 7.5q34 0 63 -6.5t50 -21t33 -38.5t12 -59q0 -8 -0.5 -15.5t-1.5 -15.5zM272 333q0 6 -3.5 9.5t-14.5 3.5
q-21 0 -22 -13l-25 -178q0 -6 3 -9.5t15 -3.5q21 0 22 13z" />
    <glyph glyph-name="p" unicode="p" horiz-adv-x="414" 
d="M-3 -233l99 710q27 9 70.5 18.5t112.5 9.5q34 0 62.5 -6t49 -20.5t32 -38t11.5 -58.5q0 -8 -0.5 -16t-1.5 -17l-30 -210q-7 -49 -24 -79.5t-40 -47.5t-49.5 -23t-51.5 -6q-20 0 -32 2t-21 6l-31 -224h-156zM272 332q0 7 -3 10.5t-14 3.5q-14 0 -21 -4l-28 -196
q7 -4 20 -4q11 0 15.5 3.5t5.5 10.5z" />
    <glyph glyph-name="q" unicode="q" horiz-adv-x="428" 
d="M193 -233l31 224q-9 -4 -22 -6t-33 -2q-23 0 -45 4.5t-39.5 17.5t-28.5 36t-11 59q0 18 3 39l30 210q6 45 23.5 75t43.5 48t59 25.5t71 7.5q35 0 64.5 -6t50.5 -20.5t32.5 -38.5t11.5 -59q0 -8 -0.5 -16t-1.5 -16l-82 -582h-157zM272 333q0 6 -3.5 9.5t-14.5 3.5
q-21 0 -22 -13l-25 -177q0 -7 2.5 -10.5t14.5 -3.5q15 0 22 4z" />
    <glyph glyph-name="r" unicode="r" horiz-adv-x="395" 
d="M37 0l67 477q26 9 66.5 18.5t105.5 9.5q33 0 60.5 -5.5t48 -18t32 -34t11.5 -52.5q0 -6 -0.5 -12t-1.5 -13l-9 -63h-140l3 25q0 7 -3 10.5t-14 3.5q-14 0 -21 -4l-48 -342h-157z" />
    <glyph glyph-name="s" unicode="s" horiz-adv-x="412" 
d="M237 158q0 13 -5.5 21t-15 13t-22.5 9.5t-27 9.5q-51 19 -74 48.5t-23 72.5q0 6 0.5 12.5t1.5 13.5q5 36 17.5 63.5t36.5 46t62 28t94 9.5q34 0 62.5 -4t49 -14.5t32 -28t11.5 -43.5v-9.5t-1 -9.5l-7 -49h-146l4 30q0 9 -18 9q-8 0 -15 -2.5t-8 -10.5l-5 -34
q0 -8 10.5 -14.5t26 -12.5t32.5 -11t29 -9q44 -16 58.5 -42.5t14.5 -58.5q0 -19 -3 -38q-6 -41 -17.5 -72.5t-34.5 -53t-61.5 -33t-99.5 -11.5q-78 0 -120 23t-42 77q0 5 0.5 10t1.5 11l8 57h152l-4 -32q0 -11 18 -11q10 0 16 3t7 12z" />
    <glyph glyph-name="t" unicode="t" horiz-adv-x="290" 
d="M65 0l53 380h-47l16 112h47l15 112h157l-15 -112h50l-16 -112h-50l-53 -380h-157z" />
    <glyph glyph-name="u" unicode="u" horiz-adv-x="426" 
d="M299 492h157l-68 -481q-27 -9 -71 -18.5t-113 -9.5q-33 0 -61.5 6t-49.5 20t-32.5 37.5t-11.5 58.5q0 16 3 34l50 353h157l-48 -336q0 -7 2.5 -10.5t14.5 -3.5q15 0 22 4z" />
    <glyph glyph-name="v" unicode="v" horiz-adv-x="413" 
d="M296 492h157l-38 -267q-8 -55 -28 -94.5t-48.5 -69t-63.5 -50.5t-73 -39q-29 16 -55 34.5t-46 42.5t-32 56t-12 75q0 21 3 45l38 267h157l-42 -295q-1 -5 -1 -9.5v-8.5q0 -17 4.5 -23.5t9.5 -11.5q8 5 16 15.5t12 37.5z" />
    <glyph glyph-name="w" unicode="w" horiz-adv-x="609" 
d="M492 492h157l-38 -267q-8 -55 -27 -94.5t-47 -69t-62.5 -50.5t-72.5 -39q-28 14 -50.5 32.5t-41.5 38.5q-25 -20 -53.5 -38.5t-58.5 -32.5q-29 16 -54.5 34t-44.5 42t-30.5 55.5t-11.5 74.5q0 11 0.5 22.5t2.5 24.5l38 267h157l-42 -295q-1 -5 -1 -9.5v-8.5
q0 -17 4.5 -23.5t9.5 -11.5q8 5 16 15.5t12 37.5l42 295h155l-42 -295q-1 -5 -1 -9.5v-8.5q0 -17 4.5 -23.5t9.5 -11.5q8 5 16 15.5t12 37.5z" />
    <glyph glyph-name="x" unicode="x" horiz-adv-x="409" 
d="M238 0l-8 187l-65 -187h-155l111 260l-36 232h157l5 -179l58 179h155l-99 -226l38 -266h-161z" />
    <glyph glyph-name="y" unicode="y" horiz-adv-x="414" 
d="M295 492h157l-83 -587q-6 -43 -23.5 -72t-43.5 -46.5t-59.5 -25t-71.5 -7.5q-32 0 -59 6t-46.5 19.5t-30.5 36.5t-11 56q0 15 3 33l6 39h146l-4 -29q0 -1 -0.5 -1.5t-0.5 -1.5q0 -10 18 -10q11 0 15.5 3.5t6.5 9.5l12 88q-10 -4 -22.5 -6t-32.5 -2q-23 0 -45 4.5
t-39.5 17.5t-28.5 35.5t-11 58.5q0 17 3 40l48 341h157l-46 -324q0 -7 2.5 -10.5t14.5 -3.5q15 0 22 4z" />
    <glyph glyph-name="z" unicode="z" horiz-adv-x="382" 
d="M22 0l18 132l177 234h-128l18 126h315l-16 -111l-174 -251h146l-18 -130h-338z" />
    <glyph glyph-name="braceleft" unicode="{" horiz-adv-x="355" 
d="M273 -131q-46 0 -76.5 6.5t-48.5 19.5t-25.5 33.5t-7.5 47.5q0 23 4.5 54t9.5 60.5t9.5 53.5t4.5 33q0 36 -16.5 51t-55.5 15l14 105q48 0 69.5 23.5t29.5 81.5q1 7 2 21.5t2 31t2.5 32t3.5 24.5q6 40 16.5 70t32 49.5t57.5 29t93 9.5h42l-14 -100h-23q-32 0 -47 -8
t-19 -33t-6.5 -48t-4.5 -45t-4 -44.5t-5 -46.5q-3 -21 -15.5 -38t-31.5 -29.5t-41.5 -21t-45.5 -11.5q48 -5 77 -31.5t29 -68.5q-7 -49 -16 -92t-16 -92q-1 -3 -1 -11q0 -20 13 -25.5t42 -5.5h23l-14 -100h-42z" />
    <glyph glyph-name="bar" unicode="|" horiz-adv-x="273" 
d="M56 -125l121 861h125l-121 -861h-125z" />
    <glyph glyph-name="braceright" unicode="}" horiz-adv-x="357" 
d="M2 -131l14 100h22q32 0 47.5 8t19.5 34q7 49 10 92t10 92q3 20 15.5 37.5t31 30.5t41 21.5t45.5 10.5q-21 3 -40 10t-33.5 18.5t-23.5 26.5t-9 34q0 8 1 11q7 49 15.5 91t16.5 93q0 3 0.5 5.5t0.5 4.5q0 19 -13.5 25t-42.5 6h-22l14 100h41q46 0 76.5 -6.5t48.5 -19.5
t25.5 -33t7.5 -47q0 -16 -4 -43t-9.5 -56.5t-9.5 -57t-4 -43.5q0 -36 16.5 -51t55.5 -15l-14 -105q-48 0 -69.5 -23t-29.5 -81q-1 -7 -2.5 -22t-3 -32t-3 -33t-2.5 -25q-6 -41 -17 -70.5t-32.5 -49t-57.5 -29t-92 -9.5h-41z" />
    <glyph glyph-name="asciitilde" unicode="~" horiz-adv-x="597" 
d="M595 297q-37 -35 -75 -51t-86 -16q-30 0 -57.5 8.5t-53.5 18.5t-51.5 18.5t-50.5 8.5q-42 0 -77 -18.5t-73 -58.5l17 123q26 26 61 46.5t83 20.5q37 0 68 -8.5t58 -18.5t51.5 -18.5t48.5 -8.5q43 0 80.5 17t73.5 59z" />
    <glyph glyph-name="uni00A0" unicode="&#xa0;" horiz-adv-x="200" 
 />
    <glyph glyph-name="exclamdown" unicode="&#xa1;" horiz-adv-x="272" 
d="M312.003 664l-19.998 -145.991h-163.99l19.999 145.991h163.989zM244.008 466.012q5.99902 -99.9932 5.99902 -178.988q0 -59.9971 -4 -115.493q-3.99902 -55.4971 -11.999 -116.493q-4 -34.998 -14.999 -54.9961h-167.989q0 11.999 0.5 24.998t2.49902 29.998
q7 50.9971 16.499 98.9941q9.5 47.9971 22.499 96.9941t29.498 101.493q16.499 52.4971 37.498 113.493h83.9951z" />
    <glyph glyph-name="cent" unicode="&#xa2;" horiz-adv-x="411" 
d="M144 0l11 80q-45 9 -70 35.5t-25 80.5q0 16 3 34l29 210q10 69 45 104t89 46l11 74h125l-11 -74q47 -10 69.5 -40t22.5 -90v-10t-2 -10l-9 -63h-152l7 47q0 6 -3.5 9.5t-14.5 3.5q-21 0 -22 -13l-25 -178q0 -6 3 -9.5t15 -3.5q21 0 22 13l7 51h152l-9 -67
q-5 -35 -17.5 -61t-30 -44t-39 -29t-45.5 -17l-11 -79h-125z" />
    <glyph glyph-name="sterling" unicode="&#xa3;" horiz-adv-x="443" 
d="M423 29q-31 -46 -86 -46q-21 0 -37 6.5t-30.5 15.5t-29.5 17t-34 11q-23 -26 -51.5 -38t-61.5 -12t-62 17l17 126q21 0 41.5 1t37 9.5t26.5 28t10 56.5q0 17 -4 32h-89l14 96h43q-14 20 -19.5 40.5t-5.5 43.5q0 14 2 28.5t4 30.5q6 46 20 81t38 59t60 36t86 12
q33 0 62.5 -5.5t51.5 -18.5t35 -36t13 -57q0 -7 -0.5 -13.5t-1.5 -14.5l-10 -69h-154l9 63q0 8 -5.5 10.5t-12.5 2.5q-22 0 -25 -18l-10 -71q-1 -7 -1.5 -12.5t-0.5 -11.5q0 -23 6.5 -42t18.5 -38h134l-14 -96h-99q0 -5 0.5 -8.5t0.5 -8.5q0 -54 -32 -103q25 -2 49 -10
t49 -8q37 0 64 30z" />
    <glyph glyph-name="currency" unicode="&#xa4;" horiz-adv-x="582" 
d="M422 156q-53 -29 -113 -29q-58 0 -105 29l-72 -69l-72 83l78 63q-16 36 -16 76q0 77 47 142l-59 62l93 82l52 -67q26 14 55 22t60 8q29 0 56 -8t50 -22l70 67l70 -82l-75 -61q17 -40 17 -83q0 -38 -13 -73t-35 -64l58 -62l-92 -83zM483 342q1 5 1 10v10q0 26 -9 48.5
t-25.5 39t-39.5 26t-50 9.5q-32 0 -62 -13t-52.5 -35.5t-36 -52.5t-13.5 -64q0 -26 9 -47.5t25.5 -38t39.5 -25.5t50 -9q30 0 57.5 11t49.5 30.5t36.5 45t19.5 55.5z" />
    <glyph glyph-name="yen" unicode="&#xa5;" 
d="M321 73l-10 -73h-171l10 73h-109l13 93h109l6 43h-109l13 91h109l3 21q-36 28 -59.5 67t-23.5 97q0 20 3 43l19 136h174l-19 -137q-1 -5 -1.5 -9.5t-0.5 -8.5q0 -16 5 -22.5t10 -10.5q8 5 17 15t13 36l19 137h169l-19 -136q-11 -77 -48.5 -125.5t-86.5 -80.5l-3 -22h106
l-13 -91h-106l-6 -43h106l-13 -93h-106z" />
    <glyph glyph-name="brokenbar" unicode="&#xa6;" horiz-adv-x="396" 
d="M117 -125l52 372h125l-52 -372h-125zM190 397l48 339h125l-48 -339h-125z" />
    <glyph glyph-name="section" unicode="&#xa7;" horiz-adv-x="449" 
d="M239 105q0 14 -5.5 23t-14.5 15t-21.5 11l-27.5 11q-51 21 -74 49.5t-23 73.5q0 48 13.5 88t37.5 64q-2 9 -3.5 18t-1.5 20q0 15 3 32q6 42 19.5 74t38 53t63 32t94.5 11q34 0 62 -5t48 -16.5t31.5 -31t11.5 -49.5v-11t-1 -12l-9 -59h-146l8 54q0 11 -19 11
q-9 0 -15.5 -2.5t-8.5 -12.5l-8 -60q0 -9 10.5 -16.5t25.5 -14t31.5 -12t28.5 -10.5q44 -18 58.5 -47.5t14.5 -64.5q0 -54 -13.5 -101t-33.5 -75q0 -60 -9.5 -107t-34.5 -80t-67.5 -50t-109.5 -17q-76 0 -117.5 25.5t-41.5 85.5q0 7 0.5 13.5t1.5 14.5l11 79h152l-10 -73
q0 -8 4 -10t14 -2q11 0 16.5 3.5t7.5 14.5zM286 295q0 19 -9.5 29t-26.5 17l-6 -44q0 -9 10.5 -17t27.5 -15z" />
    <glyph glyph-name="dieresis" unicode="&#xa8;" horiz-adv-x="473" 
d="M139 554l19 133h149l-19 -133h-149zM338 554l19 133h150l-19 -133h-150z" />
    <glyph glyph-name="ordfeminine" unicode="&#xaa;" horiz-adv-x="260" 
d="M270 298q-15 -8 -38 -12.5t-61 -4.5q-48 0 -73.5 14.5t-25.5 50.5q0 12 1 15l3 18q4 24 13.5 39t22.5 23t27.5 10.5t28.5 2.5q15 0 26 -6l3 21q0 5 -1.5 8.5t-8.5 3.5q-23 0 -41 -3.5t-44 -12.5l13 92q18 7 40 11.5t53 4.5q19 0 35 -3.5t28 -11.5t19 -21.5t7 -34.5v-9.5
t-1 -9.5zM189 411q-17 0 -18 -9l-4 -27q0 -10 16 -10z" />
    <glyph glyph-name="guillemotleft" unicode="&#xab;" horiz-adv-x="516" 
d="M64 317l170 174l62 -78l-103 -96l76 -95l-84 -77zM322 317l170 174l62 -78l-103 -96l76 -95l-84 -77z" />
    <glyph glyph-name="logicalnot" unicode="&#xac;" horiz-adv-x="635" 
d="M445 0l48 347h-401l21 145h546l-69 -492h-145z" />
    <glyph glyph-name="macron" unicode="&#xaf;" horiz-adv-x="417" 
d="M124 575l15 105h328l-15 -105h-328z" />
    <glyph glyph-name="degree" unicode="&#xb0;" horiz-adv-x="402" 
d="M249 355q-70 0 -100.5 35.5t-30.5 88.5q0 39 10.5 74.5t32.5 61.5t55 41.5t78 15.5q70 0 101 -35.5t31 -90.5q0 -38 -11 -73t-33 -61t-55 -41.5t-78 -15.5zM260 427q22 0 38.5 9t27 24t15.5 35t5 41q0 29 -14 48t-48 19q-22 0 -38.5 -9t-27 -24.5t-16 -35t-5.5 -40.5
q0 -29 14.5 -48t48.5 -19z" />
    <glyph glyph-name="plusminus" unicode="&#xb1;" horiz-adv-x="567" 
d="M239 101l26 185h-183l16 115h183l26 183h115l-26 -183h184l-16 -115h-184l-26 -185h-115zM36 -53l16 115h482l-16 -115h-482z" />
    <glyph glyph-name="uni00B2" unicode="&#xb2;" horiz-adv-x="244" 
d="M79 343l14 96q4 28 15 53t43 39q21 9 38 16t19 21l5 37q0 9 -10 9t-11 -7l-4 -31h-73l5 34q6 43 32 58t63 15q46 0 63.5 -15t17.5 -48q0 -32 -5 -54t-14 -37.5t-22.5 -25.5t-30.5 -18q-15 -7 -28.5 -12.5t-15.5 -22.5l-5 -33h91l-10 -74h-177z" />
    <glyph glyph-name="uni00B3" unicode="&#xb3;" horiz-adv-x="241" 
d="M268 415q-8 -47 -37 -64t-70 -17q-35 0 -56 13.5t-21 49.5v9t1 9l4 30h76l-3 -24q0 -3 1.5 -5t8.5 -2q6 0 8 2t3 5l6 41v7q0 5 -1.5 10t-7.5 5h-20l8 57h20q8 0 10.5 6.5t4.5 14.5l5 35q0 3 -1.5 5t-7.5 2q-12 0 -12 -7l-4 -24h-76l4 29q7 48 31.5 64.5t67.5 16.5
q37 0 60 -13.5t23 -49.5v-9t-1 -9l-1 -14q-4 -22 -14.5 -44.5t-32.5 -31.5q16 -7 22.5 -23t6.5 -33q0 -13 -1 -16z" />
    <glyph glyph-name="acute" unicode="&#xb4;" horiz-adv-x="309" 
d="M102 534l11 80l248 96l-16 -116z" />
    <glyph glyph-name="mu" unicode="&#xb5;" horiz-adv-x="428" 
d="M4 -233l102 725h157l-48 -336q0 -7 2.5 -10.5t14.5 -3.5q15 0 22 4l49 346h157l-68 -481q-27 -9 -71 -18.5t-113 -9.5q-5 0 -9 0.5t-8 0.5l-30 -217h-157z" />
    <glyph glyph-name="mu" unicode="&#x3bc;" horiz-adv-x="428" 
d="M4 -233l102 725h157l-48 -336q0 -7 2.5 -10.5t14.5 -3.5q15 0 22 4l49 346h157l-68 -481q-27 -9 -71 -18.5t-113 -9.5q-5 0 -9 0.5t-8 0.5l-30 -217h-157z" />
    <glyph glyph-name="paragraph" unicode="&#xb6;" horiz-adv-x="520" 
d="M309 -100l92 652h-69l-92 -652h-119l69 491q-36 5 -54.5 27.5t-18.5 68.5q0 91 36.5 134t102.5 43h323l-16 -112h-45l-92 -652h-117z" />
    <glyph glyph-name="periodcentered" unicode="&#xb7;" horiz-adv-x="287" 
d="M94 250l21 151h169l-21 -151h-169z" />
    <glyph glyph-name="cedilla" unicode="&#xb8;" horiz-adv-x="256" 
d="M49 -34h149l-4 -28q-5 -38 -20.5 -70.5t-38.5 -56.5t-53 -38.5t-64 -15.5z" />
    <glyph glyph-name="uni00B9" unicode="&#xb9;" horiz-adv-x="166" 
d="M95 343l35 247q0 3 -1.5 5t-7.5 2q-3 0 -11 -2l11 83q3 0 6 0.5t6 0.5q35 0 60 -14t25 -51v-7.5t-1 -8.5l-36 -255h-86z" />
    <glyph glyph-name="ordmasculine" unicode="&#xba;" horiz-adv-x="257" 
d="M280 370q-8 -51 -40 -70t-74 -19t-66 15t-24 54q0 5 0.5 10t1.5 10l15 113q7 52 38 71t76 19q38 0 63.5 -15.5t25.5 -55.5v-9.5t-1 -9.5zM200 479q0 6 -5 6q-7 0 -7 -6l-15 -104q0 -7 5 -7q7 0 7 7z" />
    <glyph glyph-name="guillemotright" unicode="&#xbb;" horiz-adv-x="516" 
d="M51 222l102 95l-75 96l83 78l121 -174l-170 -172zM309 222l102 95l-75 96l83 78l121 -174l-170 -172z" />
    <glyph glyph-name="onequarter" unicode="&#xbc;" horiz-adv-x="540" 
d="M142 343l35 247q0 3 -1.5 5t-7.5 2q-3 0 -11 -2l11 83q3 0 6 0.5t6 0.5q35 0 60 -14t25 -51v-7.5t-1 -8.5l-36 -255h-86zM29 -20l488 704h88l-490 -704h-86zM417 -10l8 56h-116l11 80l110 196h82l-107 -202h32l8 53h78l-26 -183h-80z" />
    <glyph glyph-name="onehalf" unicode="&#xbd;" horiz-adv-x="540" 
d="M142 343l35 247q0 3 -1.5 5t-7.5 2q-3 0 -11 -2l11 83q3 0 6 0.5t6 0.5q35 0 60 -14t25 -51v-7.5t-1 -8.5l-36 -255h-86zM29 -20l488 704h88l-490 -704h-86zM327 -10l14 96q4 28 15 53t43 39q21 9 38 16t19 21l5 37q0 9 -10 9t-11 -7l-4 -31h-73l5 34q6 43 32 58t63 15
q46 0 63.5 -15t17.5 -48q0 -32 -5 -54t-14 -37.5t-22.5 -25.5t-30.5 -18q-15 -7 -28.5 -12.5t-15.5 -22.5l-5 -33h91l-10 -74h-177z" />
    <glyph glyph-name="threequarters" unicode="&#xbe;" horiz-adv-x="541" 
d="M271 415q-8 -47 -37 -64t-70 -17q-35 0 -56 13.5t-21 49.5v9t1 9l4 30h76l-3 -24q0 -3 1.5 -5t8.5 -2q6 0 8 2t3 5l6 41v7q0 5 -1.5 10t-7.5 5h-20l8 57h20q8 0 10.5 6.5t4.5 14.5l5 35q0 3 -1.5 5t-7.5 2q-12 0 -12 -7l-4 -24h-76l4 29q7 48 31.5 64.5t67.5 16.5
q37 0 60 -13.5t23 -49.5v-9t-1 -9l-1 -14q-4 -22 -14.5 -44.5t-32.5 -31.5q16 -7 22.5 -23t6.5 -33q0 -13 -1 -16zM30 -20l488 704h88l-490 -704h-86zM408 -10l8 56h-116l11 80l110 196h82l-107 -202h32l8 53h78l-26 -183h-80z" />
    <glyph glyph-name="questiondown" unicode="&#xbf;" horiz-adv-x="396" 
d="M398.006 664l-19.999 -145.991h-164.99l19.999 145.991h164.99zM365.008 455.013l-5 -39.9971q-5 -45.998 -21.999 -78.9961q-16.999 -32.9971 -54.9961 -56.9961q-14.999 -8.99902 -27.498 -15.999q-12.5 -6.99902 -21.999 -13.999q-9.5 -7 -15.999 -15.999
q-6.5 -8.99902 -8.5 -21.999l-9.99902 -70.9951q0 -11 4.5 -14.499q4.5 -3.5 14.499 -3.5q7.99902 0 14.499 2.5t7.5 10.499l8.99902 62.9961h153.99l-9.99902 -68.9961q-6 -42.9971 -22.999 -70.9951t-42.4971 -44.4971t-58.9961 -22.999t-72.4961 -6.5
q-45.9971 0 -76.4951 8t-48.9971 23.998q-18.499 16 -26.498 39.998q-8 23.998 -8 55.9961q0 14 1.5 28.499t3.5 31.498q6 43.9971 13.499 72.4951q7.5 28.498 17.999 47.4971t23.498 30.498q13 11.5 29.999 20.499q35.9971 19.999 57.9961 37.498t26.998 47.4971l4 26.998
h149.991z" />
    <glyph glyph-name="Agrave" unicode="&#xc0;" 
d="M243 0l29 209h-43l-29 -209h-169l59 426q7 55 28.5 95t52.5 69.5t69 50.5t79 39q30 -16 59 -35t51.5 -43.5t36 -57t13.5 -76.5q0 -20 -3 -42l-59 -426h-174zM303 427q1 5 1 8.5v6.5q0 17 -5 24t-10 12q-8 -5 -17 -15t-12 -36l-17 -76h49zM193 766l16 116l222 -96l-11 -80
z" />
    <glyph glyph-name="Aacute" unicode="&#xc1;" 
d="M243 0l29 209h-43l-29 -209h-169l59 426q7 55 28.5 95t52.5 69.5t69 50.5t79 39q30 -16 59 -35t51.5 -43.5t36 -57t13.5 -76.5q0 -20 -3 -42l-59 -426h-174zM303 427q1 5 1 8.5v6.5q0 17 -5 24t-10 12q-8 -5 -17 -15t-12 -36l-17 -76h49zM225 706l11 80l248 96l-16 -116z
" />
    <glyph glyph-name="Acircumflex" unicode="&#xc2;" 
d="M243 0l29 209h-43l-29 -209h-169l59 426q7 55 28.5 95t52.5 69.5t69 50.5t79 39q30 -16 59 -35t51.5 -43.5t36 -57t13.5 -76.5q0 -20 -3 -42l-59 -426h-174zM303 427q1 5 1 8.5v6.5q0 17 -5 24t-10 12q-8 -5 -17 -15t-12 -36l-17 -76h49zM341 832l-147 -109l-45 59
l142 126h121l106 -126l-61 -59z" />
    <glyph glyph-name="Atilde" unicode="&#xc3;" 
d="M243 0l29 209h-43l-29 -209h-169l59 426q7 55 28.5 95t52.5 69.5t69 50.5t79 39q30 -16 59 -35t51.5 -43.5t36 -57t13.5 -76.5q0 -20 -3 -42l-59 -426h-174zM303 427q1 5 1 8.5v6.5q0 17 -5 24t-10 12q-8 -5 -17 -15t-12 -36l-17 -76h49zM164 747l15 105h328l-15 -105
h-328z" />
    <glyph glyph-name="Adieresis" unicode="&#xc4;" 
d="M243 0l29 209h-43l-29 -209h-169l59 426q7 55 28.5 95t52.5 69.5t69 50.5t79 39q30 -16 59 -35t51.5 -43.5t36 -57t13.5 -76.5q0 -20 -3 -42l-59 -426h-174zM303 427q1 5 1 8.5v6.5q0 17 -5 24t-10 12q-8 -5 -17 -15t-12 -36l-17 -76h49zM151 726l19 133h149l-19 -133
h-149zM350 726l19 133h150l-19 -133h-150z" />
    <glyph glyph-name="Aring" unicode="&#xc5;" 
d="M243 0l29 209h-43l-29 -209h-169l59 426q7 55 28.5 95t52.5 69.5t69 50.5t79 39q30 -16 59 -35t51.5 -43.5t36 -57t13.5 -76.5q0 -20 -3 -42l-59 -426h-174zM303 427q1 5 1 8.5v6.5q0 17 -5 24t-10 12q-8 -5 -17 -15t-12 -36l-17 -76h49zM441 792q-7 -48 -35 -72t-85 -24
q-94 0 -94 75q0 57 30.5 87t90.5 30q51 0 72.5 -19.5t21.5 -56.5v-10t-1 -10zM382 792q0 2 0.5 4.5t0.5 4.5q0 36 -42 36q-23 0 -37 -13.5t-14 -40.5q0 -33 39 -33q47 0 53 42z" />
    <glyph glyph-name="AE" unicode="&#xc6;" horiz-adv-x="546" 
d="M245 0l29 209h-43l-29 -209h-171l59 426q8 58 30 102.5t54.5 74.5t74 45.5t89.5 15.5h271l-21 -147h-105l-14 -98h91l-20 -144h-91l-18 -126h111l-20 -149h-277zM317 515q-25 -5 -38 -30.5t-17 -57.5l-17 -76h49z" />
    <glyph glyph-name="Ccedilla" unicode="&#xc7;" horiz-adv-x="426" 
d="M417 145q-6 -47 -23 -78t-42.5 -49.5t-58.5 -26.5t-72 -8q-37 0 -68.5 6.5t-55 21.5t-36.5 39.5t-13 60.5q0 16 3 34l52 373q6 46 25 77.5t48 50t65.5 26.5t77.5 8q34 0 62.5 -6t48.5 -20.5t31 -38t11 -58.5q0 -18 -3 -39l-18 -132h-152l16 119q0 7 -3 10.5t-16 3.5
q-12 0 -16.5 -3.5t-6.5 -10.5l-48 -345q0 -7 2.5 -10.5t16.5 -3.5q12 0 17 3.5t6 10.5l16 114h152zM144 -34h149l-4 -28q-5 -38 -20.5 -70.5t-38.5 -56.5t-53 -38.5t-64 -15.5z" />
    <glyph glyph-name="Egrave" unicode="&#xc8;" horiz-adv-x="338" 
d="M37 0l93 664h271l-21 -147h-100l-14 -98h86l-20 -144h-86l-18 -126h106l-20 -149h-277zM139 766l16 116l222 -96l-11 -80z" />
    <glyph glyph-name="Eacute" unicode="&#xc9;" horiz-adv-x="338" 
d="M37 0l93 664h271l-21 -147h-100l-14 -98h86l-20 -144h-86l-18 -126h106l-20 -149h-277zM175 706l11 80l248 96l-16 -116z" />
    <glyph glyph-name="Ecircumflex" unicode="&#xca;" horiz-adv-x="338" 
d="M37 0l93 664h271l-21 -147h-100l-14 -98h86l-20 -144h-86l-18 -126h106l-20 -149h-277zM293 832l-147 -109l-45 59l142 126h121l106 -126l-61 -59z" />
    <glyph glyph-name="Edieresis" unicode="&#xcb;" horiz-adv-x="338" 
d="M37 0l93 664h271l-21 -147h-100l-14 -98h86l-20 -144h-86l-18 -126h106l-20 -149h-277zM98 726l19 133h149l-19 -133h-149zM297 726l19 133h150l-19 -133h-150z" />
    <glyph glyph-name="Igrave" unicode="&#xcc;" horiz-adv-x="245" 
d="M37 0l93 664h171l-93 -664h-171zM94 766l16 116l222 -96l-11 -80z" />
    <glyph glyph-name="Iacute" unicode="&#xcd;" horiz-adv-x="245" 
d="M37 0l93 664h171l-93 -664h-171zM124 706l11 80l248 96l-16 -116z" />
    <glyph glyph-name="Icircumflex" unicode="&#xce;" horiz-adv-x="245" 
d="M37 0l93 664h171l-93 -664h-171zM241 832l-147 -109l-45 59l142 126h121l106 -126l-61 -59z" />
    <glyph glyph-name="Idieresis" unicode="&#xcf;" horiz-adv-x="245" 
d="M37 0l93 664h171l-93 -664h-171zM51 726l19 133h149l-19 -133h-149zM250 726l19 133h150l-19 -133h-150z" />
    <glyph glyph-name="Eth" unicode="&#xd0;" horiz-adv-x="456" 
d="M39 0l38 275h-27l20 144h27l35 245h193q34 0 64.5 -5t53.5 -21t36.5 -45.5t13.5 -77.5q0 -14 -1.5 -29t-3.5 -32l-37 -265q-8 -52 -29 -88t-50.5 -58.5t-65.5 -32.5t-74 -10h-193zM323 505q0 12 -19 12h-22l-14 -98h17l-20 -144h-17l-18 -126h22q12 0 17 4.5t7 15.5z" />
    <glyph glyph-name="Ntilde" unicode="&#xd1;" horiz-adv-x="457" 
d="M251 0l70 502q0 7 -3.5 10.5t-15.5 3.5q-14 0 -23 -4l-71 -512h-171l91 651q29 9 77 19t123 10q39 0 70 -7t53 -23.5t34 -43.5t12 -67v-10t-2 -10l-72 -519h-172zM168 747l15 105h328l-15 -105h-328z" />
    <glyph glyph-name="Ograve" unicode="&#xd2;" 
d="M437 145q-7 -47 -27 -78t-49 -49.5t-65 -26.5t-75 -8q-37 0 -68.5 6.5t-55 21.5t-36.5 39.5t-13 60.5q0 16 3 34l52 373q6 46 25 77.5t48 50t65.5 26.5t77.5 8q39 0 70.5 -7t54 -23.5t35 -44t12.5 -68.5v-9.5t-2 -9.5zM315 501q0 7 -3.5 10.5t-15.5 3.5t-17 -3.5
t-6 -10.5l-48 -339q0 -7 2.5 -10.5t16.5 -3.5q12 0 17 3.5t6 10.5zM193 766l16 116l222 -96l-11 -80z" />
    <glyph glyph-name="Oacute" unicode="&#xd3;" 
d="M437 145q-7 -47 -27 -78t-49 -49.5t-65 -26.5t-75 -8q-37 0 -68.5 6.5t-55 21.5t-36.5 39.5t-13 60.5q0 16 3 34l52 373q6 46 25 77.5t48 50t65.5 26.5t77.5 8q39 0 70.5 -7t54 -23.5t35 -44t12.5 -68.5v-9.5t-2 -9.5zM315 501q0 7 -3.5 10.5t-15.5 3.5t-17 -3.5
t-6 -10.5l-48 -339q0 -7 2.5 -10.5t16.5 -3.5q12 0 17 3.5t6 10.5zM225 706l11 80l248 96l-16 -116z" />
    <glyph glyph-name="Ocircumflex" unicode="&#xd4;" 
d="M437 145q-7 -47 -27 -78t-49 -49.5t-65 -26.5t-75 -8q-37 0 -68.5 6.5t-55 21.5t-36.5 39.5t-13 60.5q0 16 3 34l52 373q6 46 25 77.5t48 50t65.5 26.5t77.5 8q39 0 70.5 -7t54 -23.5t35 -44t12.5 -68.5v-9.5t-2 -9.5zM315 501q0 7 -3.5 10.5t-15.5 3.5t-17 -3.5
t-6 -10.5l-48 -339q0 -7 2.5 -10.5t16.5 -3.5q12 0 17 3.5t6 10.5zM341 832l-147 -109l-45 59l142 126h121l106 -126l-61 -59z" />
    <glyph glyph-name="Otilde" unicode="&#xd5;" 
d="M437 145q-7 -47 -27 -78t-49 -49.5t-65 -26.5t-75 -8q-37 0 -68.5 6.5t-55 21.5t-36.5 39.5t-13 60.5q0 16 3 34l52 373q6 46 25 77.5t48 50t65.5 26.5t77.5 8q39 0 70.5 -7t54 -23.5t35 -44t12.5 -68.5v-9.5t-2 -9.5zM315 501q0 7 -3.5 10.5t-15.5 3.5t-17 -3.5
t-6 -10.5l-48 -339q0 -7 2.5 -10.5t16.5 -3.5q12 0 17 3.5t6 10.5zM164 747l15 105h328l-15 -105h-328z" />
    <glyph glyph-name="Odieresis" unicode="&#xd6;" 
d="M437 145q-7 -47 -27 -78t-49 -49.5t-65 -26.5t-75 -8q-37 0 -68.5 6.5t-55 21.5t-36.5 39.5t-13 60.5q0 16 3 34l52 373q6 46 25 77.5t48 50t65.5 26.5t77.5 8q39 0 70.5 -7t54 -23.5t35 -44t12.5 -68.5v-9.5t-2 -9.5zM315 501q0 7 -3.5 10.5t-15.5 3.5t-17 -3.5
t-6 -10.5l-48 -339q0 -7 2.5 -10.5t16.5 -3.5q12 0 17 3.5t6 10.5zM151 726l19 133h149l-19 -133h-149zM350 726l19 133h150l-19 -133h-150z" />
    <glyph glyph-name="multiply" unicode="&#xd7;" horiz-adv-x="602" 
d="M448 131l-112 130l-148 -129l-70 81l148 130l-111 129l92 81l112 -129l148 130l70 -81l-148 -130l112 -131z" />
    <glyph glyph-name="Oslash" unicode="&#xd8;" 
d="M28 -18l36 63q-16 28 -16 66q0 16 3 34l52 373q6 46 25 77.5t48 50t65.5 26.5t77.5 8q57 0 99 -17l34 59l62 -29l-42 -72q11 -17 15 -37.5t4 -46.5v-9.5t-2 -9.5l-52 -373q-6 -47 -26 -78t-49.5 -50t-66 -26.5t-74.5 -7.5q-32 0 -58.5 4t-48.5 14l-29 -50zM287 300
l-56 -96l-6 -42q0 -7 2.5 -10.5t16.5 -3.5q12 0 17 3.5t6 10.5zM311 476l4 25q0 7 -3.5 10.5t-15.5 3.5t-17 -3.5t-6 -10.5l-17 -122z" />
    <glyph glyph-name="Ugrave" unicode="&#xd9;" horiz-adv-x="457" 
d="M342 664h171l-92 -652q-28 -9 -76.5 -19t-123.5 -10q-35 0 -66 6t-54 21t-36.5 39.5t-13.5 61.5q0 15 3 33l73 520h172l-71 -503q0 -7 2.5 -10.5t16.5 -3.5t23 4zM198 766l16 116l222 -96l-11 -80z" />
    <glyph glyph-name="Uacute" unicode="&#xda;" horiz-adv-x="457" 
d="M342 664h171l-92 -652q-28 -9 -76.5 -19t-123.5 -10q-35 0 -66 6t-54 21t-36.5 39.5t-13.5 61.5q0 15 3 33l73 520h172l-71 -503q0 -7 2.5 -10.5t16.5 -3.5t23 4zM230 706l11 80l248 96l-16 -116z" />
    <glyph glyph-name="Ucircumflex" unicode="&#xdb;" horiz-adv-x="457" 
d="M342 664h171l-92 -652q-28 -9 -76.5 -19t-123.5 -10q-35 0 -66 6t-54 21t-36.5 39.5t-13.5 61.5q0 15 3 33l73 520h172l-71 -503q0 -7 2.5 -10.5t16.5 -3.5t23 4zM345 832l-147 -109l-45 59l142 126h121l106 -126l-61 -59z" />
    <glyph glyph-name="Udieresis" unicode="&#xdc;" horiz-adv-x="457" 
d="M342 664h171l-92 -652q-28 -9 -76.5 -19t-123.5 -10q-35 0 -66 6t-54 21t-36.5 39.5t-13.5 61.5q0 15 3 33l73 520h172l-71 -503q0 -7 2.5 -10.5t16.5 -3.5t23 4zM155 726l19 133h149l-19 -133h-149zM354 726l19 133h150l-19 -133h-150z" />
    <glyph glyph-name="Yacute" unicode="&#xdd;" horiz-adv-x="436" 
d="M134 0l32 231q-36 29 -59.5 67.5t-23.5 98.5q0 18 3 41l32 226h174l-32 -227q-1 -5 -1 -9v-8q0 -16 5 -22.5t10 -11.5q8 5 16.5 15t12.5 36l32 227h169l-32 -226q-12 -76 -49.5 -125t-85.5 -81l-32 -232h-171zM219 706l11 80l248 96l-16 -116z" />
    <glyph glyph-name="Thorn" unicode="&#xde;" horiz-adv-x="436" 
d="M37 0l93 664h171l-16 -113h55q74 0 103 -30t29 -96q0 -18 -2 -39.5t-5 -45.5q-8 -56 -20 -96t-32.5 -65.5t-52.5 -37.5t-79 -12h-55l-18 -129h-171zM266 264q10 0 17.5 12t12 30t7 38.5t2.5 37.5q0 15 -4 24.5t-14 9.5h-21l-21 -152h21z" />
    <glyph glyph-name="germandbls" unicode="&#xdf;" horiz-adv-x="567" 
d="M564 136q-10 -79 -51 -116t-125 -37q-76 0 -110.5 21.5t-34.5 72.5q0 6 0.5 12.5t1.5 14.5l8 57h132l-4 -32q0 -11 18 -11q10 0 16 3t7 12l7 47q0 13 -5.5 21t-15.5 13.5t-22.5 9.5t-26.5 9q-46 17 -62.5 42.5t-16.5 62.5q0 10 1 20.5t3 21.5l18 128q0 6 -3.5 9.5
t-14.5 3.5q-21 0 -22 -13l-71 -508h-157l73 524q6 45 22.5 75t42 48t59.5 25.5t75 7.5q36 0 65.5 -7t49.5 -22.5t31 -42t11 -65.5v-9.5t-2 -9.5l-21 -150q0 -2 -0.5 -3t-0.5 -2q0 -11 6.5 -19.5t17 -15.5t22 -11.5t22.5 -8.5q39 -14 52 -40t13 -57q0 -10 -1 -20l-2 -20z" />
    <glyph glyph-name="agrave" unicode="&#xe0;" horiz-adv-x="419" 
d="M386 11q-26 -12 -65 -20t-108 -8q-80 0 -127.5 25.5t-47.5 87.5q0 6 0.5 12.5t1.5 13.5l6 46q6 42 23 67.5t40.5 39t50 18t51.5 4.5q40 0 57 -6l5 36q0 2 0.5 3.5t0.5 3.5q0 17 -26 17q-42 0 -77 -5t-77 -20l22 154q29 11 67 18t95 7q34 0 63 -6t50 -20.5t33 -38.5
t12 -59q0 -8 -0.5 -16t-1.5 -16zM256 200q-7 4 -21 4q-11 0 -15.5 -3.5t-5.5 -10.5l-6 -44q0 -7 2.5 -10.5t14.5 -3.5q15 0 22 4zM155 594l16 116l222 -96l-11 -80z" />
    <glyph glyph-name="aacute" unicode="&#xe1;" horiz-adv-x="419" 
d="M386 11q-26 -12 -65 -20t-108 -8q-80 0 -127.5 25.5t-47.5 87.5q0 6 0.5 12.5t1.5 13.5l6 46q6 42 23 67.5t40.5 39t50 18t51.5 4.5q40 0 57 -6l5 36q0 2 0.5 3.5t0.5 3.5q0 17 -26 17q-42 0 -77 -5t-77 -20l22 154q29 11 67 18t95 7q34 0 63 -6t50 -20.5t33 -38.5
t12 -59q0 -8 -0.5 -16t-1.5 -16zM256 200q-7 4 -21 4q-11 0 -15.5 -3.5t-5.5 -10.5l-6 -44q0 -7 2.5 -10.5t14.5 -3.5q15 0 22 4zM187 534l11 80l248 96l-16 -116z" />
    <glyph glyph-name="acircumflex" unicode="&#xe2;" horiz-adv-x="419" 
d="M386 11q-26 -12 -65 -20t-108 -8q-80 0 -127.5 25.5t-47.5 87.5q0 6 0.5 12.5t1.5 13.5l6 46q6 42 23 67.5t40.5 39t50 18t51.5 4.5q40 0 57 -6l5 36q0 2 0.5 3.5t0.5 3.5q0 17 -26 17q-42 0 -77 -5t-77 -20l22 154q29 11 67 18t95 7q34 0 63 -6t50 -20.5t33 -38.5
t12 -59q0 -8 -0.5 -16t-1.5 -16zM256 200q-7 4 -21 4q-11 0 -15.5 -3.5t-5.5 -10.5l-6 -44q0 -7 2.5 -10.5t14.5 -3.5q15 0 22 4zM303 660l-147 -109l-45 59l142 126h121l106 -126l-61 -59z" />
    <glyph glyph-name="atilde" unicode="&#xe3;" horiz-adv-x="419" 
d="M386 11q-26 -12 -65 -20t-108 -8q-80 0 -127.5 25.5t-47.5 87.5q0 6 0.5 12.5t1.5 13.5l6 46q6 42 23 67.5t40.5 39t50 18t51.5 4.5q40 0 57 -6l5 36q0 2 0.5 3.5t0.5 3.5q0 17 -26 17q-42 0 -77 -5t-77 -20l22 154q29 11 67 18t95 7q34 0 63 -6t50 -20.5t33 -38.5
t12 -59q0 -8 -0.5 -16t-1.5 -16zM256 200q-7 4 -21 4q-11 0 -15.5 -3.5t-5.5 -10.5l-6 -44q0 -7 2.5 -10.5t14.5 -3.5q15 0 22 4zM125 575l15 105h328l-15 -105h-328z" />
    <glyph glyph-name="adieresis" unicode="&#xe4;" horiz-adv-x="419" 
d="M386 11q-26 -12 -65 -20t-108 -8q-80 0 -127.5 25.5t-47.5 87.5q0 6 0.5 12.5t1.5 13.5l6 46q6 42 23 67.5t40.5 39t50 18t51.5 4.5q40 0 57 -6l5 36q0 2 0.5 3.5t0.5 3.5q0 17 -26 17q-42 0 -77 -5t-77 -20l22 154q29 11 67 18t95 7q34 0 63 -6t50 -20.5t33 -38.5
t12 -59q0 -8 -0.5 -16t-1.5 -16zM256 200q-7 4 -21 4q-11 0 -15.5 -3.5t-5.5 -10.5l-6 -44q0 -7 2.5 -10.5t14.5 -3.5q15 0 22 4zM113 554l19 133h149l-19 -133h-149zM312 554l19 133h150l-19 -133h-150z" />
    <glyph glyph-name="aring" unicode="&#xe5;" horiz-adv-x="419" 
d="M386 11q-26 -12 -65 -20t-108 -8q-80 0 -127.5 25.5t-47.5 87.5q0 6 0.5 12.5t1.5 13.5l6 46q6 42 23 67.5t40.5 39t50 18t51.5 4.5q40 0 57 -6l5 36q0 2 0.5 3.5t0.5 3.5q0 17 -26 17q-42 0 -77 -5t-77 -20l22 154q29 11 67 18t95 7q34 0 63 -6t50 -20.5t33 -38.5
t12 -59q0 -8 -0.5 -16t-1.5 -16zM256 200q-7 4 -21 4q-11 0 -15.5 -3.5t-5.5 -10.5l-6 -44q0 -7 2.5 -10.5t14.5 -3.5q15 0 22 4zM402 620q-7 -48 -35 -72t-85 -24q-94 0 -94 75q0 57 30.5 87t90.5 30q51 0 72.5 -19.5t21.5 -56.5v-10t-1 -10zM343 620q0 2 0.5 4.5t0.5 4.5
q0 36 -42 36q-23 0 -37 -13.5t-14 -40.5q0 -33 39 -33q47 0 53 42z" />
    <glyph glyph-name="ae" unicode="&#xe6;" horiz-adv-x="611" 
d="M578 8q-28 -10 -73.5 -17.5t-102.5 -7.5q-42 0 -76 9q-20 -4 -48 -6.5t-65 -2.5q-35 0 -66.5 6t-55.5 20.5t-38 37.5t-14 57q0 6 0.5 12t1.5 13l5 39q5 42 22 67.5t40.5 39t50.5 18t52 4.5q40 0 57 -6l5 36q0 2 0.5 3.5t0.5 3.5q0 17 -26 17q-42 0 -77 -5t-77 -20l22 154
q29 11 67 18t95 7q58 0 96 -17q41 17 101 17q34 0 63 -6.5t50 -21t33 -38.5t12 -59q0 -8 -0.5 -15.5t-1.5 -15.5l-20 -141h-197l-8 -52q0 -7 2.5 -10.5t14.5 -3.5q37 0 62.5 1t45 4t35.5 8t34 12zM473 343q0 6 -3.5 9.5t-14.5 3.5q-21 0 -22 -13l-9 -59h40zM256 200
q-7 4 -21 4q-11 0 -15.5 -3.5t-5.5 -10.5l-6 -44q0 -7 2.5 -10.5t14.5 -3.5q15 0 22 4z" />
    <glyph glyph-name="ccedilla" unicode="&#xe7;" horiz-adv-x="404" 
d="M397 139q-6 -45 -23.5 -75t-43 -48t-58 -25.5t-69.5 -7.5q-35 0 -64 6t-50 20.5t-32.5 37.5t-11.5 58q0 16 3 34l30 210q6 45 23 75t43 48t59.5 25.5t72.5 7.5q33 0 61.5 -6t48.5 -20.5t31.5 -38t11.5 -58.5q0 -8 -0.5 -16t-1.5 -17l-9 -63h-152l6 47q0 6 -3.5 9.5
t-14.5 3.5q-21 0 -22 -13l-25 -178q0 -6 3 -9.5t15 -3.5q21 0 22 13l7 51h152zM126 -34h149l-4 -28q-5 -38 -20.5 -70.5t-38.5 -56.5t-53 -38.5t-64 -15.5z" />
    <glyph glyph-name="egrave" unicode="&#xe8;" horiz-adv-x="412" 
d="M379 8q-28 -10 -73.5 -17.5t-102.5 -7.5q-34 0 -63 6t-50 20t-33 38t-12 59q0 15 3 33l30 210q6 45 23 75t43 48t59.5 25.5t72.5 7.5q34 0 63 -6.5t50 -21t33 -38.5t12 -59q0 -8 -0.5 -15.5t-1.5 -15.5l-20 -141h-197l-8 -52q0 -7 2.5 -10.5t14.5 -3.5q37 0 62.5 1t45 4
t35.5 8t34 12zM274 343q0 6 -3.5 9.5t-14.5 3.5q-21 0 -22 -13l-9 -59h40zM151 594l16 116l222 -96l-11 -80z" />
    <glyph glyph-name="eacute" unicode="&#xe9;" horiz-adv-x="412" 
d="M379 8q-28 -10 -73.5 -17.5t-102.5 -7.5q-34 0 -63 6t-50 20t-33 38t-12 59q0 15 3 33l30 210q6 45 23 75t43 48t59.5 25.5t72.5 7.5q34 0 63 -6.5t50 -21t33 -38.5t12 -59q0 -8 -0.5 -15.5t-1.5 -15.5l-20 -141h-197l-8 -52q0 -7 2.5 -10.5t14.5 -3.5q37 0 62.5 1t45 4
t35.5 8t34 12zM274 343q0 6 -3.5 9.5t-14.5 3.5q-21 0 -22 -13l-9 -59h40zM183 534l11 80l248 96l-16 -116z" />
    <glyph glyph-name="ecircumflex" unicode="&#xea;" horiz-adv-x="412" 
d="M379 8q-28 -10 -73.5 -17.5t-102.5 -7.5q-34 0 -63 6t-50 20t-33 38t-12 59q0 15 3 33l30 210q6 45 23 75t43 48t59.5 25.5t72.5 7.5q34 0 63 -6.5t50 -21t33 -38.5t12 -59q0 -8 -0.5 -15.5t-1.5 -15.5l-20 -141h-197l-8 -52q0 -7 2.5 -10.5t14.5 -3.5q37 0 62.5 1t45 4
t35.5 8t34 12zM274 343q0 6 -3.5 9.5t-14.5 3.5q-21 0 -22 -13l-9 -59h40zM300 660l-147 -109l-45 59l142 126h121l106 -126l-61 -59z" />
    <glyph glyph-name="edieresis" unicode="&#xeb;" horiz-adv-x="412" 
d="M379 8q-28 -10 -73.5 -17.5t-102.5 -7.5q-34 0 -63 6t-50 20t-33 38t-12 59q0 15 3 33l30 210q6 45 23 75t43 48t59.5 25.5t72.5 7.5q34 0 63 -6.5t50 -21t33 -38.5t12 -59q0 -8 -0.5 -15.5t-1.5 -15.5l-20 -141h-197l-8 -52q0 -7 2.5 -10.5t14.5 -3.5q37 0 62.5 1t45 4
t35.5 8t34 12zM274 343q0 6 -3.5 9.5t-14.5 3.5q-21 0 -22 -13l-9 -59h40zM110 554l19 133h149l-19 -133h-149zM309 554l19 133h150l-19 -133h-150z" />
    <glyph glyph-name="igrave" unicode="&#xec;" horiz-adv-x="235" 
d="M39 0l69 492h157l-69 -492h-157zM64 594l16 116l222 -96l-11 -80z" />
    <glyph glyph-name="iacute" unicode="&#xed;" horiz-adv-x="235" 
d="M39 0l69 492h157l-69 -492h-157zM96 534l11 80l248 96l-16 -116z" />
    <glyph glyph-name="icircumflex" unicode="&#xee;" horiz-adv-x="235" 
d="M39 0l69 492h157l-69 -492h-157zM211 660l-147 -109l-45 59l142 126h121l106 -126l-61 -59z" />
    <glyph glyph-name="idieresis" unicode="&#xef;" horiz-adv-x="235" 
d="M39 0l69 492h157l-69 -492h-157zM21 554l19 133h149l-19 -133h-149zM220 554l19 133h150l-19 -133h-150z" />
    <glyph glyph-name="eth" unicode="&#xf0;" horiz-adv-x="426" 
d="M410 139q-6 -45 -23.5 -75t-44 -48t-60 -25.5t-72.5 -7.5q-37 0 -67 6.5t-51 22t-32.5 42t-11.5 66.5v9.5t2 9.5l23 160q7 49 25 79.5t41.5 47.5t50.5 23t53 6q27 0 42 -4q0 16 -2.5 33.5t-7.5 35.5l-100 -26l-8 69l80 21q-14 25 -31.5 47.5t-37.5 40.5h143
q18 -11 34 -23.5t30 -28.5l81 21l9 -69l-53 -14q26 -63 26 -126q0 -22 -3 -41zM275 292q-7 4 -21 4q-11 0 -15.5 -3.5t-5.5 -10.5l-18 -127q0 -6 3 -9.5t15 -3.5q21 0 22 13z" />
    <glyph glyph-name="ntilde" unicode="&#xf1;" horiz-adv-x="424" 
d="M234 0l46 332q0 7 -3 10.5t-14 3.5q-14 0 -21 -4l-48 -342h-157l67 477q27 9 70.5 18.5t112.5 9.5q34 0 62.5 -6t49 -20.5t32 -38t11.5 -58.5q0 -8 -0.5 -16t-1.5 -17l-49 -349h-157zM128 575l15 105h328l-15 -105h-328z" />
    <glyph glyph-name="ograve" unicode="&#xf2;" horiz-adv-x="412" 
d="M402 139q-6 -45 -24 -75t-44.5 -48t-60 -25.5t-70.5 -7.5q-35 0 -64 6t-50 20.5t-32.5 37.5t-11.5 58q0 16 3 34l30 210q6 45 23 75t43 48t59.5 25.5t72.5 7.5q34 0 63 -6.5t50 -21t33 -38.5t12 -59q0 -8 -0.5 -15.5t-1.5 -15.5zM272 333q0 6 -3.5 9.5t-14.5 3.5
q-21 0 -22 -13l-25 -178q0 -6 3 -9.5t15 -3.5q21 0 22 13zM151 594l16 116l222 -96l-11 -80z" />
    <glyph glyph-name="oacute" unicode="&#xf3;" horiz-adv-x="412" 
d="M402 139q-6 -45 -24 -75t-44.5 -48t-60 -25.5t-70.5 -7.5q-35 0 -64 6t-50 20.5t-32.5 37.5t-11.5 58q0 16 3 34l30 210q6 45 23 75t43 48t59.5 25.5t72.5 7.5q34 0 63 -6.5t50 -21t33 -38.5t12 -59q0 -8 -0.5 -15.5t-1.5 -15.5zM272 333q0 6 -3.5 9.5t-14.5 3.5
q-21 0 -22 -13l-25 -178q0 -6 3 -9.5t15 -3.5q21 0 22 13zM183 534l11 80l248 96l-16 -116z" />
    <glyph glyph-name="ocircumflex" unicode="&#xf4;" horiz-adv-x="412" 
d="M402 139q-6 -45 -24 -75t-44.5 -48t-60 -25.5t-70.5 -7.5q-35 0 -64 6t-50 20.5t-32.5 37.5t-11.5 58q0 16 3 34l30 210q6 45 23 75t43 48t59.5 25.5t72.5 7.5q34 0 63 -6.5t50 -21t33 -38.5t12 -59q0 -8 -0.5 -15.5t-1.5 -15.5zM272 333q0 6 -3.5 9.5t-14.5 3.5
q-21 0 -22 -13l-25 -178q0 -6 3 -9.5t15 -3.5q21 0 22 13zM300 660l-147 -109l-45 59l142 126h121l106 -126l-61 -59z" />
    <glyph glyph-name="otilde" unicode="&#xf5;" horiz-adv-x="412" 
d="M402 139q-6 -45 -24 -75t-44.5 -48t-60 -25.5t-70.5 -7.5q-35 0 -64 6t-50 20.5t-32.5 37.5t-11.5 58q0 16 3 34l30 210q6 45 23 75t43 48t59.5 25.5t72.5 7.5q34 0 63 -6.5t50 -21t33 -38.5t12 -59q0 -8 -0.5 -15.5t-1.5 -15.5zM272 333q0 6 -3.5 9.5t-14.5 3.5
q-21 0 -22 -13l-25 -178q0 -6 3 -9.5t15 -3.5q21 0 22 13zM123 575l15 105h328l-15 -105h-328z" />
    <glyph glyph-name="odieresis" unicode="&#xf6;" horiz-adv-x="412" 
d="M402 139q-6 -45 -24 -75t-44.5 -48t-60 -25.5t-70.5 -7.5q-35 0 -64 6t-50 20.5t-32.5 37.5t-11.5 58q0 16 3 34l30 210q6 45 23 75t43 48t59.5 25.5t72.5 7.5q34 0 63 -6.5t50 -21t33 -38.5t12 -59q0 -8 -0.5 -15.5t-1.5 -15.5zM272 333q0 6 -3.5 9.5t-14.5 3.5
q-21 0 -22 -13l-25 -178q0 -6 3 -9.5t15 -3.5q21 0 22 13zM110 554l19 133h149l-19 -133h-149zM309 554l19 133h150l-19 -133h-150z" />
    <glyph glyph-name="divide" unicode="&#xf7;" horiz-adv-x="567" 
d="M82 286l16 115h482l-16 -115h-482zM265 471l21 151h169l-21 -151h-169zM208 65l21 151h169l-21 -151h-169z" />
    <glyph glyph-name="oslash" unicode="&#xf8;" horiz-adv-x="412" 
d="M26 -18l36 55q-17 26 -17 67q0 15 3 35l30 210q6 45 23 75t43 48t59.5 25.5t72.5 7.5q23 0 45 -3t40 -10l31 48l62 -29l-39 -59q19 -28 19 -73q0 -7 -0.5 -14.5t-1.5 -15.5l-30 -210q-6 -45 -24 -75t-44.5 -48t-60 -25.5t-70.5 -7.5q-54 0 -90 14l-30 -46zM259 217
l-57 -86q3 -7 21 -7q14 0 19 4t6 11zM274 360q-5 4 -17 4q-14 0 -19.5 -4t-6.5 -11l-10 -71z" />
    <glyph glyph-name="ugrave" unicode="&#xf9;" horiz-adv-x="426" 
d="M299 492h157l-68 -481q-27 -9 -71 -18.5t-113 -9.5q-33 0 -61.5 6t-49.5 20t-32.5 37.5t-11.5 58.5q0 16 3 34l50 353h157l-48 -336q0 -7 2.5 -10.5t14.5 -3.5q15 0 22 4zM158 594l16 116l222 -96l-11 -80z" />
    <glyph glyph-name="uacute" unicode="&#xfa;" horiz-adv-x="426" 
d="M299 492h157l-68 -481q-27 -9 -71 -18.5t-113 -9.5q-33 0 -61.5 6t-49.5 20t-32.5 37.5t-11.5 58.5q0 16 3 34l50 353h157l-48 -336q0 -7 2.5 -10.5t14.5 -3.5q15 0 22 4zM190 534l11 80l248 96l-16 -116z" />
    <glyph glyph-name="ucircumflex" unicode="&#xfb;" horiz-adv-x="426" 
d="M299 492h157l-68 -481q-27 -9 -71 -18.5t-113 -9.5q-33 0 -61.5 6t-49.5 20t-32.5 37.5t-11.5 58.5q0 16 3 34l50 353h157l-48 -336q0 -7 2.5 -10.5t14.5 -3.5q15 0 22 4zM307 660l-147 -109l-45 59l142 126h121l106 -126l-61 -59z" />
    <glyph glyph-name="udieresis" unicode="&#xfc;" horiz-adv-x="426" 
d="M299 492h157l-68 -481q-27 -9 -71 -18.5t-113 -9.5q-33 0 -61.5 6t-49.5 20t-32.5 37.5t-11.5 58.5q0 16 3 34l50 353h157l-48 -336q0 -7 2.5 -10.5t14.5 -3.5q15 0 22 4zM117 554l19 133h149l-19 -133h-149zM316 554l19 133h150l-19 -133h-150z" />
    <glyph glyph-name="yacute" unicode="&#xfd;" horiz-adv-x="414" 
d="M295 492h157l-83 -587q-6 -43 -23.5 -72t-43.5 -46.5t-59.5 -25t-71.5 -7.5q-32 0 -59 6t-46.5 19.5t-30.5 36.5t-11 56q0 15 3 33l6 39h146l-4 -29q0 -1 -0.5 -1.5t-0.5 -1.5q0 -10 18 -10q11 0 15.5 3.5t6.5 9.5l12 88q-10 -4 -22.5 -6t-32.5 -2q-23 0 -45 4.5
t-39.5 17.5t-28.5 35.5t-11 58.5q0 17 3 40l48 341h157l-46 -324q0 -7 2.5 -10.5t14.5 -3.5q15 0 22 4zM184 534l11 80l248 96l-16 -116z" />
    <glyph glyph-name="thorn" unicode="&#xfe;" horiz-adv-x="420" 
d="M4 -233l127 905h157l-25 -175q10 4 22.5 6t32.5 2q23 0 45.5 -4.5t40 -17.5t28.5 -36t11 -60q0 -17 -3 -38l-30 -210q-7 -49 -24 -79.5t-40 -47.5t-49.5 -23t-51.5 -6q-20 0 -32 2t-21 6l-31 -224h-157zM280 335q0 11 -17 11q-14 0 -21 -4l-28 -196q7 -4 20 -4
q11 0 15.5 3.5t5.5 10.5z" />
    <glyph glyph-name="ydieresis" unicode="&#xff;" horiz-adv-x="414" 
d="M295 492h157l-83 -587q-6 -43 -23.5 -72t-43.5 -46.5t-59.5 -25t-71.5 -7.5q-32 0 -59 6t-46.5 19.5t-30.5 36.5t-11 56q0 15 3 33l6 39h146l-4 -29q0 -1 -0.5 -1.5t-0.5 -1.5q0 -10 18 -10q11 0 15.5 3.5t6.5 9.5l12 88q-10 -4 -22.5 -6t-32.5 -2q-23 0 -45 4.5
t-39.5 17.5t-28.5 35.5t-11 58.5q0 17 3 40l48 341h157l-46 -324q0 -7 2.5 -10.5t14.5 -3.5q15 0 22 4zM111 554l19 133h149l-19 -133h-149zM310 554l19 133h150l-19 -133h-150z" />
    <glyph glyph-name="Amacron" unicode="&#x100;" 
d="M243 0l29 209h-43l-29 -209h-169l59 426q7 55 28.5 95t52.5 69.5t69 50.5t79 39q30 -16 59 -35t51.5 -43.5t36 -57t13.5 -76.5q0 -20 -3 -42l-59 -426h-174zM303 427q1 5 1 8.5v6.5q0 17 -5 24t-10 12q-8 -5 -17 -15t-12 -36l-17 -76h49zM164 747l15 105h328l-15 -105
h-328z" />
    <glyph glyph-name="amacron" unicode="&#x101;" horiz-adv-x="419" 
d="M386 11q-26 -12 -65 -20t-108 -8q-80 0 -127.5 25.5t-47.5 87.5q0 6 0.5 12.5t1.5 13.5l6 46q6 42 23 67.5t40.5 39t50 18t51.5 4.5q40 0 57 -6l5 36q0 2 0.5 3.5t0.5 3.5q0 17 -26 17q-42 0 -77 -5t-77 -20l22 154q29 11 67 18t95 7q34 0 63 -6t50 -20.5t33 -38.5
t12 -59q0 -8 -0.5 -16t-1.5 -16zM256 200q-7 4 -21 4q-11 0 -15.5 -3.5t-5.5 -10.5l-6 -44q0 -7 2.5 -10.5t14.5 -3.5q15 0 22 4zM125 575l15 105h328l-15 -105h-328z" />
    <glyph glyph-name="Abreve" unicode="&#x102;" 
d="M243 0l29 209h-43l-29 -209h-169l59 426q7 55 28.5 95t52.5 69.5t69 50.5t79 39q30 -16 59 -35t51.5 -43.5t36 -57t13.5 -76.5q0 -20 -3 -42l-59 -426h-174zM303 427q1 5 1 8.5v6.5q0 17 -5 24t-10 12q-8 -5 -17 -15t-12 -36l-17 -76h49zM513 888q-6 -42 -24.5 -73
t-44 -51.5t-57 -31t-62.5 -10.5q-29 0 -55 8.5t-46 26t-31.5 43t-11.5 60.5q0 7 0.5 13.5t1.5 14.5h94q0 -35 12 -55t49 -20q35 0 54 20t26 55h95z" />
    <glyph glyph-name="abreve" unicode="&#x103;" horiz-adv-x="419" 
d="M386 11q-26 -12 -65 -20t-108 -8q-80 0 -127.5 25.5t-47.5 87.5q0 6 0.5 12.5t1.5 13.5l6 46q6 42 23 67.5t40.5 39t50 18t51.5 4.5q40 0 57 -6l5 36q0 2 0.5 3.5t0.5 3.5q0 17 -26 17q-42 0 -77 -5t-77 -20l22 154q29 11 67 18t95 7q34 0 63 -6t50 -20.5t33 -38.5
t12 -59q0 -8 -0.5 -16t-1.5 -16zM256 200q-7 4 -21 4q-11 0 -15.5 -3.5t-5.5 -10.5l-6 -44q0 -7 2.5 -10.5t14.5 -3.5q15 0 22 4zM476 716q-6 -42 -24.5 -73t-44 -51.5t-57 -31t-62.5 -10.5q-29 0 -55 8.5t-46 26t-31.5 43t-11.5 60.5q0 7 0.5 13.5t1.5 14.5h94
q0 -35 12 -55t49 -20q35 0 54 20t26 55h95z" />
    <glyph glyph-name="Aogonek" unicode="&#x104;" 
d="M384 -229q-9 -4 -53 -4q-36 0 -59.5 6t-37 17t-18.5 25t-5 31q0 53 28.5 83t75.5 50l50 21h-122l29 209h-43l-29 -209h-169l59 426q7 55 28.5 95t52.5 69.5t69 50.5t79 39q30 -16 59 -35t51.5 -43.5t36 -57t13.5 -76.5q0 -20 -3 -42l-59 -426l-45 -28q-11 -7 -18 -12.5
t-10.5 -10.5t-4.5 -11.5t-1 -14.5q0 -10 7.5 -13t20.5 -3q16 0 38 5zM303 427q1 5 1 8.5v6.5q0 17 -5 24t-10 12q-9 -5 -17 -15t-12 -36l-11 -76h43z" />
    <glyph glyph-name="aogonek" unicode="&#x105;" horiz-adv-x="419" 
d="M322 -229q-9 -4 -53 -4q-36 0 -59.5 6t-37 17t-18.5 25t-5 31q0 53 28 83t76 50l12 6q-12 -1 -25 -1.5t-27 -0.5q-80 0 -127.5 25.5t-47.5 87.5q0 6 0.5 12.5t1.5 13.5l6 46q6 42 23 67.5t40.5 39t50 18t51.5 4.5q40 0 57 -6l5 36q0 2 0.5 3.5t0.5 3.5q0 17 -26 17
q-42 0 -77 -5t-77 -20l22 154q29 11 67 18t95 7q34 0 63 -6t50 -20.5t33 -38.5t12 -59q0 -8 -0.5 -16t-1.5 -16l-48 -338q-5 -2 -9.5 -3.5t-13 -5.5t-21 -11t-32.5 -19q-23 -14 -28.5 -23t-5.5 -26q0 -10 7.5 -13t20.5 -3q16 0 38 5zM256 200q-7 4 -21 4q-11 0 -15.5 -3.5
t-5.5 -10.5l-6 -44q0 -7 2.5 -10.5t14.5 -3.5q15 0 22 4z" />
    <glyph glyph-name="Cacute" unicode="&#x106;" horiz-adv-x="426" 
d="M417 145q-6 -47 -23 -78t-42.5 -49.5t-58.5 -26.5t-72 -8q-37 0 -68.5 6.5t-55 21.5t-36.5 39.5t-13 60.5q0 16 3 34l52 373q6 46 25 77.5t48 50t65.5 26.5t77.5 8q34 0 62.5 -6t48.5 -20.5t31 -38t11 -58.5q0 -18 -3 -39l-18 -132h-152l16 119q0 7 -3 10.5t-16 3.5
q-12 0 -16.5 -3.5t-6.5 -10.5l-48 -345q0 -7 2.5 -10.5t16.5 -3.5q12 0 17 3.5t6 10.5l16 114h152zM214 706l11 80l248 96l-16 -116z" />
    <glyph glyph-name="cacute" unicode="&#x107;" horiz-adv-x="404" 
d="M397 139q-6 -45 -23.5 -75t-43 -48t-58 -25.5t-69.5 -7.5q-35 0 -64 6t-50 20.5t-32.5 37.5t-11.5 58q0 16 3 34l30 210q6 45 23 75t43 48t59.5 25.5t72.5 7.5q33 0 61.5 -6t48.5 -20.5t31.5 -38t11.5 -58.5q0 -8 -0.5 -16t-1.5 -17l-9 -63h-152l6 47q0 6 -3.5 9.5
t-14.5 3.5q-21 0 -22 -13l-25 -178q0 -6 3 -9.5t15 -3.5q21 0 22 13l7 51h152zM179 534l11 80l248 96l-16 -116z" />
    <glyph glyph-name="Ccircumflex" unicode="&#x108;" horiz-adv-x="426" 
d="M417 145q-6 -47 -23 -78t-42.5 -49.5t-58.5 -26.5t-72 -8q-37 0 -68.5 6.5t-55 21.5t-36.5 39.5t-13 60.5q0 16 3 34l52 373q6 46 25 77.5t48 50t65.5 26.5t77.5 8q34 0 62.5 -6t48.5 -20.5t31 -38t11 -58.5q0 -18 -3 -39l-18 -132h-152l16 119q0 7 -3 10.5t-16 3.5
q-12 0 -16.5 -3.5t-6.5 -10.5l-48 -345q0 -7 2.5 -10.5t16.5 -3.5q12 0 17 3.5t6 10.5l16 114h152zM332 832l-147 -109l-45 59l142 126h121l106 -126l-61 -59z" />
    <glyph glyph-name="ccircumflex" unicode="&#x109;" horiz-adv-x="404" 
d="M397 139q-6 -45 -23.5 -75t-43 -48t-58 -25.5t-69.5 -7.5q-35 0 -64 6t-50 20.5t-32.5 37.5t-11.5 58q0 16 3 34l30 210q6 45 23 75t43 48t59.5 25.5t72.5 7.5q33 0 61.5 -6t48.5 -20.5t31.5 -38t11.5 -58.5q0 -8 -0.5 -16t-1.5 -17l-9 -63h-152l6 47q0 6 -3.5 9.5
t-14.5 3.5q-21 0 -22 -13l-25 -178q0 -6 3 -9.5t15 -3.5q21 0 22 13l7 51h152zM296 660l-147 -109l-45 59l142 126h121l106 -126l-61 -59z" />
    <glyph glyph-name="Cdotaccent" unicode="&#x10a;" horiz-adv-x="426" 
d="M417 145q-6 -47 -23 -78t-42.5 -49.5t-58.5 -26.5t-72 -8q-37 0 -68.5 6.5t-55 21.5t-36.5 39.5t-13 60.5q0 16 3 34l52 373q6 46 25 77.5t48 50t65.5 26.5t77.5 8q34 0 62.5 -6t48.5 -20.5t31 -38t11 -58.5q0 -18 -3 -39l-18 -132h-152l16 119q0 7 -3 10.5t-16 3.5
q-12 0 -16.5 -3.5t-6.5 -10.5l-48 -345q0 -7 2.5 -10.5t16.5 -3.5q12 0 17 3.5t6 10.5l16 114h152zM244 726l19 133h149l-19 -133h-149z" />
    <glyph glyph-name="cdotaccent" unicode="&#x10b;" horiz-adv-x="404" 
d="M397 139q-6 -45 -23.5 -75t-43 -48t-58 -25.5t-69.5 -7.5q-35 0 -64 6t-50 20.5t-32.5 37.5t-11.5 58q0 16 3 34l30 210q6 45 23 75t43 48t59.5 25.5t72.5 7.5q33 0 61.5 -6t48.5 -20.5t31.5 -38t11.5 -58.5q0 -8 -0.5 -16t-1.5 -17l-9 -63h-152l6 47q0 6 -3.5 9.5
t-14.5 3.5q-21 0 -22 -13l-25 -178q0 -6 3 -9.5t15 -3.5q21 0 22 13l7 51h152zM208 554l19 133h149l-19 -133h-149z" />
    <glyph glyph-name="Ccaron" unicode="&#x10c;" horiz-adv-x="426" 
d="M417 145q-6 -47 -23 -78t-42.5 -49.5t-58.5 -26.5t-72 -8q-37 0 -68.5 6.5t-55 21.5t-36.5 39.5t-13 60.5q0 16 3 34l52 373q6 46 25 77.5t48 50t65.5 26.5t77.5 8q34 0 62.5 -6t48.5 -20.5t31 -38t11 -58.5q0 -18 -3 -39l-18 -132h-152l16 119q0 7 -3 10.5t-16 3.5
q-12 0 -16.5 -3.5t-6.5 -10.5l-48 -345q0 -7 2.5 -10.5t16.5 -3.5q12 0 17 3.5t6 10.5l16 114h152zM313 703l-165 136l57 59l123 -87l150 87l38 -59z" />
    <glyph glyph-name="ccaron" unicode="&#x10d;" horiz-adv-x="404" 
d="M397 139q-6 -45 -23.5 -75t-43 -48t-58 -25.5t-69.5 -7.5q-35 0 -64 6t-50 20.5t-32.5 37.5t-11.5 58q0 16 3 34l30 210q6 45 23 75t43 48t59.5 25.5t72.5 7.5q33 0 61.5 -6t48.5 -20.5t31.5 -38t11.5 -58.5q0 -8 -0.5 -16t-1.5 -17l-9 -63h-152l6 47q0 6 -3.5 9.5
t-14.5 3.5q-21 0 -22 -13l-25 -178q0 -6 3 -9.5t15 -3.5q21 0 22 13l7 51h152zM277 531l-165 136l57 59l123 -87l150 87l38 -59z" />
    <glyph glyph-name="Dcaron" unicode="&#x10e;" horiz-adv-x="454" 
d="M37 0l93 664h193q34 0 64.5 -5t53.5 -21t36.5 -45.5t13.5 -77.5q0 -14 -1.5 -29t-3.5 -32l-37 -265q-8 -52 -29 -88t-50.5 -58.5t-65.5 -32.5t-74 -10h-193zM321 503q0 7 -3.5 10.5t-15.5 3.5h-22l-52 -368h22q21 0 24 20zM317 703l-165 136l57 59l123 -87l150 87l38 -59
z" />
    <glyph glyph-name="dcaron" unicode="&#x10f;" horiz-adv-x="609" 
d="M78 349q7 49 24 79.5t39.5 47.5t48.5 23t52 6q20 0 32.5 -2t20.5 -6l25 175h157l-93 -661q-28 -9 -71.5 -18.5t-112.5 -9.5q-34 0 -62.5 6t-49 20t-32 37.5t-11.5 58.5q0 16 3 34zM274 342q-7 4 -21 4q-11 0 -15.5 -3.5t-5.5 -10.5l-25 -176q0 -7 2.5 -10.5t14.5 -3.5
q15 0 22 4zM519 672h169l-13 -91q-6 -45 -23.5 -82.5t-43.5 -65.5t-59.5 -44.5t-72.5 -18.5z" />
    <glyph glyph-name="Dcroat" unicode="&#x110;" horiz-adv-x="456" 
d="M39 0l38 275h-27l20 144h27l35 245h193q34 0 64.5 -5t53.5 -21t36.5 -45.5t13.5 -77.5q0 -14 -1.5 -29t-3.5 -32l-37 -265q-8 -52 -29 -88t-50.5 -58.5t-65.5 -32.5t-74 -10h-193zM323 505q0 12 -19 12h-22l-14 -98h17l-20 -144h-17l-18 -126h22q12 0 17 4.5t7 15.5z" />
    <glyph glyph-name="dcroat" unicode="&#x111;" horiz-adv-x="420" 
d="M457 527l-73 -516q-28 -9 -71.5 -18.5t-112.5 -9.5q-34 0 -62.5 6t-49 20t-32 37.5t-11.5 58.5q0 16 3 34l30 210q7 49 24 79.5t39.5 47.5t48.5 23t52 6q20 0 32.5 -2t20.5 -6l5 30h-134l14 105h134l6 40h157l-6 -40h37l-14 -105h-37zM274 342q-7 4 -21 4
q-11 0 -15.5 -3.5t-5.5 -10.5l-25 -176q0 -7 2.5 -10.5t14.5 -3.5q15 0 22 4z" />
    <glyph glyph-name="Emacron" unicode="&#x112;" horiz-adv-x="338" 
d="M37 0l93 664h271l-21 -147h-100l-14 -98h86l-20 -144h-86l-18 -126h106l-20 -149h-277zM111 747l15 105h328l-15 -105h-328z" />
    <glyph glyph-name="emacron" unicode="&#x113;" horiz-adv-x="412" 
d="M379 8q-28 -10 -73.5 -17.5t-102.5 -7.5q-34 0 -63 6t-50 20t-33 38t-12 59q0 15 3 33l30 210q6 45 23 75t43 48t59.5 25.5t72.5 7.5q34 0 63 -6.5t50 -21t33 -38.5t12 -59q0 -8 -0.5 -15.5t-1.5 -15.5l-20 -141h-197l-8 -52q0 -7 2.5 -10.5t14.5 -3.5q37 0 62.5 1t45 4
t35.5 8t34 12zM274 343q0 6 -3.5 9.5t-14.5 3.5q-21 0 -22 -13l-9 -59h40zM123 575l15 105h328l-15 -105h-328z" />
    <glyph glyph-name="Ebreve" unicode="&#x114;" horiz-adv-x="338" 
d="M37 0l93 664h271l-21 -147h-100l-14 -98h86l-20 -144h-86l-18 -126h106l-20 -149h-277zM460 888q-6 -42 -24.5 -73t-44 -51.5t-57 -31t-62.5 -10.5q-29 0 -55 8.5t-46 26t-31.5 43t-11.5 60.5q0 7 0.5 13.5t1.5 14.5h94q0 -35 12 -55t49 -20q35 0 54 20t26 55h95z" />
    <glyph glyph-name="ebreve" unicode="&#x115;" horiz-adv-x="412" 
d="M379 8q-28 -10 -73.5 -17.5t-102.5 -7.5q-34 0 -63 6t-50 20t-33 38t-12 59q0 15 3 33l30 210q6 45 23 75t43 48t59.5 25.5t72.5 7.5q34 0 63 -6.5t50 -21t33 -38.5t12 -59q0 -8 -0.5 -15.5t-1.5 -15.5l-20 -141h-197l-8 -52q0 -7 2.5 -10.5t14.5 -3.5q37 0 62.5 1t45 4
t35.5 8t34 12zM274 343q0 6 -3.5 9.5t-14.5 3.5q-21 0 -22 -13l-9 -59h40zM472 716q-6 -42 -24.5 -73t-44 -51.5t-57 -31t-62.5 -10.5q-29 0 -55 8.5t-46 26t-31.5 43t-11.5 60.5q0 7 0.5 13.5t1.5 14.5h94q0 -35 12 -55t49 -20q35 0 54 20t26 55h95z" />
    <glyph glyph-name="Edotaccent" unicode="&#x116;" horiz-adv-x="338" 
d="M37 0l93 664h271l-21 -147h-100l-14 -98h86l-20 -144h-86l-18 -126h106l-20 -149h-277zM195 726l19 133h149l-19 -133h-149z" />
    <glyph glyph-name="edotaccent" unicode="&#x117;" horiz-adv-x="412" 
d="M379 8q-28 -10 -73.5 -17.5t-102.5 -7.5q-34 0 -63 6t-50 20t-33 38t-12 59q0 15 3 33l30 210q6 45 23 75t43 48t59.5 25.5t72.5 7.5q34 0 63 -6.5t50 -21t33 -38.5t12 -59q0 -8 -0.5 -15.5t-1.5 -15.5l-20 -141h-197l-8 -52q0 -7 2.5 -10.5t14.5 -3.5q37 0 62.5 1t45 4
t35.5 8t34 12zM274 343q0 6 -3.5 9.5t-14.5 3.5q-21 0 -22 -13l-9 -59h40zM208 554l19 133h149l-19 -133h-149z" />
    <glyph glyph-name="Eogonek" unicode="&#x118;" horiz-adv-x="338" 
d="M281 -229q-9 -4 -53 -4q-36 0 -59.5 6t-37 17t-18.5 25t-5 31q0 53 28.5 83t75.5 50l50 21h-225l93 664h271l-21 -147h-100l-14 -98h86l-20 -144h-86l-18 -126h106l-20 -149l-45 -28q-11 -7 -18 -12.5t-10.5 -10.5t-4.5 -11.5t-1 -14.5q0 -10 7.5 -13t20.5 -3q16 0 38 5z
" />
    <glyph glyph-name="eogonek" unicode="&#x119;" horiz-adv-x="412" 
d="M320 -229q-9 -4 -53 -4q-36 0 -59.5 6t-37 17t-18.5 25t-5 31q0 54 28 83t76 50l16 7q-30 -3 -64 -3t-63 6t-50 20t-33 38t-12 59q0 15 3 33l30 210q6 45 23 75t43 48t59.5 25.5t72.5 7.5q34 0 63 -6.5t50 -21t33 -38.5t12 -59q0 -8 -0.5 -15.5t-1.5 -15.5l-20 -141h-197
l-8 -52q0 -7 2.5 -10.5t14.5 -3.5q37 0 62.5 1t45 4t35.5 8t34 12l-22 -159q-3 -2 -7.5 -3.5t-12 -5t-19.5 -9.5t-32 -18q-23 -14 -28.5 -23t-5.5 -26q0 -10 7.5 -13t20.5 -3q16 0 38 5zM274 343q0 6 -3.5 9.5t-14.5 3.5q-21 0 -22 -13l-9 -59h40z" />
    <glyph glyph-name="Ecaron" unicode="&#x11a;" horiz-adv-x="338" 
d="M37 0l93 664h271l-21 -147h-100l-14 -98h86l-20 -144h-86l-18 -126h106l-20 -149h-277zM269 703l-165 136l57 59l123 -87l150 87l38 -59z" />
    <glyph glyph-name="ecaron" unicode="&#x11b;" horiz-adv-x="412" 
d="M379 8q-28 -10 -73.5 -17.5t-102.5 -7.5q-34 0 -63 6t-50 20t-33 38t-12 59q0 15 3 33l30 210q6 45 23 75t43 48t59.5 25.5t72.5 7.5q34 0 63 -6.5t50 -21t33 -38.5t12 -59q0 -8 -0.5 -15.5t-1.5 -15.5l-20 -141h-197l-8 -52q0 -7 2.5 -10.5t14.5 -3.5q37 0 62.5 1t45 4
t35.5 8t34 12zM274 343q0 6 -3.5 9.5t-14.5 3.5q-21 0 -22 -13l-9 -59h40zM281 531l-165 136l57 59l123 -87l150 87l38 -59z" />
    <glyph glyph-name="Gcircumflex" unicode="&#x11c;" horiz-adv-x="440" 
d="M293 340h160l-46 -328q-28 -9 -71.5 -19t-117.5 -10q-35 0 -66 6t-54 21t-36.5 39.5t-13.5 61.5q0 15 3 33l52 374q6 46 25 77.5t48 50t65.5 26.5t77.5 8q34 0 62.5 -6t48.5 -20.5t31 -38t11 -58.5q0 -18 -3 -39l-13 -92h-152l12 81q0 7 -3.5 10.5t-15.5 3.5t-17 -3.5
t-6 -10.5l-49 -346q0 -7 2.5 -10.5t16.5 -3.5t23 4zM339 832l-147 -109l-45 59l142 126h121l106 -126l-61 -59z" />
    <glyph glyph-name="gcircumflex" unicode="&#x11d;" horiz-adv-x="414" 
d="M226 3q-10 -4 -22.5 -6t-32.5 -2q-23 0 -45 4.5t-39.5 17.5t-28.5 35.5t-11 58.5q0 17 3 40l28 198q6 45 23.5 75t43.5 48t59 25.5t71 7.5q35 0 64.5 -6t50.5 -20.5t32.5 -38.5t11.5 -59q0 -8 -0.5 -16t-1.5 -16l-63 -444q-6 -43 -23.5 -72t-43.5 -46.5t-59.5 -25
t-71.5 -7.5q-32 0 -59 6t-46.5 19.5t-30.5 36.5t-11 56q0 15 3 33l6 39h146l-4 -29q0 -1 -0.5 -1.5t-0.5 -1.5q0 -10 18 -10q11 0 15.5 3.5t6.5 9.5zM272 333q0 6 -3.5 9.5t-14.5 3.5q-21 0 -22 -13l-23 -165q0 -7 2.5 -10.5t14.5 -3.5q15 0 22 4zM301 660l-147 -109l-45 59
l142 126h121l106 -126l-61 -59z" />
    <glyph glyph-name="Gbreve" unicode="&#x11e;" horiz-adv-x="440" 
d="M293 340h160l-46 -328q-28 -9 -71.5 -19t-117.5 -10q-35 0 -66 6t-54 21t-36.5 39.5t-13.5 61.5q0 15 3 33l52 374q6 46 25 77.5t48 50t65.5 26.5t77.5 8q34 0 62.5 -6t48.5 -20.5t31 -38t11 -58.5q0 -18 -3 -39l-13 -92h-152l12 81q0 7 -3.5 10.5t-15.5 3.5t-17 -3.5
t-6 -10.5l-49 -346q0 -7 2.5 -10.5t16.5 -3.5t23 4zM509 888q-6 -42 -24.5 -73t-44 -51.5t-57 -31t-62.5 -10.5q-29 0 -55 8.5t-46 26t-31.5 43t-11.5 60.5q0 7 0.5 13.5t1.5 14.5h94q0 -35 12 -55t49 -20q35 0 54 20t26 55h95z" />
    <glyph glyph-name="gbreve" unicode="&#x11f;" horiz-adv-x="414" 
d="M226 3q-10 -4 -22.5 -6t-32.5 -2q-23 0 -45 4.5t-39.5 17.5t-28.5 35.5t-11 58.5q0 17 3 40l28 198q6 45 23.5 75t43.5 48t59 25.5t71 7.5q35 0 64.5 -6t50.5 -20.5t32.5 -38.5t11.5 -59q0 -8 -0.5 -16t-1.5 -16l-63 -444q-6 -43 -23.5 -72t-43.5 -46.5t-59.5 -25
t-71.5 -7.5q-32 0 -59 6t-46.5 19.5t-30.5 36.5t-11 56q0 15 3 33l6 39h146l-4 -29q0 -1 -0.5 -1.5t-0.5 -1.5q0 -10 18 -10q11 0 15.5 3.5t6.5 9.5zM272 333q0 6 -3.5 9.5t-14.5 3.5q-21 0 -22 -13l-23 -165q0 -7 2.5 -10.5t14.5 -3.5q15 0 22 4zM473 716q-6 -42 -24.5 -73
t-44 -51.5t-57 -31t-62.5 -10.5q-29 0 -55 8.5t-46 26t-31.5 43t-11.5 60.5q0 7 0.5 13.5t1.5 14.5h94q0 -35 12 -55t49 -20q35 0 54 20t26 55h95z" />
    <glyph glyph-name="Gdotaccent" unicode="&#x120;" horiz-adv-x="440" 
d="M293 340h160l-46 -328q-28 -9 -71.5 -19t-117.5 -10q-35 0 -66 6t-54 21t-36.5 39.5t-13.5 61.5q0 15 3 33l52 374q6 46 25 77.5t48 50t65.5 26.5t77.5 8q34 0 62.5 -6t48.5 -20.5t31 -38t11 -58.5q0 -18 -3 -39l-13 -92h-152l12 81q0 7 -3.5 10.5t-15.5 3.5t-17 -3.5
t-6 -10.5l-49 -346q0 -7 2.5 -10.5t16.5 -3.5t23 4zM246 726l19 133h149l-19 -133h-149z" />
    <glyph glyph-name="gdotaccent" unicode="&#x121;" horiz-adv-x="414" 
d="M226 3q-10 -4 -22.5 -6t-32.5 -2q-23 0 -45 4.5t-39.5 17.5t-28.5 35.5t-11 58.5q0 17 3 40l28 198q6 45 23.5 75t43.5 48t59 25.5t71 7.5q35 0 64.5 -6t50.5 -20.5t32.5 -38.5t11.5 -59q0 -8 -0.5 -16t-1.5 -16l-63 -444q-6 -43 -23.5 -72t-43.5 -46.5t-59.5 -25
t-71.5 -7.5q-32 0 -59 6t-46.5 19.5t-30.5 36.5t-11 56q0 15 3 33l6 39h146l-4 -29q0 -1 -0.5 -1.5t-0.5 -1.5q0 -10 18 -10q11 0 15.5 3.5t6.5 9.5zM272 333q0 6 -3.5 9.5t-14.5 3.5q-21 0 -22 -13l-23 -165q0 -7 2.5 -10.5t14.5 -3.5q15 0 22 4zM209 554l19 133h149
l-19 -133h-149z" />
    <glyph glyph-name="uni0122" unicode="&#x122;" horiz-adv-x="440" 
d="M293 340h160l-46 -328q-28 -9 -71.5 -19t-117.5 -10q-35 0 -66 6t-54 21t-36.5 39.5t-13.5 61.5q0 15 3 33l52 374q6 46 25 77.5t48 50t65.5 26.5t77.5 8q34 0 62.5 -6t48.5 -20.5t31 -38t11 -58.5q0 -18 -3 -39l-13 -92h-152l12 81q0 7 -3.5 10.5t-15.5 3.5t-17 -3.5
t-6 -10.5l-49 -346q0 -7 2.5 -10.5t16.5 -3.5t23 4zM144 -34h149l-4 -28q-5 -38 -20.5 -70.5t-38.5 -56.5t-53 -38.5t-64 -15.5z" />
    <glyph glyph-name="uni0123" unicode="&#x123;" horiz-adv-x="414" 
d="M226 3q-10 -4 -22.5 -6t-32.5 -2q-23 0 -45 4.5t-39.5 17.5t-28.5 35.5t-11 58.5q0 17 3 40l28 198q6 45 23.5 75t43.5 48t59 25.5t71 7.5q35 0 64.5 -6t50.5 -20.5t32.5 -38.5t11.5 -59q0 -8 -0.5 -16t-1.5 -16l-63 -444q-6 -43 -23.5 -72t-43.5 -46.5t-59.5 -25
t-71.5 -7.5q-32 0 -59 6t-46.5 19.5t-30.5 36.5t-11 56q0 15 3 33l6 39h146l-4 -29q0 -1 -0.5 -1.5t-0.5 -1.5q0 -10 18 -10q11 0 15.5 3.5t6.5 9.5zM272 333q0 6 -3.5 9.5t-14.5 3.5q-21 0 -22 -13l-23 -165q0 -7 2.5 -10.5t14.5 -3.5q15 0 22 4zM356.003 538.998h-148.991
l4 27.998q5 37.998 20.499 70.4961t38.4971 56.4961q22.999 23.999 52.9971 38.498t63.9961 15.499z" />
    <glyph glyph-name="Hcircumflex" unicode="&#x124;" horiz-adv-x="460" 
d="M251 0l37 265h-43l-37 -265h-171l93 664h171l-36 -257h43l36 257h172l-93 -664h-172zM347 832l-147 -109l-45 59l142 126h121l106 -126l-61 -59z" />
    <glyph glyph-name="hcircumflex" unicode="&#x125;" horiz-adv-x="424" 
d="M234 0l46 332q0 7 -3 10.5t-14 3.5q-14 0 -21 -4l-48 -342h-157l94 672h157l-25 -175q10 4 22.5 6t32.5 2q23 0 45.5 -4.5t40 -17.5t28.5 -36t11 -60q0 -17 -3 -38l-49 -349h-157zM339 832l-147 -109l-45 59l142 126h121l106 -126l-61 -59z" />
    <glyph glyph-name="Hbar" unicode="&#x126;" horiz-adv-x="460" 
d="M251 0l37 265h-43l-37 -265h-171l93 664h171l-11 -80h43l11 80h172l-93 -664h-172zM308 407l10 72h-43l-10 -72h43z" />
    <glyph glyph-name="hbar" unicode="&#x127;" horiz-adv-x="424" 
d="M267 525l-4 -28q10 4 22.5 6t32.5 2q23 0 45.5 -4.5t40 -17.5t28.5 -36t11 -60q0 -17 -3 -38l-49 -349h-157l46 332q0 7 -3 10.5t-14 3.5q-14 0 -21 -4l-48 -342h-157l73 525h-37l15 105h37l6 42h157l-6 -42h134l-15 -105h-134z" />
    <glyph glyph-name="Itilde" unicode="&#x128;" horiz-adv-x="245" 
d="M37 0l93 664h171l-93 -664h-171zM65 747l15 105h328l-15 -105h-328z" />
    <glyph glyph-name="itilde" unicode="&#x129;" horiz-adv-x="235" 
d="M39 0l69 492h157l-69 -492h-157zM35 575l15 105h328l-15 -105h-328z" />
    <glyph glyph-name="Imacron" unicode="&#x12a;" horiz-adv-x="245" 
d="M37 0l93 664h171l-93 -664h-171zM65 747l15 105h328l-15 -105h-328z" />
    <glyph glyph-name="imacron" unicode="&#x12b;" horiz-adv-x="235" 
d="M39 0l69 492h157l-69 -492h-157zM35 575l15 105h328l-15 -105h-328z" />
    <glyph glyph-name="Ibreve" unicode="&#x12c;" horiz-adv-x="245" 
d="M37 0l93 664h171l-93 -664h-171zM414 888q-6 -42 -24.5 -73t-44 -51.5t-57 -31t-62.5 -10.5q-29 0 -55 8.5t-46 26t-31.5 43t-11.5 60.5q0 7 0.5 13.5t1.5 14.5h94q0 -35 12 -55t49 -20q35 0 54 20t26 55h95z" />
    <glyph glyph-name="ibreve" unicode="&#x12d;" horiz-adv-x="235" 
d="M39 0l69 492h157l-69 -492h-157zM384 716q-6 -42 -24.5 -73t-44 -51.5t-57 -31t-62.5 -10.5q-29 0 -55 8.5t-46 26t-31.5 43t-11.5 60.5q0 7 0.5 13.5t1.5 14.5h94q0 -35 12 -55t49 -20q35 0 54 20t26 55h95z" />
    <glyph glyph-name="Iogonek" unicode="&#x12e;" horiz-adv-x="245" 
d="M175 -229q-9 -4 -53 -4q-36 0 -59.5 6.5t-37 17t-18.5 25t-5 31.5q0 53 28.5 82.5t75.5 49.5l50 21h-119l93 664h171l-93 -664l-45 -28q-11 -7 -18 -12.5t-10.5 -10.5t-4.5 -11.5t-1 -14.5q0 -10 7.5 -13t20.5 -3q16 0 38 5z" />
    <glyph glyph-name="iogonek" unicode="&#x12f;" horiz-adv-x="235" 
d="M163 -229q-9 -4 -53 -4q-36 0 -59 6t-36.5 17t-18.5 25t-5 31q0 53 28 83t75 50l50 21h-105l69 492h157l-69 -492l-45 -28q-11 -7 -18 -12.5t-10.5 -10.5t-4.5 -11.5t-1 -14.5q0 -10 7.5 -13t20.5 -3q16 0 38 5zM116 551l17 121h157l-17 -121h-157z" />
    <glyph glyph-name="Idotaccent" unicode="&#x130;" horiz-adv-x="245" 
d="M37 0l93 664h171l-93 -664h-171zM149 726l19 133h149l-19 -133h-149z" />
    <glyph glyph-name="dotlessi" unicode="&#x131;" horiz-adv-x="235" 
d="M39 0l69 492h157l-69 -492h-157z" />
    <glyph glyph-name="IJ" unicode="&#x132;" horiz-adv-x="518" 
d="M37 0l93 664h171l-93 -664h-171zM289 146q8 -4 21 -4q12 0 17 3.5t6 10.5l72 508h172l-74 -525q-7 -47 -27 -77.5t-49.5 -49.5t-64.5 -26.5t-72 -7.5q-7 0 -12.5 0.5t-11.5 0.5z" />
    <glyph glyph-name="ij" unicode="&#x133;" horiz-adv-x="470" 
d="M39 0l69 492h157l-69 -492h-157zM116 551l17 121h157l-17 -121h-157zM227 -88q9 -3 19 -3q11 0 14.5 3t4.5 9l81 571h154l-83 -586q-6 -41 -23 -67.5t-42 -42.5t-57 -22.5t-66 -6.5q-6 0 -11.5 0.5t-10.5 0.5zM354 551l17 121h154l-17 -121h-154z" />
    <glyph glyph-name="Jcircumflex" unicode="&#x134;" horiz-adv-x="273" 
d="M44 146q8 -4 21 -4q12 0 17 3.5t6 10.5l72 508h172l-74 -525q-7 -47 -27 -77.5t-49.5 -49.5t-64.5 -26.5t-72 -7.5q-7 0 -12.5 0.5t-11.5 0.5zM225 832l-147 -109l-45 59l142 126h121l106 -126l-61 -59z" />
    <glyph glyph-name="jcircumflex" unicode="&#x135;" horiz-adv-x="235" 
d="M-8 -88q9 -3 19 -3q11 0 14.5 3t4.5 9l81 571h154l-83 -586q-6 -41 -23 -67.5t-42 -42.5t-57 -22.5t-66 -6.5q-6 0 -11.5 0.5t-10.5 0.5zM191 660l-147 -109l-45 59l142 126h121l106 -126l-61 -59z" />
    <glyph glyph-name="uni0136" unicode="&#x136;" horiz-adv-x="463" 
d="M265 0l-15 327l-45 -327h-168l93 664h168l-40 -283l94 283h181l-117 -283l37 -381h-188zM152 -34h149l-4 -28q-5 -38 -20.5 -70.5t-38.5 -56.5t-53 -38.5t-64 -15.5z" />
    <glyph glyph-name="uni0137" unicode="&#x137;" horiz-adv-x="435" 
d="M249 0l-21 247l-34 -247h-157l94 672h157l-53 -380l74 200h169l-97 -202l44 -290h-176zM138 -34h149l-4 -28q-5 -38 -20.5 -70.5t-38.5 -56.5t-53 -38.5t-64 -15.5z" />
    <glyph glyph-name="Lacute" unicode="&#x139;" horiz-adv-x="332" 
d="M37 0l93 664h171l-73 -515h104l-20 -149h-275zM127 706l11 80l248 96l-16 -116z" />
    <glyph glyph-name="lacute" unicode="&#x13a;" horiz-adv-x="231" 
d="M37 0l94 672h157l-94 -672h-157zM117 706l11 80l248 96l-16 -116z" />
    <glyph glyph-name="uni013B" unicode="&#x13b;" horiz-adv-x="332" 
d="M37 0l93 664h171l-73 -515h104l-20 -149h-275zM97 -34h149l-4 -28q-5 -38 -20.5 -70.5t-38.5 -56.5t-53 -38.5t-64 -15.5z" />
    <glyph glyph-name="uni013C" unicode="&#x13c;" horiz-adv-x="231" 
d="M37 0l94 672h157l-94 -672h-157zM38 -34h149l-4 -28q-5 -38 -20.5 -70.5t-38.5 -56.5t-53 -38.5t-64 -15.5z" />
    <glyph glyph-name="Lcaron" unicode="&#x13d;" horiz-adv-x="418" 
d="M37 0l93 664h171l-73 -515h104l-20 -149h-275zM362 809h169l-13 -91q-6 -45 -23.5 -82.5t-43.5 -65.5t-59.5 -44.5t-72.5 -18.5z" />
    <glyph glyph-name="lcaron" unicode="&#x13e;" horiz-adv-x="413" 
d="M37 0l94 672h157l-94 -672h-157zM338 673h169l-13 -91q-6 -45 -23.5 -82.5t-43.5 -65.5t-59.5 -44.5t-72.5 -18.5z" />
    <glyph glyph-name="Ldot" unicode="&#x13f;" horiz-adv-x="391" 
d="M37 0l93 664h171l-73 -515h104l-20 -149h-275zM284 309l19 133h149l-19 -133h-149z" />
    <glyph glyph-name="ldot" unicode="&#x140;" horiz-adv-x="379" 
d="M37 0l94 672h157l-94 -672h-157zM266 270l19 133h149l-19 -133h-149z" />
    <glyph glyph-name="Lslash" unicode="&#x141;" horiz-adv-x="332" 
d="M37 0l93 664h171l-37 -264l81 33l-15 -108l-82 -34l-20 -142h104l-20 -149h-275z" />
    <glyph glyph-name="lslash" unicode="&#x142;" horiz-adv-x="245" 
d="M44 0l35 250l-53 -19l15 107l53 20l44 314h157l-35 -246l54 22l-15 -109l-54 -21l-44 -318h-157z" />
    <glyph glyph-name="Nacute" unicode="&#x143;" horiz-adv-x="457" 
d="M251 0l70 502q0 7 -3.5 10.5t-15.5 3.5q-14 0 -23 -4l-71 -512h-171l91 651q29 9 77 19t123 10q39 0 70 -7t53 -23.5t34 -43.5t12 -67v-10t-2 -10l-72 -519h-172zM230 706l11 80l248 96l-16 -116z" />
    <glyph glyph-name="nacute" unicode="&#x144;" horiz-adv-x="424" 
d="M234 0l46 332q0 7 -3 10.5t-14 3.5q-14 0 -21 -4l-48 -342h-157l67 477q27 9 70.5 18.5t112.5 9.5q34 0 62.5 -6t49 -20.5t32 -38t11.5 -58.5q0 -8 -0.5 -16t-1.5 -17l-49 -349h-157zM189 534l11 80l248 96l-16 -116z" />
    <glyph glyph-name="uni0145" unicode="&#x145;" horiz-adv-x="457" 
d="M251 0l70 502q0 7 -3.5 10.5t-15.5 3.5q-14 0 -23 -4l-71 -512h-171l91 651q29 9 77 19t123 10q39 0 70 -7t53 -23.5t34 -43.5t12 -67v-10t-2 -10l-72 -519h-172zM149 -34h149l-4 -28q-5 -38 -20.5 -70.5t-38.5 -56.5t-53 -38.5t-64 -15.5z" />
    <glyph glyph-name="uni0146" unicode="&#x146;" horiz-adv-x="424" 
d="M234 0l46 332q0 7 -3 10.5t-14 3.5q-14 0 -21 -4l-48 -342h-157l67 477q27 9 70.5 18.5t112.5 9.5q34 0 62.5 -6t49 -20.5t32 -38t11.5 -58.5q0 -8 -0.5 -16t-1.5 -17l-49 -349h-157zM133 -34h149l-4 -28q-5 -38 -20.5 -70.5t-38.5 -56.5t-53 -38.5t-64 -15.5z" />
    <glyph glyph-name="Ncaron" unicode="&#x147;" horiz-adv-x="457" 
d="M251 0l70 502q0 7 -3.5 10.5t-15.5 3.5q-14 0 -23 -4l-71 -512h-171l91 651q29 9 77 19t123 10q39 0 70 -7t53 -23.5t34 -43.5t12 -67v-10t-2 -10l-72 -519h-172zM327 703l-165 136l57 59l123 -87l150 87l38 -59z" />
    <glyph glyph-name="ncaron" unicode="&#x148;" horiz-adv-x="424" 
d="M234 0l46 332q0 7 -3 10.5t-14 3.5q-14 0 -21 -4l-48 -342h-157l67 477q27 9 70.5 18.5t112.5 9.5q34 0 62.5 -6t49 -20.5t32 -38t11.5 -58.5q0 -8 -0.5 -16t-1.5 -17l-49 -349h-157zM287 531l-165 136l57 59l123 -87l150 87l38 -59z" />
    <glyph glyph-name="Eng" unicode="&#x14a;" horiz-adv-x="457" 
d="M199 -98q7 -3 19 -3q11 0 15 3t5 9l83 591q0 7 -3.5 10.5t-15.5 3.5q-14 0 -23 -4l-71 -512h-171l91 651q29 9 77 19t123 10q39 0 70 -7t53 -23.5t34 -43.5t12 -67v-10t-2 -10l-87 -623q-6 -41 -26 -67.5t-49 -42.5t-64 -22.5t-69 -6.5q-6 0 -11.5 0.5t-10.5 0.5z" />
    <glyph glyph-name="eng" unicode="&#x14b;" horiz-adv-x="424" 
d="M185 -98q7 -3 19 -3q11 0 13.5 3t3.5 9l59 421q0 7 -3 10.5t-14 3.5q-14 0 -21 -4l-48 -342h-157l67 477q27 9 70.5 18.5t112.5 9.5q34 0 62.5 -6t49 -20.5t32 -38t11.5 -58.5q0 -8 -0.5 -16t-1.5 -17l-64 -453q-6 -41 -23 -67.5t-42.5 -42.5t-57.5 -22.5t-67 -6.5
q-6 0 -11.5 0.5t-10.5 0.5z" />
    <glyph glyph-name="Omacron" unicode="&#x14c;" 
d="M437 145q-7 -47 -27 -78t-49 -49.5t-65 -26.5t-75 -8q-37 0 -68.5 6.5t-55 21.5t-36.5 39.5t-13 60.5q0 16 3 34l52 373q6 46 25 77.5t48 50t65.5 26.5t77.5 8q39 0 70.5 -7t54 -23.5t35 -44t12.5 -68.5v-9.5t-2 -9.5zM315 501q0 7 -3.5 10.5t-15.5 3.5t-17 -3.5
t-6 -10.5l-48 -339q0 -7 2.5 -10.5t16.5 -3.5q12 0 17 3.5t6 10.5zM164 747l15 105h328l-15 -105h-328z" />
    <glyph glyph-name="omacron" unicode="&#x14d;" horiz-adv-x="412" 
d="M402 139q-6 -45 -24 -75t-44.5 -48t-60 -25.5t-70.5 -7.5q-35 0 -64 6t-50 20.5t-32.5 37.5t-11.5 58q0 16 3 34l30 210q6 45 23 75t43 48t59.5 25.5t72.5 7.5q34 0 63 -6.5t50 -21t33 -38.5t12 -59q0 -8 -0.5 -15.5t-1.5 -15.5zM272 333q0 6 -3.5 9.5t-14.5 3.5
q-21 0 -22 -13l-25 -178q0 -6 3 -9.5t15 -3.5q21 0 22 13zM123 575l15 105h328l-15 -105h-328z" />
    <glyph glyph-name="Obreve" unicode="&#x14e;" 
d="M437 145q-7 -47 -27 -78t-49 -49.5t-65 -26.5t-75 -8q-37 0 -68.5 6.5t-55 21.5t-36.5 39.5t-13 60.5q0 16 3 34l52 373q6 46 25 77.5t48 50t65.5 26.5t77.5 8q39 0 70.5 -7t54 -23.5t35 -44t12.5 -68.5v-9.5t-2 -9.5zM315 501q0 7 -3.5 10.5t-15.5 3.5t-17 -3.5
t-6 -10.5l-48 -339q0 -7 2.5 -10.5t16.5 -3.5q12 0 17 3.5t6 10.5zM513 888q-6 -42 -24.5 -73t-44 -51.5t-57 -31t-62.5 -10.5q-29 0 -55 8.5t-46 26t-31.5 43t-11.5 60.5q0 7 0.5 13.5t1.5 14.5h94q0 -35 12 -55t49 -20q35 0 54 20t26 55h95z" />
    <glyph glyph-name="obreve" unicode="&#x14f;" horiz-adv-x="412" 
d="M402 139q-6 -45 -24 -75t-44.5 -48t-60 -25.5t-70.5 -7.5q-35 0 -64 6t-50 20.5t-32.5 37.5t-11.5 58q0 16 3 34l30 210q6 45 23 75t43 48t59.5 25.5t72.5 7.5q34 0 63 -6.5t50 -21t33 -38.5t12 -59q0 -8 -0.5 -15.5t-1.5 -15.5zM272 333q0 6 -3.5 9.5t-14.5 3.5
q-21 0 -22 -13l-25 -178q0 -6 3 -9.5t15 -3.5q21 0 22 13zM472 716q-6 -42 -24.5 -73t-44 -51.5t-57 -31t-62.5 -10.5q-29 0 -55 8.5t-46 26t-31.5 43t-11.5 60.5q0 7 0.5 13.5t1.5 14.5h94q0 -35 12 -55t49 -20q35 0 54 20t26 55h95z" />
    <glyph glyph-name="Ohungarumlaut" unicode="&#x150;" 
d="M437 145q-7 -47 -27 -78t-49 -49.5t-65 -26.5t-75 -8q-37 0 -68.5 6.5t-55 21.5t-36.5 39.5t-13 60.5q0 16 3 34l52 373q6 46 25 77.5t48 50t65.5 26.5t77.5 8q39 0 70.5 -7t54 -23.5t35 -44t12.5 -68.5v-9.5t-2 -9.5zM315 501q0 7 -3.5 10.5t-15.5 3.5t-17 -3.5
t-6 -10.5l-48 -339q0 -7 2.5 -10.5t16.5 -3.5q12 0 17 3.5t6 10.5zM182 748l137 145l44 -43l-144 -140zM341 748l142 141l45 -42l-150 -137z" />
    <glyph glyph-name="ohungarumlaut" unicode="&#x151;" horiz-adv-x="412" 
d="M402 139q-6 -45 -24 -75t-44.5 -48t-60 -25.5t-70.5 -7.5q-35 0 -64 6t-50 20.5t-32.5 37.5t-11.5 58q0 16 3 34l30 210q6 45 23 75t43 48t59.5 25.5t72.5 7.5q34 0 63 -6.5t50 -21t33 -38.5t12 -59q0 -8 -0.5 -15.5t-1.5 -15.5zM272 333q0 6 -3.5 9.5t-14.5 3.5
q-21 0 -22 -13l-25 -178q0 -6 3 -9.5t15 -3.5q21 0 22 13zM140 576l137 145l44 -43l-144 -140zM299 576l142 141l45 -42l-150 -137z" />
    <glyph glyph-name="OE" unicode="&#x152;" horiz-adv-x="546" 
d="M324 0q-23 -9 -49 -13t-54 -4q-37 0 -68.5 6.5t-55 21.5t-36.5 39.5t-13 60.5q0 16 3 34l52 373q6 46 25 77.5t48 50t65.5 26.5t77.5 8q57 0 95 -16h195l-21 -147h-105l-14 -98h91l-20 -144h-91l-18 -126h111l-20 -149h-198zM315 501q0 7 -3.5 10.5t-15.5 3.5t-17 -3.5
t-6 -10.5l-48 -339q0 -7 2.5 -10.5t16.5 -3.5q20 0 23 11z" />
    <glyph glyph-name="oe" unicode="&#x153;" horiz-adv-x="614" 
d="M576 8q-28 -10 -73.5 -17.5t-102.5 -7.5q-59 0 -97 17q-44 -17 -100 -17q-35 0 -64 6t-50 20.5t-32.5 37.5t-11.5 58q0 16 3 34l30 210q6 45 23 75t43 48t59.5 25.5t72.5 7.5q27 0 51.5 -4t43.5 -13q44 17 102 17q34 0 63 -6.5t50 -21t33 -38.5t12 -59q0 -8 -0.5 -15.5
t-1.5 -15.5l-20 -141h-197l-8 -52q0 -7 2.5 -10.5t14.5 -3.5q37 0 62.5 1t45 4t35.5 8t34 12zM272 333q0 6 -3.5 9.5t-14.5 3.5q-21 0 -22 -13l-25 -178q0 -6 3 -9.5t15 -3.5q21 0 22 13zM471 343q0 6 -3.5 9.5t-14.5 3.5q-21 0 -22 -13l-9 -59h40z" />
    <glyph glyph-name="Racute" unicode="&#x154;" horiz-adv-x="443" 
d="M278 388q11 0 18.5 13t12 30.5t6.5 36t2 30.5q0 14 -4.5 19.5t-15.5 5.5h-21l-19 -135h21zM243 0l34 246q0 8 -3.5 15t-14.5 7h-19l-37 -268h-166l93 664h249q31 0 51.5 -9t32.5 -25t16.5 -36.5t4.5 -42.5q0 -17 -2.5 -48.5t-12.5 -65t-28.5 -62t-51.5 -39.5
q32 -9 43 -33.5t11 -53.5q0 -12 -1 -24t-3 -23l-28 -202h-168zM223 706l11 80l248 96l-16 -116z" />
    <glyph glyph-name="racute" unicode="&#x155;" horiz-adv-x="395" 
d="M37 0l67 477q26 9 66.5 18.5t105.5 9.5q33 0 60.5 -5.5t48 -18t32 -34t11.5 -52.5q0 -6 -0.5 -12t-1.5 -13l-9 -63h-140l3 25q0 7 -3 10.5t-14 3.5q-14 0 -21 -4l-48 -342h-157zM175 534l11 80l248 96l-16 -116z" />
    <glyph glyph-name="uni0156" unicode="&#x156;" horiz-adv-x="443" 
d="M278 388q11 0 18.5 13t12 30.5t6.5 36t2 30.5q0 14 -4.5 19.5t-15.5 5.5h-21l-19 -135h21zM243 0l34 246q0 8 -3.5 15t-14.5 7h-19l-37 -268h-166l93 664h249q31 0 51.5 -9t32.5 -25t16.5 -36.5t4.5 -42.5q0 -17 -2.5 -48.5t-12.5 -65t-28.5 -62t-51.5 -39.5
q32 -9 43 -33.5t11 -53.5q0 -12 -1 -24t-3 -23l-28 -202h-168zM142 -34h149l-4 -28q-5 -38 -20.5 -70.5t-38.5 -56.5t-53 -38.5t-64 -15.5z" />
    <glyph glyph-name="uni0157" unicode="&#x157;" horiz-adv-x="395" 
d="M37 0l67 477q26 9 66.5 18.5t105.5 9.5q33 0 60.5 -5.5t48 -18t32 -34t11.5 -52.5q0 -6 -0.5 -12t-1.5 -13l-9 -63h-140l3 25q0 7 -3 10.5t-14 3.5q-14 0 -21 -4l-48 -342h-157zM33 -34h149l-4 -28q-5 -38 -20.5 -70.5t-38.5 -56.5t-53 -38.5t-64 -15.5z" />
    <glyph glyph-name="Rcaron" unicode="&#x158;" horiz-adv-x="443" 
d="M278 388q11 0 18.5 13t12 30.5t6.5 36t2 30.5q0 14 -4.5 19.5t-15.5 5.5h-21l-19 -135h21zM243 0l34 246q0 8 -3.5 15t-14.5 7h-19l-37 -268h-166l93 664h249q31 0 51.5 -9t32.5 -25t16.5 -36.5t4.5 -42.5q0 -17 -2.5 -48.5t-12.5 -65t-28.5 -62t-51.5 -39.5
q32 -9 43 -33.5t11 -53.5q0 -12 -1 -24t-3 -23l-28 -202h-168zM320 703l-165 136l57 59l123 -87l150 87l38 -59z" />
    <glyph glyph-name="rcaron" unicode="&#x159;" horiz-adv-x="395" 
d="M37 0l67 477q26 9 66.5 18.5t105.5 9.5q33 0 60.5 -5.5t48 -18t32 -34t11.5 -52.5q0 -6 -0.5 -12t-1.5 -13l-9 -63h-140l3 25q0 7 -3 10.5t-14 3.5q-14 0 -21 -4l-48 -342h-157zM273 531l-165 136l57 59l123 -87l150 87l38 -59z" />
    <glyph glyph-name="Sacute" unicode="&#x15a;" horiz-adv-x="415" 
d="M252 232q0 17 -5.5 27.5t-14.5 17.5t-21.5 12.5t-26.5 12.5q-48 24 -71 56.5t-23 83.5q0 18 3 41q7 49 21 85.5t39.5 61.5t64 37.5t94.5 12.5q33 0 60.5 -5.5t48 -18.5t31.5 -35t11 -55q0 -7 -0.5 -15t-1.5 -16l-10 -69h-146l9 63q0 13 -18 13q-8 0 -15.5 -3.5
t-9.5 -14.5l-10 -69q0 -11 10.5 -19.5t25.5 -16t31.5 -14t28.5 -12.5q41 -20 55.5 -53.5t14.5 -71.5q0 -14 -1.5 -29t-3.5 -29q-8 -54 -20.5 -96t-37 -71.5t-64 -44.5t-100.5 -15q-75 0 -116 27.5t-41 96.5q0 17 3 38l13 91h152l-12 -84q0 -9 4.5 -11.5t13.5 -2.5t16 4t9 16
zM209 706l11 80l248 96l-16 -116z" />
    <glyph glyph-name="sacute" unicode="&#x15b;" horiz-adv-x="412" 
d="M237 158q0 13 -5.5 21t-15 13t-22.5 9.5t-27 9.5q-51 19 -74 48.5t-23 72.5q0 6 0.5 12.5t1.5 13.5q5 36 17.5 63.5t36.5 46t62 28t94 9.5q34 0 62.5 -4t49 -14.5t32 -28t11.5 -43.5v-9.5t-1 -9.5l-7 -49h-146l4 30q0 9 -18 9q-8 0 -15 -2.5t-8 -10.5l-5 -34
q0 -8 10.5 -14.5t26 -12.5t32.5 -11t29 -9q44 -16 58.5 -42.5t14.5 -58.5q0 -19 -3 -38q-6 -41 -17.5 -72.5t-34.5 -53t-61.5 -33t-99.5 -11.5q-78 0 -120 23t-42 77q0 5 0.5 10t1.5 11l8 57h152l-4 -32q0 -11 18 -11q10 0 16 3t7 12zM183 534l11 80l248 96l-16 -116z" />
    <glyph glyph-name="Scircumflex" unicode="&#x15c;" horiz-adv-x="415" 
d="M252 232q0 17 -5.5 27.5t-14.5 17.5t-21.5 12.5t-26.5 12.5q-48 24 -71 56.5t-23 83.5q0 18 3 41q7 49 21 85.5t39.5 61.5t64 37.5t94.5 12.5q33 0 60.5 -5.5t48 -18.5t31.5 -35t11 -55q0 -7 -0.5 -15t-1.5 -16l-10 -69h-146l9 63q0 13 -18 13q-8 0 -15.5 -3.5
t-9.5 -14.5l-10 -69q0 -11 10.5 -19.5t25.5 -16t31.5 -14t28.5 -12.5q41 -20 55.5 -53.5t14.5 -71.5q0 -14 -1.5 -29t-3.5 -29q-8 -54 -20.5 -96t-37 -71.5t-64 -44.5t-100.5 -15q-75 0 -116 27.5t-41 96.5q0 17 3 38l13 91h152l-12 -84q0 -9 4.5 -11.5t13.5 -2.5t16 4t9 16
zM326 832l-147 -109l-45 59l142 126h121l106 -126l-61 -59z" />
    <glyph glyph-name="scircumflex" unicode="&#x15d;" horiz-adv-x="412" 
d="M237 158q0 13 -5.5 21t-15 13t-22.5 9.5t-27 9.5q-51 19 -74 48.5t-23 72.5q0 6 0.5 12.5t1.5 13.5q5 36 17.5 63.5t36.5 46t62 28t94 9.5q34 0 62.5 -4t49 -14.5t32 -28t11.5 -43.5v-9.5t-1 -9.5l-7 -49h-146l4 30q0 9 -18 9q-8 0 -15 -2.5t-8 -10.5l-5 -34
q0 -8 10.5 -14.5t26 -12.5t32.5 -11t29 -9q44 -16 58.5 -42.5t14.5 -58.5q0 -19 -3 -38q-6 -41 -17.5 -72.5t-34.5 -53t-61.5 -33t-99.5 -11.5q-78 0 -120 23t-42 77q0 5 0.5 10t1.5 11l8 57h152l-4 -32q0 -11 18 -11q10 0 16 3t7 12zM300 660l-147 -109l-45 59l142 126h121
l106 -126l-61 -59z" />
    <glyph glyph-name="Scedilla" unicode="&#x15e;" horiz-adv-x="415" 
d="M252 232q0 17 -5.5 27.5t-14.5 17.5t-21.5 12.5t-26.5 12.5q-48 24 -71 56.5t-23 83.5q0 18 3 41q7 49 21 85.5t39.5 61.5t64 37.5t94.5 12.5q33 0 60.5 -5.5t48 -18.5t31.5 -35t11 -55q0 -7 -0.5 -15t-1.5 -16l-10 -69h-146l9 63q0 13 -18 13q-8 0 -15.5 -3.5
t-9.5 -14.5l-10 -69q0 -11 10.5 -19.5t25.5 -16t31.5 -14t28.5 -12.5q41 -20 55.5 -53.5t14.5 -71.5q0 -14 -1.5 -29t-3.5 -29q-8 -54 -20.5 -96t-37 -71.5t-64 -44.5t-100.5 -15q-75 0 -116 27.5t-41 96.5q0 17 3 38l13 91h152l-12 -84q0 -9 4.5 -11.5t13.5 -2.5t16 4t9 16
zM128 -34h149l-4 -28q-5 -38 -20.5 -70.5t-38.5 -56.5t-53 -38.5t-64 -15.5z" />
    <glyph glyph-name="scedilla" unicode="&#x15f;" horiz-adv-x="412" 
d="M237 158q0 13 -5.5 21t-15 13t-22.5 9.5t-27 9.5q-51 19 -74 48.5t-23 72.5q0 6 0.5 12.5t1.5 13.5q5 36 17.5 63.5t36.5 46t62 28t94 9.5q34 0 62.5 -4t49 -14.5t32 -28t11.5 -43.5v-9.5t-1 -9.5l-7 -49h-146l4 30q0 9 -18 9q-8 0 -15 -2.5t-8 -10.5l-5 -34
q0 -8 10.5 -14.5t26 -12.5t32.5 -11t29 -9q44 -16 58.5 -42.5t14.5 -58.5q0 -19 -3 -38q-6 -41 -17.5 -72.5t-34.5 -53t-61.5 -33t-99.5 -11.5q-78 0 -120 23t-42 77q0 5 0.5 10t1.5 11l8 57h152l-4 -32q0 -11 18 -11q10 0 16 3t7 12zM127 -34h149l-4 -28
q-5 -38 -20.5 -70.5t-38.5 -56.5t-53 -38.5t-64 -15.5z" />
    <glyph glyph-name="Scaron" unicode="&#x160;" horiz-adv-x="415" 
d="M252 232q0 17 -5.5 27.5t-14.5 17.5t-21.5 12.5t-26.5 12.5q-48 24 -71 56.5t-23 83.5q0 18 3 41q7 49 21 85.5t39.5 61.5t64 37.5t94.5 12.5q33 0 60.5 -5.5t48 -18.5t31.5 -35t11 -55q0 -7 -0.5 -15t-1.5 -16l-10 -69h-146l9 63q0 13 -18 13q-8 0 -15.5 -3.5
t-9.5 -14.5l-10 -69q0 -11 10.5 -19.5t25.5 -16t31.5 -14t28.5 -12.5q41 -20 55.5 -53.5t14.5 -71.5q0 -14 -1.5 -29t-3.5 -29q-8 -54 -20.5 -96t-37 -71.5t-64 -44.5t-100.5 -15q-75 0 -116 27.5t-41 96.5q0 17 3 38l13 91h152l-12 -84q0 -9 4.5 -11.5t13.5 -2.5t16 4t9 16
zM308 703l-165 136l57 59l123 -87l150 87l38 -59z" />
    <glyph glyph-name="scaron" unicode="&#x161;" horiz-adv-x="412" 
d="M237 158q0 13 -5.5 21t-15 13t-22.5 9.5t-27 9.5q-51 19 -74 48.5t-23 72.5q0 6 0.5 12.5t1.5 13.5q5 36 17.5 63.5t36.5 46t62 28t94 9.5q34 0 62.5 -4t49 -14.5t32 -28t11.5 -43.5v-9.5t-1 -9.5l-7 -49h-146l4 30q0 9 -18 9q-8 0 -15 -2.5t-8 -10.5l-5 -34
q0 -8 10.5 -14.5t26 -12.5t32.5 -11t29 -9q44 -16 58.5 -42.5t14.5 -58.5q0 -19 -3 -38q-6 -41 -17.5 -72.5t-34.5 -53t-61.5 -33t-99.5 -11.5q-78 0 -120 23t-42 77q0 5 0.5 10t1.5 11l8 57h152l-4 -32q0 -11 18 -11q10 0 16 3t7 12zM281 531l-165 136l57 59l123 -87
l150 87l38 -59z" />
    <glyph glyph-name="uni0162" unicode="&#x162;" horiz-adv-x="377" 
d="M102 0l72 517h-90l21 147h353l-21 -147h-92l-72 -517h-171zM109 -34h149l-4 -28q-5 -38 -20.5 -70.5t-38.5 -56.5t-53 -38.5t-64 -15.5z" />
    <glyph glyph-name="uni0163" unicode="&#x163;" horiz-adv-x="290" 
d="M65 0l53 380h-47l16 112h47l15 112h157l-15 -112h50l-16 -112h-50l-53 -380h-157zM66 -34h149l-4 -28q-5 -38 -20.5 -70.5t-38.5 -56.5t-53 -38.5t-64 -15.5z" />
    <glyph glyph-name="Tcaron" unicode="&#x164;" horiz-adv-x="377" 
d="M102 0l72 517h-90l21 147h353l-21 -147h-92l-72 -517h-171zM289 703l-165 136l57 59l123 -87l150 87l38 -59z" />
    <glyph glyph-name="tcaron" unicode="&#x165;" horiz-adv-x="459" 
d="M65 0l53 380h-47l16 112h47l15 112h157l-15 -112h50l-16 -112h-50l-53 -380h-157zM384 672h169l-13 -91q-6 -45 -23.5 -82.5t-43.5 -65.5t-59.5 -44.5t-72.5 -18.5z" />
    <glyph glyph-name="Tbar" unicode="&#x166;" horiz-adv-x="377" 
d="M102 0l31 224h-41l17 123h41l24 170h-90l21 147h353l-21 -147h-92l-24 -170h42l-17 -123h-42l-31 -224h-171z" />
    <glyph glyph-name="tbar" unicode="&#x167;" horiz-adv-x="290" 
d="M65 0l20 146h-27l17 123h27l16 111h-47l16 112h47l15 112h157l-15 -112h50l-16 -112h-50l-16 -111h30l-17 -123h-30l-20 -146h-157z" />
    <glyph glyph-name="Utilde" unicode="&#x168;" horiz-adv-x="457" 
d="M342 664h171l-92 -652q-28 -9 -76.5 -19t-123.5 -10q-35 0 -66 6t-54 21t-36.5 39.5t-13.5 61.5q0 15 3 33l73 520h172l-71 -503q0 -7 2.5 -10.5t16.5 -3.5t23 4zM168 747l15 105h328l-15 -105h-328z" />
    <glyph glyph-name="utilde" unicode="&#x169;" horiz-adv-x="426" 
d="M299 492h157l-68 -481q-27 -9 -71 -18.5t-113 -9.5q-33 0 -61.5 6t-49.5 20t-32.5 37.5t-11.5 58.5q0 16 3 34l50 353h157l-48 -336q0 -7 2.5 -10.5t14.5 -3.5q15 0 22 4zM129 575l15 105h328l-15 -105h-328z" />
    <glyph glyph-name="Umacron" unicode="&#x16a;" horiz-adv-x="457" 
d="M342 664h171l-92 -652q-28 -9 -76.5 -19t-123.5 -10q-35 0 -66 6t-54 21t-36.5 39.5t-13.5 61.5q0 15 3 33l73 520h172l-71 -503q0 -7 2.5 -10.5t16.5 -3.5t23 4zM168 747l15 105h328l-15 -105h-328z" />
    <glyph glyph-name="umacron" unicode="&#x16b;" horiz-adv-x="426" 
d="M299 492h157l-68 -481q-27 -9 -71 -18.5t-113 -9.5q-33 0 -61.5 6t-49.5 20t-32.5 37.5t-11.5 58.5q0 16 3 34l50 353h157l-48 -336q0 -7 2.5 -10.5t14.5 -3.5q15 0 22 4zM129 575l15 105h328l-15 -105h-328z" />
    <glyph glyph-name="Ubreve" unicode="&#x16c;" horiz-adv-x="457" 
d="M342 664h171l-92 -652q-28 -9 -76.5 -19t-123.5 -10q-35 0 -66 6t-54 21t-36.5 39.5t-13.5 61.5q0 15 3 33l73 520h172l-71 -503q0 -7 2.5 -10.5t16.5 -3.5t23 4zM517 888q-6 -42 -24.5 -73t-44 -51.5t-57 -31t-62.5 -10.5q-29 0 -55 8.5t-46 26t-31.5 43t-11.5 60.5
q0 7 0.5 13.5t1.5 14.5h94q0 -35 12 -55t49 -20q35 0 54 20t26 55h95z" />
    <glyph glyph-name="ubreve" unicode="&#x16d;" horiz-adv-x="426" 
d="M299 492h157l-68 -481q-27 -9 -71 -18.5t-113 -9.5q-33 0 -61.5 6t-49.5 20t-32.5 37.5t-11.5 58.5q0 16 3 34l50 353h157l-48 -336q0 -7 2.5 -10.5t14.5 -3.5q15 0 22 4zM479 716q-6 -42 -24.5 -73t-44 -51.5t-57 -31t-62.5 -10.5q-29 0 -55 8.5t-46 26t-31.5 43
t-11.5 60.5q0 7 0.5 13.5t1.5 14.5h94q0 -35 12 -55t49 -20q35 0 54 20t26 55h95z" />
    <glyph glyph-name="Uring" unicode="&#x16e;" horiz-adv-x="457" 
d="M342 664h171l-92 -652q-28 -9 -76.5 -19t-123.5 -10q-35 0 -66 6t-54 21t-36.5 39.5t-13.5 61.5q0 15 3 33l73 520h172l-71 -503q0 -7 2.5 -10.5t16.5 -3.5t23 4zM445 792q-7 -48 -35 -72t-85 -24q-94 0 -94 75q0 57 30.5 87t90.5 30q51 0 72.5 -19.5t21.5 -56.5v-10
t-1 -10zM386 792q0 2 0.5 4.5t0.5 4.5q0 36 -42 36q-23 0 -37 -13.5t-14 -40.5q0 -33 39 -33q47 0 53 42z" />
    <glyph glyph-name="uring" unicode="&#x16f;" horiz-adv-x="426" 
d="M299 492h157l-68 -481q-27 -9 -71 -18.5t-113 -9.5q-33 0 -61.5 6t-49.5 20t-32.5 37.5t-11.5 58.5q0 16 3 34l50 353h157l-48 -336q0 -7 2.5 -10.5t14.5 -3.5q15 0 22 4zM406 620q-7 -48 -35 -72t-85 -24q-94 0 -94 75q0 57 30.5 87t90.5 30q51 0 72.5 -19.5t21.5 -56.5
v-10t-1 -10zM347 620q0 2 0.5 4.5t0.5 4.5q0 36 -42 36q-23 0 -37 -13.5t-14 -40.5q0 -33 39 -33q47 0 53 42z" />
    <glyph glyph-name="Uhungarumlaut" unicode="&#x170;" horiz-adv-x="457" 
d="M342 664h171l-92 -652q-28 -9 -76.5 -19t-123.5 -10q-35 0 -66 6t-54 21t-36.5 39.5t-13.5 61.5q0 15 3 33l73 520h172l-71 -503q0 -7 2.5 -10.5t16.5 -3.5t23 4zM186 748l137 145l44 -43l-144 -140zM345 748l142 141l45 -42l-150 -137z" />
    <glyph glyph-name="uhungarumlaut" unicode="&#x171;" horiz-adv-x="426" 
d="M299 492h157l-68 -481q-27 -9 -71 -18.5t-113 -9.5q-33 0 -61.5 6t-49.5 20t-32.5 37.5t-11.5 58.5q0 16 3 34l50 353h157l-48 -336q0 -7 2.5 -10.5t14.5 -3.5q15 0 22 4zM147 576l137 145l44 -43l-144 -140zM306 576l142 141l45 -42l-150 -137z" />
    <glyph glyph-name="Uogonek" unicode="&#x172;" horiz-adv-x="457" 
d="M338 -229q-9 -4 -53 -4q-36 0 -59.5 6t-37 17t-18.5 25t-5 31q0 54 28 83t76 50l16 7q-30 -3 -64 -3q-35 0 -66 6t-54 21t-36.5 39.5t-13.5 61.5q0 15 3 33l73 520h172l-71 -503q0 -7 2.5 -10.5t16.5 -3.5t23 4l72 513h171l-92 -652q-6 -2 -12.5 -4.5t-17 -6.5t-26 -11
t-39.5 -18q-22 -14 -28 -23.5t-6 -25.5q0 -10 7.5 -13t20.5 -3q16 0 38 5z" />
    <glyph glyph-name="uogonek" unicode="&#x173;" horiz-adv-x="426" 
d="M314 -229q-9 -4 -53 -4q-36 0 -59.5 6t-37 17t-18.5 25t-5 31q0 27 7 47.5t20.5 35.5t33 27t43.5 23l13 6q-13 -1 -26.5 -1.5t-27.5 -0.5q-33 0 -61.5 6t-49.5 20t-32.5 37.5t-11.5 58.5q0 16 3 34l50 353h157l-48 -336q0 -7 2.5 -10.5t14.5 -3.5q15 0 22 4l49 346h157
l-68 -481q-5 -2 -10.5 -4t-15 -6t-24 -11t-36.5 -18q-22 -14 -28 -23.5t-6 -25.5q0 -10 7.5 -13t20.5 -3q16 0 38 5z" />
    <glyph glyph-name="Wcircumflex" unicode="&#x174;" horiz-adv-x="653" 
d="M546 664h169l-60 -427q-8 -55 -29 -95t-51 -69t-67.5 -50.5t-77.5 -39.5q-27 14 -52.5 35.5t-42.5 44.5q-24 -23 -55 -44.5t-63 -35.5q-30 16 -58.5 34.5t-50 43t-34.5 56.5t-13 76q0 20 3 44l60 427h174l-60 -428q-1 -5 -1.5 -10t-0.5 -9q0 -15 4.5 -21.5t11.5 -10.5
q8 5 16.5 15t12.5 36l60 428h162l-60 -428q-1 -5 -1.5 -10t-0.5 -9q0 -15 4.5 -21.5t11.5 -10.5q8 5 16.5 15t12.5 36zM443 832l-147 -109l-45 59l142 126h121l106 -126l-61 -59z" />
    <glyph glyph-name="wcircumflex" unicode="&#x175;" horiz-adv-x="609" 
d="M492 492h157l-38 -267q-8 -55 -27 -94.5t-47 -69t-62.5 -50.5t-72.5 -39q-28 14 -50.5 32.5t-41.5 38.5q-25 -20 -53.5 -38.5t-58.5 -32.5q-29 16 -54.5 34t-44.5 42t-30.5 55.5t-11.5 74.5q0 11 0.5 22.5t2.5 24.5l38 267h157l-42 -295q-1 -5 -1 -9.5v-8.5
q0 -17 4.5 -23.5t9.5 -11.5q8 5 16 15.5t12 37.5l42 295h155l-42 -295q-1 -5 -1 -9.5v-8.5q0 -17 4.5 -23.5t9.5 -11.5q8 5 16 15.5t12 37.5zM397 660l-147 -109l-45 59l142 126h121l106 -126l-61 -59z" />
    <glyph glyph-name="Ycircumflex" unicode="&#x176;" horiz-adv-x="436" 
d="M134 0l32 231q-36 29 -59.5 67.5t-23.5 98.5q0 18 3 41l32 226h174l-32 -227q-1 -5 -1 -9v-8q0 -16 5 -22.5t10 -11.5q8 5 16.5 15t12.5 36l32 227h169l-32 -226q-12 -76 -49.5 -125t-85.5 -81l-32 -232h-171zM337 832l-147 -109l-45 59l142 126h121l106 -126l-61 -59z
" />
    <glyph glyph-name="ycircumflex" unicode="&#x177;" horiz-adv-x="414" 
d="M295 492h157l-83 -587q-6 -43 -23.5 -72t-43.5 -46.5t-59.5 -25t-71.5 -7.5q-32 0 -59 6t-46.5 19.5t-30.5 36.5t-11 56q0 15 3 33l6 39h146l-4 -29q0 -1 -0.5 -1.5t-0.5 -1.5q0 -10 18 -10q11 0 15.5 3.5t6.5 9.5l12 88q-10 -4 -22.5 -6t-32.5 -2q-23 0 -45 4.5
t-39.5 17.5t-28.5 35.5t-11 58.5q0 17 3 40l48 341h157l-46 -324q0 -7 2.5 -10.5t14.5 -3.5q15 0 22 4zM301 660l-147 -109l-45 59l142 126h121l106 -126l-61 -59z" />
    <glyph glyph-name="Ydieresis" unicode="&#x178;" horiz-adv-x="436" 
d="M134 0l32 231q-36 29 -59.5 67.5t-23.5 98.5q0 18 3 41l32 226h174l-32 -227q-1 -5 -1 -9v-8q0 -16 5 -22.5t10 -11.5q8 5 16.5 15t12.5 36l32 227h169l-32 -226q-12 -76 -49.5 -125t-85.5 -81l-32 -232h-171zM145 726l19 133h149l-19 -133h-149zM344 726l19 133h150
l-19 -133h-150z" />
    <glyph glyph-name="Zacute" unicode="&#x179;" horiz-adv-x="403" 
d="M23 0l23 165l216 352h-157l21 147h341l-17 -122l-214 -393h158l-20 -149h-351zM203 706l11 80l248 96l-16 -116z" />
    <glyph glyph-name="zacute" unicode="&#x17a;" horiz-adv-x="382" 
d="M22 0l18 132l177 234h-128l18 126h315l-16 -111l-174 -251h146l-18 -130h-338zM168 534l11 80l248 96l-16 -116z" />
    <glyph glyph-name="Zdotaccent" unicode="&#x17b;" horiz-adv-x="403" 
d="M23 0l23 165l216 352h-157l21 147h341l-17 -122l-214 -393h158l-20 -149h-351zM228 726l19 133h149l-19 -133h-149z" />
    <glyph glyph-name="zdotaccent" unicode="&#x17c;" horiz-adv-x="382" 
d="M22 0l18 132l177 234h-128l18 126h315l-16 -111l-174 -251h146l-18 -130h-338zM193 554l19 133h149l-19 -133h-149z" />
    <glyph glyph-name="Zcaron" unicode="&#x17d;" horiz-adv-x="403" 
d="M23 0l23 165l216 352h-157l21 147h341l-17 -122l-214 -393h158l-20 -149h-351zM302 703l-165 136l57 59l123 -87l150 87l38 -59z" />
    <glyph glyph-name="zcaron" unicode="&#x17e;" horiz-adv-x="382" 
d="M22 0l18 132l177 234h-128l18 126h315l-16 -111l-174 -251h146l-18 -130h-338zM266 531l-165 136l57 59l123 -87l150 87l38 -59z" />
    <glyph glyph-name="florin" unicode="&#x192;" horiz-adv-x="439" 
d="M-35 -173l20 138h23q34 0 49 11.5t25 44.5l97 331h-58l17 124h75l11 27q21 51 42 84t50.5 51.5t70 26t100.5 7.5h27l-19 -137h-42q-25 0 -36 -9t-16 -26l-7 -24h79l-17 -124h-97l-101 -352q-15 -54 -37 -87.5t-53 -52.5t-73 -26t-98 -7h-32z" />
    <glyph glyph-name="uni0218" unicode="&#x218;" horiz-adv-x="415" 
d="M252 232q0 17 -5.5 27.5t-14.5 17.5t-21.5 12.5t-26.5 12.5q-48 24 -71 56.5t-23 83.5q0 18 3 41q7 49 21 85.5t39.5 61.5t64 37.5t94.5 12.5q33 0 60.5 -5.5t48 -18.5t31.5 -35t11 -55q0 -7 -0.5 -15t-1.5 -16l-10 -69h-146l9 63q0 13 -18 13q-8 0 -15.5 -3.5
t-9.5 -14.5l-10 -69q0 -11 10.5 -19.5t25.5 -16t31.5 -14t28.5 -12.5q41 -20 55.5 -53.5t14.5 -71.5q0 -14 -1.5 -29t-3.5 -29q-8 -54 -20.5 -96t-37 -71.5t-64 -44.5t-100.5 -15q-75 0 -116 27.5t-41 96.5q0 17 3 38l13 91h152l-12 -84q0 -9 4.5 -11.5t13.5 -2.5t16 4t9 16
zM128 -34h149l-4 -28q-5 -38 -20.5 -70.5t-38.5 -56.5t-53 -38.5t-64 -15.5z" />
    <glyph glyph-name="uni0219" unicode="&#x219;" horiz-adv-x="412" 
d="M237 158q0 13 -5.5 21t-15 13t-22.5 9.5t-27 9.5q-51 19 -74 48.5t-23 72.5q0 6 0.5 12.5t1.5 13.5q5 36 17.5 63.5t36.5 46t62 28t94 9.5q34 0 62.5 -4t49 -14.5t32 -28t11.5 -43.5v-9.5t-1 -9.5l-7 -49h-146l4 30q0 9 -18 9q-8 0 -15 -2.5t-8 -10.5l-5 -34
q0 -8 10.5 -14.5t26 -12.5t32.5 -11t29 -9q44 -16 58.5 -42.5t14.5 -58.5q0 -19 -3 -38q-6 -41 -17.5 -72.5t-34.5 -53t-61.5 -33t-99.5 -11.5q-78 0 -120 23t-42 77q0 5 0.5 10t1.5 11l8 57h152l-4 -32q0 -11 18 -11q10 0 16 3t7 12zM127 -34h149l-4 -28
q-5 -38 -20.5 -70.5t-38.5 -56.5t-53 -38.5t-64 -15.5z" />
    <glyph glyph-name="uni021A" unicode="&#x21a;" horiz-adv-x="377" 
d="M102 0l72 517h-90l21 147h353l-21 -147h-92l-72 -517h-171zM109 -34h149l-4 -28q-5 -38 -20.5 -70.5t-38.5 -56.5t-53 -38.5t-64 -15.5z" />
    <glyph glyph-name="uni021B" unicode="&#x21b;" horiz-adv-x="290" 
d="M65 0l53 380h-47l16 112h47l15 112h157l-15 -112h50l-16 -112h-50l-53 -380h-157zM66 -34h149l-4 -28q-5 -38 -20.5 -70.5t-38.5 -56.5t-53 -38.5t-64 -15.5z" />
    <glyph glyph-name="uni0237" unicode="&#x237;" horiz-adv-x="235" 
d="M-8 -88q9 -3 19 -3q11 0 14.5 3t4.5 9l81 571h154l-83 -586q-6 -41 -23 -67.5t-42 -42.5t-57 -22.5t-66 -6.5q-6 0 -11.5 0.5t-10.5 0.5z" />
    <glyph glyph-name="circumflex" unicode="&#x2c6;" horiz-adv-x="493" 
d="M339 660l-147 -109l-45 59l142 126h121l106 -126l-61 -59z" />
    <glyph glyph-name="caron" unicode="&#x2c7;" horiz-adv-x="492" 
d="M320 531l-165 136l57 59l123 -87l150 87l38 -59z" />
    <glyph glyph-name="breve" unicode="&#x2d8;" horiz-adv-x="454" 
d="M492 716q-6 -42 -24.5 -73t-44 -51.5t-57 -31t-62.5 -10.5q-29 0 -55 8.5t-46 26t-31.5 43t-11.5 60.5q0 7 0.5 13.5t1.5 14.5h94q0 -35 12 -55t49 -20q35 0 54 20t26 55h95z" />
    <glyph glyph-name="dotaccent" unicode="&#x2d9;" horiz-adv-x="273" 
d="M139 554l19 133h149l-19 -133h-149z" />
    <glyph glyph-name="ring" unicode="&#x2da;" horiz-adv-x="336" 
d="M361 620q-7 -48 -35 -72t-85 -24q-94 0 -94 75q0 57 30.5 87t90.5 30q51 0 72.5 -19.5t21.5 -56.5v-10t-1 -10zM302 620q0 2 0.5 4.5t0.5 4.5q0 36 -42 36q-23 0 -37 -13.5t-14 -40.5q0 -33 39 -33q47 0 53 42z" />
    <glyph glyph-name="ogonek" unicode="&#x2db;" horiz-adv-x="274" 
d="M196 -229q-9 -4 -53 -4q-36 0 -59.5 6t-37 17t-18.5 25t-5 31q0 53 28.5 83t75.5 50l50 21h52l-45 -28q-11 -7 -18 -12.5t-10.5 -10.5t-4.5 -11.5t-1 -14.5q0 -10 7.5 -13t20.5 -3q16 0 38 5z" />
    <glyph glyph-name="tilde" unicode="&#x2dc;" horiz-adv-x="417" 
d="M124 575l15 105h328l-15 -105h-328z" />
    <glyph glyph-name="hungarumlaut" unicode="&#x2dd;" horiz-adv-x="456" 
d="M132 576l137 145l44 -43l-144 -140zM291 576l142 141l45 -42l-150 -137z" />
    <glyph glyph-name="uni0394" unicode="&#x394;" horiz-adv-x="440" 
d="M8 0l314 733l109 -733h-423zM256 269l-45 -120h54z" />
    <glyph glyph-name="uni0394" unicode="&#x2206;" horiz-adv-x="440" 
d="M8 0l314 733l109 -733h-423zM256 269l-45 -120h54z" />
    <glyph glyph-name="uni03A9" unicode="&#x3a9;" horiz-adv-x="458" 
d="M240 0l22 161q8 9 11.5 23t5.5 28l41 289q0 7 -3.5 10.5t-15.5 3.5t-17 -3.5t-6 -10.5l-41 -289q-1 -6 -1.5 -12.5t-0.5 -12.5q0 -16 5 -26l-22 -161h-184l20 149h94q-66 48 -66 155q0 13 1 26.5t3 28.5l22 159q6 46 26 77.5t49.5 50t65.5 26.5t75 8t70.5 -7t54 -23.5
t35 -44t12.5 -68.5v-9.5t-2 -9.5l-22 -159q-21 -148 -122 -210h94l-20 -149h-184z" />
    <glyph glyph-name="uni03A9" unicode="&#x2126;" horiz-adv-x="458" 
d="M240 0l22 161q8 9 11.5 23t5.5 28l41 289q0 7 -3.5 10.5t-15.5 3.5t-17 -3.5t-6 -10.5l-41 -289q-1 -6 -1.5 -12.5t-0.5 -12.5q0 -16 5 -26l-22 -161h-184l20 149h94q-66 48 -66 155q0 13 1 26.5t3 28.5l22 159q6 46 26 77.5t49.5 50t65.5 26.5t75 8t70.5 -7t54 -23.5
t35 -44t12.5 -68.5v-9.5t-2 -9.5l-22 -159q-21 -148 -122 -210h94l-20 -149h-184z" />
    <glyph glyph-name="pi" unicode="&#x3c0;" horiz-adv-x="431" 
d="M234 0l48 345h-40l-48 -345h-157l69 492h357l-69 -492h-160z" />
    <glyph glyph-name="Wgrave" unicode="&#x1e80;" horiz-adv-x="653" 
d="M546 664h169l-60 -427q-8 -55 -29 -95t-51 -69t-67.5 -50.5t-77.5 -39.5q-27 14 -52.5 35.5t-42.5 44.5q-24 -23 -55 -44.5t-63 -35.5q-30 16 -58.5 34.5t-50 43t-34.5 56.5t-13 76q0 20 3 44l60 427h174l-60 -428q-1 -5 -1.5 -10t-0.5 -9q0 -15 4.5 -21.5t11.5 -10.5
q8 5 16.5 15t12.5 36l60 428h162l-60 -428q-1 -5 -1.5 -10t-0.5 -9q0 -15 4.5 -21.5t11.5 -10.5q8 5 16.5 15t12.5 36zM296 766l16 116l222 -96l-11 -80z" />
    <glyph glyph-name="wgrave" unicode="&#x1e81;" horiz-adv-x="609" 
d="M492 492h157l-38 -267q-8 -55 -27 -94.5t-47 -69t-62.5 -50.5t-72.5 -39q-28 14 -50.5 32.5t-41.5 38.5q-25 -20 -53.5 -38.5t-58.5 -32.5q-29 16 -54.5 34t-44.5 42t-30.5 55.5t-11.5 74.5q0 11 0.5 22.5t2.5 24.5l38 267h157l-42 -295q-1 -5 -1 -9.5v-8.5
q0 -17 4.5 -23.5t9.5 -11.5q8 5 16 15.5t12 37.5l42 295h155l-42 -295q-1 -5 -1 -9.5v-8.5q0 -17 4.5 -23.5t9.5 -11.5q8 5 16 15.5t12 37.5zM250 594l16 116l222 -96l-11 -80z" />
    <glyph glyph-name="Wacute" unicode="&#x1e82;" horiz-adv-x="653" 
d="M546 664h169l-60 -427q-8 -55 -29 -95t-51 -69t-67.5 -50.5t-77.5 -39.5q-27 14 -52.5 35.5t-42.5 44.5q-24 -23 -55 -44.5t-63 -35.5q-30 16 -58.5 34.5t-50 43t-34.5 56.5t-13 76q0 20 3 44l60 427h174l-60 -428q-1 -5 -1.5 -10t-0.5 -9q0 -15 4.5 -21.5t11.5 -10.5
q8 5 16.5 15t12.5 36l60 428h162l-60 -428q-1 -5 -1.5 -10t-0.5 -9q0 -15 4.5 -21.5t11.5 -10.5q8 5 16.5 15t12.5 36zM328 706l11 80l248 96l-16 -116z" />
    <glyph glyph-name="wacute" unicode="&#x1e83;" horiz-adv-x="609" 
d="M492 492h157l-38 -267q-8 -55 -27 -94.5t-47 -69t-62.5 -50.5t-72.5 -39q-28 14 -50.5 32.5t-41.5 38.5q-25 -20 -53.5 -38.5t-58.5 -32.5q-29 16 -54.5 34t-44.5 42t-30.5 55.5t-11.5 74.5q0 11 0.5 22.5t2.5 24.5l38 267h157l-42 -295q-1 -5 -1 -9.5v-8.5
q0 -17 4.5 -23.5t9.5 -11.5q8 5 16 15.5t12 37.5l42 295h155l-42 -295q-1 -5 -1 -9.5v-8.5q0 -17 4.5 -23.5t9.5 -11.5q8 5 16 15.5t12 37.5zM282 534l11 80l248 96l-16 -116z" />
    <glyph glyph-name="Wdieresis" unicode="&#x1e84;" horiz-adv-x="653" 
d="M546 664h169l-60 -427q-8 -55 -29 -95t-51 -69t-67.5 -50.5t-77.5 -39.5q-27 14 -52.5 35.5t-42.5 44.5q-24 -23 -55 -44.5t-63 -35.5q-30 16 -58.5 34.5t-50 43t-34.5 56.5t-13 76q0 20 3 44l60 427h174l-60 -428q-1 -5 -1.5 -10t-0.5 -9q0 -15 4.5 -21.5t11.5 -10.5
q8 5 16.5 15t12.5 36l60 428h162l-60 -428q-1 -5 -1.5 -10t-0.5 -9q0 -15 4.5 -21.5t11.5 -10.5q8 5 16.5 15t12.5 36zM253 726l19 133h149l-19 -133h-149zM452 726l19 133h150l-19 -133h-150z" />
    <glyph glyph-name="wdieresis" unicode="&#x1e85;" horiz-adv-x="609" 
d="M492 492h157l-38 -267q-8 -55 -27 -94.5t-47 -69t-62.5 -50.5t-72.5 -39q-28 14 -50.5 32.5t-41.5 38.5q-25 -20 -53.5 -38.5t-58.5 -32.5q-29 16 -54.5 34t-44.5 42t-30.5 55.5t-11.5 74.5q0 11 0.5 22.5t2.5 24.5l38 267h157l-42 -295q-1 -5 -1 -9.5v-8.5
q0 -17 4.5 -23.5t9.5 -11.5q8 5 16 15.5t12 37.5l42 295h155l-42 -295q-1 -5 -1 -9.5v-8.5q0 -17 4.5 -23.5t9.5 -11.5q8 5 16 15.5t12 37.5zM207 554l19 133h149l-19 -133h-149zM406 554l19 133h150l-19 -133h-150z" />
    <glyph glyph-name="Ygrave" unicode="&#x1ef2;" horiz-adv-x="436" 
d="M134 0l32 231q-36 29 -59.5 67.5t-23.5 98.5q0 18 3 41l32 226h174l-32 -227q-1 -5 -1 -9v-8q0 -16 5 -22.5t10 -11.5q8 5 16.5 15t12.5 36l32 227h169l-32 -226q-12 -76 -49.5 -125t-85.5 -81l-32 -232h-171zM187 766l16 116l222 -96l-11 -80z" />
    <glyph glyph-name="ygrave" unicode="&#x1ef3;" horiz-adv-x="414" 
d="M295 492h157l-83 -587q-6 -43 -23.5 -72t-43.5 -46.5t-59.5 -25t-71.5 -7.5q-32 0 -59 6t-46.5 19.5t-30.5 36.5t-11 56q0 15 3 33l6 39h146l-4 -29q0 -1 -0.5 -1.5t-0.5 -1.5q0 -10 18 -10q11 0 15.5 3.5t6.5 9.5l12 88q-10 -4 -22.5 -6t-32.5 -2q-23 0 -45 4.5
t-39.5 17.5t-28.5 35.5t-11 58.5q0 17 3 40l48 341h157l-46 -324q0 -7 2.5 -10.5t14.5 -3.5q15 0 22 4zM152 594l16 116l222 -96l-11 -80z" />
    <glyph glyph-name="endash" unicode="&#x2013;" horiz-adv-x="495" 
d="M74 246l17 123h415l-17 -123h-415z" />
    <glyph glyph-name="emdash" unicode="&#x2014;" horiz-adv-x="640" 
d="M54 246l17 123h600l-17 -123h-600z" />
    <glyph glyph-name="quoteleft" unicode="&#x2018;" horiz-adv-x="245" 
d="M259 370q-69 3 -106.5 49.5t-37.5 119.5q0 21 3 42l13 91h169z" />
    <glyph glyph-name="quoteright" unicode="&#x2019;" horiz-adv-x="245" 
d="M132 672h169l-13 -91q-6 -45 -23.5 -82.5t-43.5 -65.5t-59.5 -44.5t-72.5 -18.5z" />
    <glyph glyph-name="quotesinglbase" unicode="&#x201a;" horiz-adv-x="245" 
d="M59 151h169l-13 -91q-6 -45 -23.5 -82.5t-44 -65.5t-60 -44.5t-72.5 -18.5z" />
    <glyph glyph-name="quotedblleft" unicode="&#x201c;" horiz-adv-x="490" 
d="M259 370q-69 3 -106.5 49.5t-37.5 119.5q0 21 3 42l13 91h169zM504 370q-69 3 -106.5 49.5t-37.5 119.5q0 21 3 42l13 91h169z" />
    <glyph glyph-name="quotedblright" unicode="&#x201d;" horiz-adv-x="490" 
d="M132 672h169l-13 -91q-6 -45 -23.5 -82.5t-43.5 -65.5t-59.5 -44.5t-72.5 -18.5zM377 672h169l-13 -91q-6 -45 -23.5 -82.5t-43.5 -65.5t-59.5 -44.5t-72.5 -18.5z" />
    <glyph glyph-name="quotedblbase" unicode="&#x201e;" horiz-adv-x="490" 
d="M59 151h169l-13 -91q-6 -45 -23.5 -82.5t-44 -65.5t-60 -44.5t-72.5 -18.5zM304 151h169l-13 -91q-6 -45 -23.5 -82.5t-44 -65.5t-60 -44.5t-72.5 -18.5z" />
    <glyph glyph-name="dagger" unicode="&#x2020;" horiz-adv-x="366" 
d="M124 0l58 418h-87l14 97h87l21 149h125l-21 -149h80l-14 -97h-80l-58 -418h-125z" />
    <glyph glyph-name="daggerdbl" unicode="&#x2021;" horiz-adv-x="366" 
d="M124 0l20 149h-87l14 98h87l24 171h-87l14 97h87l21 149h125l-21 -149h80l-14 -97h-80l-24 -171h80l-14 -98h-80l-20 -149h-125z" />
    <glyph glyph-name="bullet" unicode="&#x2022;" horiz-adv-x="446" 
d="M448 343q-5 -33 -23 -61t-45 -49t-60.5 -32.5t-69.5 -11.5q-35 0 -64 10t-50 27.5t-32.5 42t-11.5 53.5q0 38 16 70.5t44 56t64.5 37t77.5 13.5q33 0 61.5 -10t49.5 -28t32.5 -43t11.5 -55v-10t-1 -10z" />
    <glyph glyph-name="ellipsis" unicode="&#x2026;" horiz-adv-x="1435" 
d="M59 0l21 151h169l-21 -151h-169zM633 0l21 151h169l-21 -151h-169zM1207 0l21 151h169l-21 -151h-169z" />
    <glyph glyph-name="perthousand" unicode="&#x2030;" horiz-adv-x="735" 
d="M299 415q-6 -46 -37 -63.5t-70 -17.5q-38 0 -62.5 14t-24.5 52v6.5t1 8.5l26 187q7 47 37 64t72 17q35 0 60 -14t25 -51v-7.5t-1 -8.5zM238 593q0 3 -1 5t-8 2q-11 0 -12 -7l-24 -169q0 -7 10 -7q11 0 11 7zM29 -20l488 704h88l-490 -704h-86zM498 62q-6 -46 -37 -63.5
t-70 -17.5q-38 0 -62.5 14t-24.5 52v6.5t1 8.5l26 187q7 47 37 64t72 17q35 0 60 -14t25 -51v-7.5t-1 -8.5zM437 240q0 3 -1 5t-8 2q-11 0 -12 -7l-24 -169q0 -7 10 -7q11 0 11 7zM712 62q-6 -46 -37 -63.5t-70 -17.5q-38 0 -62.5 14t-24.5 52v6.5t1 8.5l26 187q7 47 37 64
t72 17q35 0 60 -14t25 -51v-7.5t-1 -8.5zM651 240q0 3 -1 5t-8 2q-11 0 -12 -7l-24 -169q0 -7 10 -7q11 0 11 7z" />
    <glyph glyph-name="guilsinglleft" unicode="&#x2039;" horiz-adv-x="258" 
d="M64 317l170 174l62 -78l-103 -96l76 -95l-84 -77z" />
    <glyph glyph-name="guilsinglright" unicode="&#x203a;" horiz-adv-x="258" 
d="M51 222l102 95l-75 96l83 78l121 -174l-170 -172z" />
    <glyph glyph-name="fraction" unicode="&#x2044;" horiz-adv-x="174" 
d="M-154 -20l488 704h88l-490 -704h-86z" />
    <glyph glyph-name="uni2070" unicode="&#x2070;" horiz-adv-x="254" 
d="M280 415q-6 -46 -37 -63.5t-70 -17.5q-38 0 -62.5 14t-24.5 52v6.5t1 8.5l26 187q7 47 37 64t72 17q35 0 60 -14t25 -51v-7.5t-1 -8.5zM219 593q0 3 -1 5t-8 2q-11 0 -12 -7l-24 -169q0 -7 10 -7q11 0 11 7z" />
    <glyph glyph-name="uni2074" unicode="&#x2074;" horiz-adv-x="254" 
d="M189 343l8 56h-116l11 80l110 196h82l-107 -202h32l8 53h78l-26 -183h-80z" />
    <glyph glyph-name="uni2075" unicode="&#x2075;" horiz-adv-x="246" 
d="M271 415q-7 -47 -36 -64t-71 -17q-35 0 -56 13.5t-21 49.5v9t1 9l4 30h76l-3 -23q0 -5 1.5 -6t8.5 -1q10 0 11 7l7 47q0 2 0.5 4t0.5 4q0 7 -11 7h-80l39 191h156l-11 -74h-79l-11 -59q10 3 17 3.5t16 0.5q50 0 50 -54v-10.5t-1 -11.5z" />
    <glyph glyph-name="uni2076" unicode="&#x2076;" horiz-adv-x="254" 
d="M281 412q-6 -44 -37 -61t-71 -17q-38 0 -62.5 14t-24.5 49q0 12 1 15l26 190q6 47 34.5 64t74.5 17q35 0 58 -14t23 -50v-8t-1 -9l-2 -20h-82l2 15q0 3 -1.5 5t-7.5 2q-12 0 -12 -7l-7 -50q8 4 28 4q12 0 24.5 -2.5t22.5 -9t16.5 -18t6.5 -30.5v-8.5t-1 -9.5zM203 480
q0 3 -1.5 5t-7.5 2q-3 0 -11 -2l-9 -65q0 -4 1.5 -5t8.5 -1q6 0 8 1.5t3 4.5z" />
    <glyph glyph-name="uni2077" unicode="&#x2077;" horiz-adv-x="225" 
d="M101 343q6 39 16.5 77.5t23.5 72.5t27.5 62t28.5 46h-90l11 74h174l-9 -61q-35 -48 -60 -116t-39 -155h-83z" />
    <glyph glyph-name="uni2078" unicode="&#x2078;" horiz-adv-x="252" 
d="M279 415q-6 -47 -36 -64t-71 -17q-38 0 -62.5 14t-24.5 52v6.5t1 8.5l4 25q3 21 14.5 42.5t33.5 29.5q-15 7 -20.5 21.5t-5.5 31.5q0 6 0.5 12t1.5 11l1 14q7 47 35.5 64t70.5 17q37 0 60 -13.5t23 -49.5v-9t-1 -9l-1 -14q-4 -22 -14.5 -44.5t-32.5 -31.5q16 -7 22.5 -23
t6.5 -33q0 -13 -1 -16zM200 463q0 2 0.5 4.5t0.5 4.5q0 10 -8 12q-7 -1 -10 -7t-4 -14l-6 -40q0 -7 10 -7q11 0 11 7zM219 595q0 7 -10 7q-11 0 -11 -7l-6 -36v-6q0 -5 1.5 -8t7.5 -4q7 1 9 6.5t3 11.5z" />
    <glyph glyph-name="uni2079" unicode="&#x2079;" horiz-adv-x="252" 
d="M202 474q-6 -2 -12 -3t-17 -1q-12 0 -24.5 2.5t-22.5 9t-16.5 18.5t-6.5 31v8t1 9l8 57q6 44 37 61t71 17q38 0 62.5 -14t24.5 -50v-6.5t-1 -7.5l-27 -190q-7 -47 -36.5 -64t-71.5 -17q-35 0 -58.5 14t-23.5 51v7.5t1 8.5l4 25h82l-3 -18q0 -3 1.5 -5t7.5 -2q12 0 12 7z
M219 597q0 6 -10 6q-11 0 -11 -6l-8 -55q0 -5 1 -6t8 -1t11 2z" />
    <glyph glyph-name="uni2080" unicode="&#x2080;" horiz-adv-x="254" 
d="M231 62q-6 -46 -37 -63.5t-70 -17.5q-38 0 -62.5 14t-24.5 52v6.5t1 8.5l26 187q7 47 37 64t72 17q35 0 60 -14t25 -51v-7.5t-1 -8.5zM170 240q0 3 -1 5t-8 2q-11 0 -12 -7l-24 -169q0 -7 10 -7q11 0 11 7z" />
    <glyph glyph-name="uni2081" unicode="&#x2081;" horiz-adv-x="166" 
d="M46 -10l35 247q0 3 -1.5 5t-7.5 2q-3 0 -11 -2l11 83q3 0 6 0.5t6 0.5q35 0 60 -14t25 -51v-7.5t-1 -8.5l-36 -255h-86z" />
    <glyph glyph-name="uni2082" unicode="&#x2082;" horiz-adv-x="244" 
d="M30 -10l14 96q4 28 15 53t43 39q21 9 38 16t19 21l5 37q0 9 -10 9t-11 -7l-4 -31h-73l5 34q6 43 32 58t63 15q46 0 63.5 -15t17.5 -48q0 -32 -5 -54t-14 -37.5t-22.5 -25.5t-30.5 -18q-15 -7 -28.5 -12.5t-15.5 -22.5l-5 -33h91l-10 -74h-177z" />
    <glyph glyph-name="uni2083" unicode="&#x2083;" horiz-adv-x="241" 
d="M219 62q-8 -47 -37 -64t-70 -17q-35 0 -56 13.5t-21 49.5v9t1 9l4 30h76l-3 -24q0 -3 1.5 -5t8.5 -2q6 0 8 2t3 5l6 41v7q0 5 -1.5 10t-7.5 5h-20l8 57h20q8 0 10.5 6.5t4.5 14.5l5 35q0 3 -1.5 5t-7.5 2q-12 0 -12 -7l-4 -24h-76l4 29q7 48 31.5 64.5t67.5 16.5
q37 0 60 -13.5t23 -49.5v-9t-1 -9l-1 -14q-4 -22 -14.5 -44.5t-32.5 -31.5q16 -7 22.5 -23t6.5 -33q0 -13 -1 -16z" />
    <glyph glyph-name="uni2084" unicode="&#x2084;" horiz-adv-x="254" 
d="M140 -10l8 56h-116l11 80l110 196h82l-107 -202h32l8 53h78l-26 -183h-80z" />
    <glyph glyph-name="uni2085" unicode="&#x2085;" horiz-adv-x="246" 
d="M222 62q-7 -47 -36 -64t-71 -17q-35 0 -56 13.5t-21 49.5v9t1 9l4 30h76l-3 -23q0 -5 1.5 -6t8.5 -1q10 0 11 7l7 47q0 2 0.5 4t0.5 4q0 7 -11 7h-80l39 191h156l-11 -74h-79l-11 -59q10 3 17 3.5t16 0.5q50 0 50 -54v-10.5t-1 -11.5z" />
    <glyph glyph-name="uni2086" unicode="&#x2086;" horiz-adv-x="254" 
d="M232 59q-6 -44 -37 -61t-71 -17q-38 0 -62.5 14t-24.5 49q0 12 1 15l26 190q6 47 34.5 64t74.5 17q35 0 58 -14t23 -50v-8t-1 -9l-2 -20h-82l2 15q0 3 -1.5 5t-7.5 2q-12 0 -12 -7l-7 -50q8 4 28 4q12 0 24.5 -2.5t22.5 -9t16.5 -18t6.5 -30.5v-8.5t-1 -9.5zM154 127
q0 3 -1.5 5t-7.5 2q-3 0 -11 -2l-9 -65q0 -4 1.5 -5t8.5 -1q6 0 8 1.5t3 4.5z" />
    <glyph glyph-name="uni2087" unicode="&#x2087;" horiz-adv-x="225" 
d="M52 -10q6 39 16.5 77.5t23.5 72.5t27.5 62t28.5 46h-90l11 74h174l-9 -61q-35 -48 -60 -116t-39 -155h-83z" />
    <glyph glyph-name="uni2088" unicode="&#x2088;" horiz-adv-x="252" 
d="M230 62q-6 -47 -36 -64t-71 -17q-38 0 -62.5 14t-24.5 52v6.5t1 8.5l4 25q3 21 14.5 42.5t33.5 29.5q-15 7 -20.5 21.5t-5.5 31.5q0 6 0.5 12t1.5 11l1 14q7 47 35.5 64t70.5 17q37 0 60 -13.5t23 -49.5v-9t-1 -9l-1 -14q-4 -22 -14.5 -44.5t-32.5 -31.5q16 -7 22.5 -23
t6.5 -33q0 -13 -1 -16zM151 110q0 2 0.5 4.5t0.5 4.5q0 10 -8 12q-7 -1 -10 -7t-4 -14l-6 -40q0 -7 10 -7q11 0 11 7zM170 242q0 7 -10 7q-11 0 -11 -7l-6 -36v-6q0 -5 1.5 -8t7.5 -4q7 1 9 6.5t3 11.5z" />
    <glyph glyph-name="uni2089" unicode="&#x2089;" horiz-adv-x="252" 
d="M153 121q-6 -2 -12 -3t-17 -1q-12 0 -24.5 2.5t-22.5 9t-16.5 18.5t-6.5 31v8t1 9l8 57q6 44 37 61t71 17q38 0 62.5 -14t24.5 -50v-6.5t-1 -7.5l-27 -190q-7 -47 -36.5 -64t-71.5 -17q-35 0 -58.5 14t-23.5 51v7.5t1 8.5l4 25h82l-3 -18q0 -3 1.5 -5t7.5 -2q12 0 12 7z
M170 244q0 6 -10 6q-11 0 -11 -6l-8 -55q0 -5 1 -6t8 -1t11 2z" />
    <glyph glyph-name="Euro" unicode="&#x20ac;" horiz-adv-x="371" 
d="M339 -9q-11 -4 -35 -6t-53 -2q-37 0 -68.5 6.5t-55 21.5t-36.5 39.5t-13 60.5q0 16 3 34l12 87h-40l21 76h30l7 54h-40l21 75h30l11 81q6 46 25.5 77.5t48 50t65 26.5t77.5 8q35 0 78 -8l-48 -165q-8 5 -22 6.5t-31 1.5q-12 0 -17 -3.5t-6 -10.5l-9 -64h64l-23 -75h-52
l-7 -54h44l-23 -76h-32l-10 -70q0 -7 2.5 -10.5t16.5 -3.5q32 0 53.5 4t35.5 10z" />
    <glyph glyph-name="trademark" unicode="&#x2122;" horiz-adv-x="550" 
d="M122 353l35 251h-43l10 68h170l-10 -68h-44l-35 -251h-83zM481 353l34 241q0 3 -1 5t-8 2q-8 0 -10 -1l-35 -247h-78l34 244q0 4 -9 4q-5 0 -11 -2l-35 -246h-82l44 313q14 5 36.5 9.5t52.5 4.5q17 0 27 -4t17 -10q8 6 23 10t39 4q34 0 57.5 -13t23.5 -48v-7.5t-1 -8.5
l-35 -250h-83z" />
    <glyph glyph-name="onethird" unicode="&#x2153;" horiz-adv-x="549" 
d="M142 343l35 247q0 3 -1.5 5t-7.5 2q-3 0 -11 -2l11 83q3 0 6 0.5t6 0.5q35 0 60 -14t25 -51v-7.5t-1 -8.5l-36 -255h-86zM29 -20l488 704h88l-490 -704h-86zM526 62q-8 -47 -37 -64t-70 -17q-35 0 -56 13.5t-21 49.5v9t1 9l4 30h76l-3 -24q0 -3 1.5 -5t8.5 -2q6 0 8 2
t3 5l6 41v7q0 5 -1.5 10t-7.5 5h-20l8 57h20q8 0 10.5 6.5t4.5 14.5l5 35q0 3 -1.5 5t-7.5 2q-12 0 -12 -7l-4 -24h-76l4 29q7 48 31.5 64.5t67.5 16.5q37 0 60 -13.5t23 -49.5v-9t-1 -9l-1 -14q-4 -22 -14.5 -44.5t-32.5 -31.5q16 -7 22.5 -23t6.5 -33q0 -13 -1 -16z" />
    <glyph glyph-name="twothirds" unicode="&#x2154;" horiz-adv-x="540" 
d="M78 343l14 96q4 28 15 53t43 39q21 9 38 16t19 21l5 37q0 9 -10 9t-11 -7l-4 -31h-73l5 34q6 43 32 58t63 15q46 0 63.5 -15t17.5 -48q0 -32 -5 -54t-14 -37.5t-22.5 -25.5t-30.5 -18q-15 -7 -28.5 -12.5t-15.5 -22.5l-5 -33h91l-10 -74h-177zM29 -20l488 704h88
l-490 -704h-86zM516 62q-8 -47 -37 -64t-70 -17q-35 0 -56 13.5t-21 49.5v9t1 9l4 30h76l-3 -24q0 -3 1.5 -5t8.5 -2q6 0 8 2t3 5l6 41v7q0 5 -1.5 10t-7.5 5h-20l8 57h20q8 0 10.5 6.5t4.5 14.5l5 35q0 3 -1.5 5t-7.5 2q-12 0 -12 -7l-4 -24h-76l4 29q7 48 31.5 64.5
t67.5 16.5q37 0 60 -13.5t23 -49.5v-9t-1 -9l-1 -14q-4 -22 -14.5 -44.5t-32.5 -31.5q16 -7 22.5 -23t6.5 -33q0 -13 -1 -16z" />
    <glyph glyph-name="oneeighth" unicode="&#x215b;" horiz-adv-x="560" 
d="M142 343l35 247q0 3 -1.5 5t-7.5 2q-3 0 -11 -2l11 83q3 0 6 0.5t6 0.5q35 0 60 -14t25 -51v-7.5t-1 -8.5l-36 -255h-86zM29 -20l488 704h88l-490 -704h-86zM537 62q-6 -47 -36 -64t-71 -17q-38 0 -62.5 14t-24.5 52v6.5t1 8.5l4 25q3 21 14.5 42.5t33.5 29.5
q-15 7 -20.5 21.5t-5.5 31.5q0 6 0.5 12t1.5 11l1 14q7 47 35.5 64t70.5 17q37 0 60 -13.5t23 -49.5v-9t-1 -9l-1 -14q-4 -22 -14.5 -44.5t-32.5 -31.5q16 -7 22.5 -23t6.5 -33q0 -13 -1 -16zM458 110q0 2 0.5 4.5t0.5 4.5q0 10 -8 12q-7 -1 -10 -7t-4 -14l-6 -40
q0 -7 10 -7q11 0 11 7zM477 242q0 7 -10 7q-11 0 -11 -7l-6 -36v-6q0 -5 1.5 -8t7.5 -4q7 1 9 6.5t3 11.5z" />
    <glyph glyph-name="threeeighths" unicode="&#x215c;" horiz-adv-x="540" 
d="M280 415q-8 -47 -37 -64t-70 -17q-35 0 -56 13.5t-21 49.5v9t1 9l4 30h76l-3 -24q0 -3 1.5 -5t8.5 -2q6 0 8 2t3 5l6 41v7q0 5 -1.5 10t-7.5 5h-20l8 57h20q8 0 10.5 6.5t4.5 14.5l5 35q0 3 -1.5 5t-7.5 2q-12 0 -12 -7l-4 -24h-76l4 29q7 48 31.5 64.5t67.5 16.5
q37 0 60 -13.5t23 -49.5v-9t-1 -9l-1 -14q-4 -22 -14.5 -44.5t-32.5 -31.5q16 -7 22.5 -23t6.5 -33q0 -13 -1 -16zM29 -20l488 704h88l-490 -704h-86zM517 62q-6 -47 -36 -64t-71 -17q-38 0 -62.5 14t-24.5 52v6.5t1 8.5l4 25q3 21 14.5 42.5t33.5 29.5q-15 7 -20.5 21.5
t-5.5 31.5q0 6 0.5 12t1.5 11l1 14q7 47 35.5 64t70.5 17q37 0 60 -13.5t23 -49.5v-9t-1 -9l-1 -14q-4 -22 -14.5 -44.5t-32.5 -31.5q16 -7 22.5 -23t6.5 -33q0 -13 -1 -16zM438 110q0 2 0.5 4.5t0.5 4.5q0 10 -8 12q-7 -1 -10 -7t-4 -14l-6 -40q0 -7 10 -7q11 0 11 7z
M457 242q0 7 -10 7q-11 0 -11 -7l-6 -36v-6q0 -5 1.5 -8t7.5 -4q7 1 9 6.5t3 11.5z" />
    <glyph glyph-name="fiveeighths" unicode="&#x215d;" horiz-adv-x="540" 
d="M278 415q-7 -47 -36 -64t-71 -17q-35 0 -56 13.5t-21 49.5v9t1 9l4 30h76l-3 -23q0 -5 1.5 -6t8.5 -1q10 0 11 7l7 47q0 2 0.5 4t0.5 4q0 7 -11 7h-80l39 191h156l-11 -74h-79l-11 -59q10 3 17 3.5t16 0.5q50 0 50 -54v-10.5t-1 -11.5zM29 -20l488 704h88l-490 -704h-86z
M517 62q-6 -47 -36 -64t-71 -17q-38 0 -62.5 14t-24.5 52v6.5t1 8.5l4 25q3 21 14.5 42.5t33.5 29.5q-15 7 -20.5 21.5t-5.5 31.5q0 6 0.5 12t1.5 11l1 14q7 47 35.5 64t70.5 17q37 0 60 -13.5t23 -49.5v-9t-1 -9l-1 -14q-4 -22 -14.5 -44.5t-32.5 -31.5q16 -7 22.5 -23
t6.5 -33q0 -13 -1 -16zM438 110q0 2 0.5 4.5t0.5 4.5q0 10 -8 12q-7 -1 -10 -7t-4 -14l-6 -40q0 -7 10 -7q11 0 11 7zM457 242q0 7 -10 7q-11 0 -11 -7l-6 -36v-6q0 -5 1.5 -8t7.5 -4q7 1 9 6.5t3 11.5z" />
    <glyph glyph-name="seveneighths" unicode="&#x215e;" horiz-adv-x="550" 
d="M149 343q6 39 16.5 77.5t23.5 72.5t27.5 62t28.5 46h-90l11 74h174l-9 -61q-35 -48 -60 -116t-39 -155h-83zM29 -20l488 704h88l-490 -704h-86zM527 62q-6 -47 -36 -64t-71 -17q-38 0 -62.5 14t-24.5 52v6.5t1 8.5l4 25q3 21 14.5 42.5t33.5 29.5q-15 7 -20.5 21.5
t-5.5 31.5q0 6 0.5 12t1.5 11l1 14q7 47 35.5 64t70.5 17q37 0 60 -13.5t23 -49.5v-9t-1 -9l-1 -14q-4 -22 -14.5 -44.5t-32.5 -31.5q16 -7 22.5 -23t6.5 -33q0 -13 -1 -16zM448 110q0 2 0.5 4.5t0.5 4.5q0 10 -8 12q-7 -1 -10 -7t-4 -14l-6 -40q0 -7 10 -7q11 0 11 7z
M467 242q0 7 -10 7q-11 0 -11 -7l-6 -36v-6q0 -5 1.5 -8t7.5 -4q7 1 9 6.5t3 11.5z" />
    <glyph glyph-name="partialdiff" unicode="&#x2202;" horiz-adv-x="479" 
d="M289 675q12 2 24 3.5t24 1.5q35 0 66.5 -12t55.5 -37.5t38 -64.5t14 -94q0 -16 -1.5 -32.5t-3.5 -35.5q-12 -83 -33.5 -159t-56.5 -134t-84.5 -93t-116.5 -35q-89 0 -126.5 40.5t-37.5 115.5q0 69 18 124t49 93t71 58t84 20q9 0 23.5 -1.5t30.5 -6t30 -11.5t22 -19
q5 13 6 26t1 25q0 45 -24.5 70.5t-64.5 25.5q-12 0 -27 -3zM346 255q-4 8 -9 16t-14 14t-23 10t-36 4q-15 0 -30 -7.5t-27 -22t-19.5 -36.5t-7.5 -51q0 -32 16 -47.5t38 -15.5q39 0 67 30t45 106z" />
    <glyph glyph-name="product" unicode="&#x220f;" horiz-adv-x="472" 
d="M262 -233l110 785h-120l-110 -785h-138l126 897h398l-126 -897h-140z" />
    <glyph glyph-name="summation" unicode="&#x2211;" horiz-adv-x="454" 
d="M14 -182l13 96l216 327l-124 327l14 96h374l-19 -132h-177l92 -291l-174 -292h177l-18 -131h-374z" />
    <glyph glyph-name="minus" unicode="&#x2212;" horiz-adv-x="567" 
d="M82 286l16 115h482l-16 -115h-482z" />
    <glyph glyph-name="radical" unicode="&#x221a;" horiz-adv-x="481" 
d="M156 0l-51 270h-44l14 96h163l11 -164l168 462h145l-275 -664h-131z" />
    <glyph glyph-name="infinity" unicode="&#x221e;" horiz-adv-x="620" 
d="M344 245q-26 -29 -66.5 -49.5t-97.5 -20.5q-54 0 -90 32.5t-36 98.5q0 51 15 88.5t40 63t55.5 38t62.5 12.5q57 0 89.5 -20.5t54.5 -50.5q32 30 69.5 50.5t94.5 20.5q54 0 89.5 -33t35.5 -99q0 -50 -14.5 -87.5t-38.5 -63t-55 -38t-64 -12.5q-57 0 -91 20.5t-53 49.5z
M308 337q-15 19 -31.5 35.5t-45.5 16.5q-38 0 -54 -18t-16 -42q0 -20 12 -30t44 -10q16 0 30 5t25.5 12.5t20.5 16t15 14.5zM406 337q4 -6 10.5 -14.5t16 -16t21.5 -12.5t28 -5q38 0 54 15t16 44q0 17 -13 29t-43 12q-28 0 -49 -17t-41 -35z" />
    <glyph glyph-name="integral" unicode="&#x222b;" horiz-adv-x="314" 
d="M-23 -233l19 137h32q24 0 29 30l80 571q12 85 67 126t162 41h33l-19 -137h-33q-26 0 -30 -30l-80 -571q-24 -167 -228 -167h-32z" />
    <glyph glyph-name="approxequal" unicode="&#x2248;" horiz-adv-x="597" 
d="M580 178q-37 -35 -75 -51t-86 -16q-30 0 -57.5 8.5t-53.5 18.5t-51.5 18.5t-50.5 8.5q-42 0 -77 -18.5t-73 -58.5l17 123q26 26 61 46.5t83 20.5q37 0 68 -8.5t58 -18.5t51.5 -18.5t48.5 -8.5q43 0 80.5 17t73.5 59zM611 417q-37 -35 -75 -51t-86 -16q-30 0 -57.5 8.5
t-53.5 18.5t-51.5 18.5t-50.5 8.5q-42 0 -77 -18.5t-73 -58.5l17 123q26 26 61 46.5t83 20.5q37 0 68 -8.5t58 -18.5t51.5 -18.5t48.5 -8.5q43 0 80.5 17t73.5 59z" />
    <glyph glyph-name="notequal" unicode="&#x2260;" horiz-adv-x="560" 
d="M248 186l-164 -206h-76l163 206h-106l16 115h181l67 84h-236l16 115h311l147 184h78l-147 -184h93l-16 -115h-169l-67 -84h224l-16 -115h-299z" />
    <glyph glyph-name="lessequal" unicode="&#x2264;" horiz-adv-x="567" 
d="M82 286l16 115l508 189l-17 -127l-369 -120l335 -120l-18 -127zM37 -43l16 115h482l-16 -115h-482z" />
    <glyph glyph-name="greaterequal" unicode="&#x2265;" horiz-adv-x="567" 
d="M55 96l18 127l369 120l-335 120l17 127l456 -189l-16 -115zM37 -43l16 115h482l-16 -115h-482z" />
    <glyph glyph-name="lozenge" unicode="&#x25ca;" horiz-adv-x="542" 
d="M189 0l-113 332l206 332h174l102 -332l-195 -332h-174zM399 332l-53 183l-104 -183l53 -182z" />
    <glyph glyph-name="uniF8FF" unicode="&#xf8ff;" horiz-adv-x="200" 
 />
    <glyph glyph-name="glyph398" horiz-adv-x="0" 
 />
    </font>
</defs>
</svg>
