<?xml version="1.0" standalone="no"?>
<!DOCTYPE svg PUBLIC "-//W3C//DTD SVG 1.1//EN" "http://www.w3.org/Graphics/SVG/1.1/DTD/svg11.dtd" >
<svg>
<metadata>
Created by FontForge 20120731 at Sat Jun 24 21:50:36 2023
 By www
Copyright (c) 2009 Typodermic Fonts. This font is not freely distributable. Visit typodermic.com for more information.
</metadata>
<defs>
<font id="MaquiW00-ExtralightItalic" horiz-adv-x="391" >
  <font-face 
    font-family="MaquiW00-ExtralightItalic"
    font-weight="250"
    font-style="italic"
    font-stretch="normal"
    units-per-em="1000"
    panose-1="2 11 3 6 3 6 2 2 0 4"
    ascent="800"
    descent="-200"
    x-height="492"
    cap-height="664"
    bbox="-188 -246 817 908"
    underline-thickness="50"
    underline-position="-125"
    slope="-8"
    unicode-range="U+0017-F8FF"
  />
<missing-glyph horiz-adv-x="678" 
d="M151 -241q-114 0 -114 99v799q0 100 114 100h374q116 0 116 -100v-799q0 -99 -116 -99h-374zM321 24l-187 50l-45 -167l188 -49zM336 130q4 16 13 25t20.5 15t25 9.5t26.5 7.5q29 9 50 21.5t37.5 34t29.5 54.5t27 83q8 29 12.5 55t4.5 49q0 49 -26 83t-64.5 55
t-83.5 30.5t-84 9.5q-54 0 -94 -28t-59 -97l-21 -77l175 -48l20 72q3 11 15 11t22.5 -6t10.5 -17l-24 -87q-4 -15 -12.5 -23.5t-21 -14t-27.5 -9.5t-33 -10q-48 -17 -70.5 -52t-35.5 -86l-12 -46l171 -44z" />
    <glyph glyph-name="copyright" unicode="&#x28;C&#x29;" horiz-adv-x="488" 
d="M472 145q-7 -47 -28.5 -78t-52.5 -49.5t-70 -26.5t-81 -8q-41 0 -75 6.5t-59 21.5t-39 40t-14 62q0 15 3 32l52 373q6 46 26 77.5t51 50t70 26.5t83 8q39 0 73 -6.5t59.5 -22t40.5 -41t15 -62.5q0 -7 -0.5 -14.5t-1.5 -15.5zM503 518q1 7 1.5 13t0.5 11q0 33 -13.5 55
t-36.5 35.5t-54 19.5t-66 6q-39 0 -74 -7t-62.5 -23t-45.5 -43t-24 -67l-52 -373q-1 -7 -1.5 -13.5t-0.5 -12.5q0 -33 12.5 -55t35 -35.5t53.5 -19t67 -5.5q38 0 73.5 7t63.5 23t46.5 43t24.5 68zM343 311h20l-8 -58q-6 -43 -28 -58.5t-54 -15.5q-30 0 -50.5 12.5
t-20.5 45.5v7.5t1 8.5l24 168q6 42 31.5 57.5t58.5 15.5q29 0 46 -11.5t17 -43.5v-8.5t-1 -9.5l-9 -60h-20l8 58q1 4 1 7.5v6.5q0 23 -12 31.5t-33 8.5q-25 0 -43.5 -11.5t-23.5 -42.5l-23 -165q-1 -3 -1 -6.5v-5.5q0 -25 14.5 -34t37.5 -9t39 11.5t21 43.5z" />
    <glyph glyph-name="registered" unicode="&#x28;R&#x29;" horiz-adv-x="488" 
d="M472 145q-7 -47 -28.5 -78t-52.5 -49.5t-70 -26.5t-81 -8q-41 0 -75 6.5t-59 21.5t-39 40t-14 62q0 15 3 32l52 373q6 46 26 77.5t51 50t70 26.5t83 8q39 0 73 -6.5t59.5 -22t40.5 -41t15 -62.5q0 -7 -0.5 -14.5t-1.5 -15.5zM503 518q1 7 1.5 13t0.5 11q0 33 -13.5 55
t-36.5 35.5t-54 19.5t-66 6q-40 0 -75 -7t-62 -23t-45 -43t-24 -67l-52 -373q-1 -7 -1.5 -13.5t-0.5 -12.5q0 -33 12.5 -55t35 -35.5t53.5 -19t67 -5.5q38 0 73.5 7t63.5 23t46.5 43t24.5 68zM331 187l13 93q0 2 0.5 4.5t0.5 5.5q0 13 -7.5 26t-33.5 13h-66l-20 -142h-21
l42 300h103q26 0 34.5 -15.5t8.5 -35.5q0 -6 -1.5 -21t-7 -31t-17 -29t-31.5 -16q23 -3 30.5 -17.5t7.5 -30.5q0 -4 -0.5 -7t-0.5 -6l-13 -91h-21zM240 347h66q20 0 31.5 11t17 24.5t7 26.5t1.5 18q0 17 -6 29t-26 12h-74z" />
    <glyph glyph-name="uni2117" unicode="&#x28;P&#x29;" horiz-adv-x="488" 
d="M472 145q-7 -47 -28.5 -78t-52.5 -49.5t-70 -26.5t-81 -8q-41 0 -75 6.5t-59 21.5t-39 40t-14 62q0 15 3 32l52 373q6 46 26 77.5t51 50t70 26.5t83 8q39 0 73 -6.5t59.5 -22t40.5 -41t15 -62.5q0 -7 -0.5 -14.5t-1.5 -15.5zM503 518q1 7 1.5 13t0.5 11q0 33 -13.5 55
t-36.5 35.5t-54 19.5t-66 6q-39 0 -74 -7t-62.5 -23t-45.5 -43t-24 -67l-52 -373q-1 -7 -1.5 -13.5t-0.5 -12.5q0 -33 12.5 -55t35 -35.5t53.5 -19t67 -5.5q38 0 73.5 7t63.5 23t46.5 43t24.5 68zM197 187l42 300h94q30 0 42 -13.5t12 -42.5q0 -17 -3 -39
q-8 -51 -23.5 -73.5t-54.5 -22.5h-73l-15 -109h-21zM306 314q59 0 59 113q0 22 -8.5 31.5t-29.5 9.5h-70l-21 -154h70z" />
    <glyph glyph-name=".notdef" horiz-adv-x="678" 
d="M151 -241q-114 0 -114 99v799q0 100 114 100h374q116 0 116 -100v-799q0 -99 -116 -99h-374zM321 24l-187 50l-45 -167l188 -49zM336 130q4 16 13 25t20.5 15t25 9.5t26.5 7.5q29 9 50 21.5t37.5 34t29.5 54.5t27 83q8 29 12.5 55t4.5 49q0 49 -26 83t-64.5 55
t-83.5 30.5t-84 9.5q-54 0 -94 -28t-59 -97l-21 -77l175 -48l20 72q3 11 15 11t22.5 -6t10.5 -17l-24 -87q-4 -15 -12.5 -23.5t-21 -14t-27.5 -9.5t-33 -10q-48 -17 -70.5 -52t-35.5 -86l-12 -46l171 -44z" />
    <glyph glyph-name=".null" horiz-adv-x="0" 
 />
    <glyph glyph-name="nonmarkingreturn" horiz-adv-x="333" 
 />
    <glyph glyph-name="glyph397" horiz-adv-x="0" 
 />
    <glyph glyph-name="glyph397" horiz-adv-x="0" 
 />
    <glyph glyph-name="uni0017" horiz-adv-x="182" 
 />
    <glyph glyph-name="space" unicode=" " horiz-adv-x="182" 
 />
    <glyph glyph-name="exclam" unicode="!" horiz-adv-x="155" 
d="M61 0l20 146h34l-20 -146h-34zM93 198q6 61 11 113.5t10.5 101.5t11 97t12.5 99q2 17 4.5 29.5t7.5 25.5h41q0 -13 -1 -25.5t-3 -29.5q-7 -51 -14.5 -99t-16 -97t-18.5 -101.5t-22 -113.5h-23z" />
    <glyph glyph-name="quotedbl" unicode="&#x22;" horiz-adv-x="240" 
d="M105 414l35 250h24l-35 -250h-24zM225 414l35 250h24l-35 -250h-24z" />
    <glyph glyph-name="numbersign" unicode="#" horiz-adv-x="482" 
d="M244 0l71 220h-133l-71 -220h-27l72 220h-102l7 25h103l58 175h-115l6 25h117l73 219h26l-73 -219h134l73 219h27l-73 -219h103l-6 -25h-105l-58 -175h116l-6 -25h-119l-71 -220h-27zM382 420h-133l-59 -175h134z" />
    <glyph glyph-name="dollar" unicode="$" horiz-adv-x="407" 
d="M192 0l10 74q-27 0 -52.5 4.5t-45 16t-31.5 30.5t-12 49q0 5 0.5 11t1.5 12l8 55h28l-7 -50q-1 -5 -1.5 -10t-0.5 -10q0 -25 10 -41t26.5 -25t39 -12.5t46.5 -3.5q30 0 56.5 4.5t47.5 17.5t35 36.5t20 61.5q1 6 1.5 12t0.5 11q0 33 -20 51t-50.5 28t-66 17t-66 19
t-50.5 33t-20 60q0 43 16 70.5t41.5 43.5t56.5 22.5t61 7.5l10 69h24l-10 -69q25 0 49 -3.5t42.5 -13.5t30 -27.5t11.5 -45.5v-10.5t-1 -10.5l-7 -46h-27l6 44q1 5 1 8.5v8.5q0 22 -9.5 36t-26 21.5t-37.5 10t-44 2.5q-27 0 -54.5 -4t-50.5 -15.5t-37.5 -33.5t-14.5 -58
q0 -33 20 -51.5t49 -27.5q38 -12 74.5 -20t65.5 -19.5t46.5 -32t17.5 -57.5q0 -47 -13 -79.5t-36 -53t-55.5 -30.5t-72.5 -13l-10 -74h-24z" />
    <glyph glyph-name="percent" unicode="%" horiz-adv-x="527" 
d="M118 602q7 47 35.5 64t66.5 17q32 0 55 -14t23 -50v-8t-1 -9l-26 -187q-7 -47 -35.5 -64t-64.5 -17q-35 0 -57.5 14t-22.5 51v7.5t1 8.5zM271 602q1 4 1 8v7q0 26 -15 35t-40 9q-30 0 -49 -12t-24 -47l-26 -187q-1 -4 -1 -7.5v-6.5q0 -26 15 -35.5t42 -9.5
q29 0 47.5 12.5t23.5 46.5zM43 -20l496 704h30l-496 -704h-30zM346 249q7 47 35.5 64t66.5 17q32 0 55 -14t23 -50v-8t-1 -9l-26 -187q-7 -47 -35.5 -64t-64.5 -17q-35 0 -57.5 14t-22.5 51v7.5t1 8.5zM499 249q1 4 1 8v7q0 26 -15 35t-40 9q-30 0 -49 -12t-24 -47l-26 -187
q-1 -4 -1 -7.5v-6.5q0 -26 15 -35.5t42 -9.5q29 0 47.5 12.5t23.5 46.5z" />
    <glyph glyph-name="ampersand" unicode="&#x26;" horiz-adv-x="477" 
d="M441 0l-78 93q-21 -32 -43.5 -53.5t-46.5 -34t-49 -17.5t-51 -5q-24 0 -46 6.5t-39.5 21t-28 36t-10.5 51.5q0 6 0.5 12.5t1.5 13.5l5 38q8 61 35.5 96.5t85.5 61.5q-29 36 -44.5 65t-15.5 67q0 15 3 33l4 34q5 45 17 76t32.5 49.5t50 27t70.5 8.5q67 0 93 -22t26 -78
q0 -14 -1 -30.5t-4 -35.5l-4 -27q-4 -28 -12.5 -50.5t-28.5 -42.5t-54 -40t-89 -42l143 -171l112 179h31l-126 -201l98 -119h-37zM381 515q2 17 3.5 31.5t1.5 27.5q0 43 -20.5 61t-74.5 18q-36 0 -60 -7t-39.5 -23t-24.5 -41t-14 -62l-5 -34q-2 -5 -2 -9v-9q0 -21 3 -37.5
t10 -32t18.5 -31.5t27.5 -36q51 21 83 38.5t50.5 35t26.5 35.5t11 40zM193 301q-26 -11 -44.5 -23.5t-31 -28t-20 -36.5t-11.5 -48l-6 -40q-1 -5 -1.5 -10.5t-0.5 -10.5q0 -25 8.5 -43t22.5 -29t33 -16.5t39 -5.5q43 0 85 23t81 82z" />
    <glyph glyph-name="quotesingle" unicode="'" horiz-adv-x="120" 
d="M105 414l35 250h24l-35 -250h-24z" />
    <glyph glyph-name="parenleft" unicode="(" horiz-adv-x="274" 
d="M237 -143q-64 78 -95.5 168t-31.5 189q0 68 14.5 136t45.5 133.5t78 127t112 117.5h30q-129 -119 -186.5 -250t-57.5 -265q0 -94 29.5 -184t92.5 -172h-31z" />
    <glyph glyph-name="parenright" unicode=")" horiz-adv-x="274" 
d="M-36 -143q125 120 186.5 254.5t61.5 273.5q0 91 -29.5 176t-95.5 167h31q67 -78 98 -164t31 -180q0 -71 -16.5 -141.5t-49 -138t-79 -130t-106.5 -117.5h-32z" />
    <glyph glyph-name="asterisk" unicode="*" horiz-adv-x="417" 
d="M373 338l-96 133l-95 -134l-20 14l98 133l-156 49l8 22l152 -51v165h24v-165l154 52l8 -23l-156 -49l99 -133z" />
    <glyph glyph-name="plus" unicode="+" horiz-adv-x="540" 
d="M272 124l29 208h-207l4 27h207l29 207h28l-29 -207h207l-4 -27h-207l-29 -208h-28z" />
    <glyph glyph-name="comma" unicode="," horiz-adv-x="247" 
d="M139 151h35l-32 -141q-5 -23 -12 -46t-15 -42.5t-18 -32t-22 -13.5z" />
    <glyph glyph-name="hyphen" unicode="-" horiz-adv-x="326" 
d="M89 300l3 24h232l-3 -24h-232z" />
    <glyph glyph-name="period" unicode="." horiz-adv-x="173" 
d="M69 0l21 151h35l-21 -151h-35z" />
    <glyph glyph-name="slash" unicode="/" horiz-adv-x="278" 
d="M0 0l343 664h28l-345 -664h-26z" />
    <glyph glyph-name="zero" unicode="0" horiz-adv-x="425" 
d="M108 518q7 46 25 77.5t44 50t59 26.5t71 8q32 0 60.5 -6.5t49.5 -21.5t33.5 -39.5t12.5 -60.5q0 -16 -3 -34l-52 -373q-6 -47 -25 -78t-46 -49.5t-60.5 -26.5t-67.5 -8q-33 0 -61.5 6t-49.5 21t-33 39t-12 60q0 16 3 36zM429 518q1 8 1.5 15.5t0.5 14.5q0 30 -9.5 50
t-27 32.5t-41 17.5t-50.5 5q-32 0 -60 -6.5t-49.5 -22t-36 -41.5t-19.5 -65l-52 -373q-3 -17 -3 -32q0 -59 36 -81t94 -22q30 0 57.5 6.5t49 22t36.5 41.5t21 65z" />
    <glyph glyph-name="one" unicode="1" horiz-adv-x="264" 
d="M193 0l71 509q1 8 1.5 15.5t0.5 14.5q0 30 -9.5 50t-26.5 32t-40 17t-50 5q-6 0 -11.5 -0.5t-10.5 -1.5l4 29q5 1 10.5 1.5t11.5 0.5q32 0 60 -6t49 -21t33 -39t12 -60q0 -16 -3 -35l-71 -511h-31z" />
    <glyph glyph-name="two" unicode="2" horiz-adv-x="407" 
d="M40 0l25 184q8 63 34 97t73 56q21 10 43.5 15.5t46 11.5t47 15t44.5 24q38 27 49 66t11 87q0 46 -24 71.5t-93 25.5q-26 0 -50 -3.5t-44 -14.5t-34 -31t-18 -53l-8 -57h-27l8 58q5 39 21.5 63.5t40 39t52.5 20t61 5.5q78 0 111.5 -26.5t33.5 -89.5t-17.5 -109.5
t-59.5 -74.5q-17 -11 -39 -19.5t-47 -16t-50.5 -15.5t-49.5 -18q-25 -11 -40.5 -26t-24.5 -32.5t-13.5 -35t-6.5 -33.5l-22 -157h294l-3 -27h-324z" />
    <glyph glyph-name="three" unicode="3" horiz-adv-x="399" 
d="M362 199q3 19 3 36q0 90 -91 90h-80l4 26h81q51 0 80.5 36t39.5 97l4 33q2 5 2 10.5v10.5q0 65 -30.5 90t-93.5 25q-32 0 -57 -6.5t-44 -22.5t-31 -42.5t-18 -66.5l-8 -55h-28l8 58q6 46 22 77.5t39 50t54 26.5t67 8q34 0 61.5 -6t47 -20.5t30.5 -38t11 -58.5
q0 -18 -3 -39l-4 -34q-10 -63 -39.5 -101t-80.5 -45q87 -9 87 -103q0 -17 -3 -36l-7 -54q-6 -46 -23.5 -77t-43.5 -50t-59.5 -27t-71.5 -8q-32 0 -58 6t-44 20t-27.5 36.5t-9.5 56.5q0 19 3 43l8 60h28l-8 -58q-3 -21 -3 -37q0 -58 30.5 -79t84.5 -21q31 0 59 6.5t49.5 22
t36 41.5t19.5 65z" />
    <glyph glyph-name="four" unicode="4" horiz-adv-x="368" 
d="M294 0l20 146h-269l4 31l306 487h30l-309 -491h243l27 194h28l-51 -367h-29z" />
    <glyph glyph-name="five" unicode="5" horiz-adv-x="412" 
d="M373 227q3 19 3 37q0 48 -24.5 70t-81.5 22q-28 0 -47.5 -2t-36 -7t-32.5 -15t-36 -26h-26l69 358h286l-4 -27h-257l-61 -303q16 13 31.5 22t33 15t39 8.5t49.5 2.5q70 0 99 -27.5t29 -82.5q0 -21 -3 -45l-11 -82q-6 -47 -23.5 -78t-43.5 -49.5t-59.5 -26.5t-70.5 -8
q-63 0 -101 26t-38 94q0 19 3 42l8 60h27l-8 -58q-3 -20 -3 -35q0 -58 32 -80t84 -22q34 0 62 6.5t48.5 22t33.5 42t19 66.5z" />
    <glyph glyph-name="six" unicode="6" horiz-adv-x="424" 
d="M408 139q-6 -45 -24 -75t-44.5 -48t-59.5 -25.5t-69 -7.5q-34 0 -63 6t-50.5 20.5t-33.5 38.5t-12 59q0 14 3 32l53 378q6 47 23.5 78.5t44 50t60 26.5t71.5 8q33 0 60 -6t46.5 -20.5t30.5 -38.5t11 -59q0 -18 -3 -39l-5 -39h-30l5 39q2 5 2 10v10q0 67 -30.5 91.5
t-90.5 24.5q-32 0 -59.5 -6.5t-49.5 -22t-36.5 -42t-19.5 -65.5l-28 -202q24 61 65.5 82t101.5 21q31 0 58.5 -5t48 -18t32.5 -36t12 -60q0 -17 -3 -38zM394 257q1 9 1.5 16.5t0.5 15.5q0 31 -9.5 51t-27 31.5t-41 16t-51.5 4.5q-29 0 -53.5 -6t-45 -20t-37 -38.5
t-28.5 -61.5l-18 -127q-2 -5 -2 -9.5v-8.5q0 -64 33.5 -87.5t96.5 -23.5q31 0 58.5 6t49 21t36 39.5t20.5 62.5z" />
    <glyph glyph-name="seven" unicode="7" horiz-adv-x="368" 
d="M135 0q14 91 41 183.5t63 176.5t77.5 155.5t83.5 120.5h-289l4 28h317l-4 -27q-43 -51 -84.5 -123.5t-76.5 -156.5t-61.5 -175.5t-39.5 -181.5h-31z" />
    <glyph glyph-name="eight" unicode="8" horiz-adv-x="421" 
d="M406 145q-6 -46 -23.5 -77t-44 -50t-60 -27t-71.5 -8q-35 0 -63.5 6.5t-49 21t-32 38.5t-11.5 60q0 16 3 36l7 54q8 64 40.5 99t83.5 40q-42 5 -61.5 33t-19.5 76q0 17 3 37l4 34q7 46 24 77.5t42 50t57.5 26.5t70.5 8q34 0 61.5 -6t47.5 -20.5t31 -38t11 -58.5
q-1 -9 -1 -18.5t-2 -20.5l-3 -27q-9 -64 -38 -104.5t-83 -48.5q87 -9 87 -103q0 -17 -3 -36zM383 199q3 19 3 37q0 48 -24.5 68.5t-81.5 20.5h-49q-66 0 -98.5 -28.5t-41.5 -97.5l-7 -54q-3 -17 -3 -31q0 -59 36.5 -81.5t93.5 -22.5q31 0 59 6.5t49.5 22t36.5 41.5t20 65z
M424 517q2 5 2 10v10q0 67 -31 91.5t-94 24.5q-32 0 -59 -6.5t-48 -22t-35 -42t-19 -65.5l-4 -33q-2 -8 -3 -15.5t-1 -15.5q0 -31 7.5 -51t23 -31t39.5 -15.5t57 -4.5q36 0 63.5 5.5t47 20.5t32 40.5t18.5 66.5z" />
    <glyph glyph-name="nine" unicode="9" horiz-adv-x="420" 
d="M404 356q-25 -60 -67 -81.5t-102 -21.5q-31 0 -58.5 5t-47.5 18.5t-32 37t-12 60.5q0 16 3 37l16 113q6 45 24.5 75t44.5 48t59 25.5t69 7.5t65.5 -7t50 -22.5t31.5 -42t11 -65.5v-9.5t-2 -9.5l-53 -379q-7 -47 -25 -78t-44.5 -50t-59.5 -26.5t-71 -7.5q-32 0 -59 6
t-46.5 20t-30.5 38t-11 59q0 18 3 39l7 49h29l-7 -49q-3 -18 -3 -33q0 -58 34 -80t88 -22q32 0 59.5 6.5t49.5 22t36.5 41.5t20.5 65zM427 524q1 8 1.5 15t0.5 13q0 29 -9.5 48.5t-26.5 31t-41 16.5t-53 5q-31 0 -59 -6t-50 -21t-36.5 -40t-19.5 -62l-15 -110q-3 -18 -3 -33
q0 -31 10 -50.5t27.5 -31t41 -15.5t51.5 -4q29 0 54 5.5t45.5 20t37 38.5t28.5 62z" />
    <glyph glyph-name="colon" unicode=":" horiz-adv-x="224" 
d="M94 0l21 151h35l-21 -151h-35zM141 339l21 150h35l-21 -150h-35z" />
    <glyph glyph-name="semicolon" unicode=";" horiz-adv-x="247" 
d="M166 339l21 150h35l-21 -150h-35zM139 151h35l-32 -141q-5 -23 -12 -46t-15 -42.5t-18 -32t-22 -13.5z" />
    <glyph glyph-name="less" unicode="&#x3c;" horiz-adv-x="540" 
d="M94 329l4 27l474 234l-4 -31l-441 -216l380 -216l-4 -31z" />
    <glyph glyph-name="equal" unicode="=" horiz-adv-x="540" 
d="M108 429l4 27h442l-4 -27h-442zM80 230l4 27h442l-4 -27h-442z" />
    <glyph glyph-name="greater" unicode="&#x3e;" horiz-adv-x="540" 
d="M61 96l4 31l443 216l-382 216l4 31l410 -234l-4 -27z" />
    <glyph glyph-name="question" unicode="?" horiz-adv-x="370" 
d="M184 209l4 28q3 18 8 32t16 26.5t30.5 26.5t50.5 34q29 18 48.5 36t31.5 41t17 52.5t5 69.5q0 49 -25.5 73.5t-93.5 24.5q-30 0 -55 -5.5t-44.5 -19.5t-33 -38t-18.5 -60l-9 -64h-28l9 64q6 44 21.5 73t39 46t54.5 24t68 7q82 0 113.5 -30t31.5 -88q0 -12 -1 -25.5
t-3 -28.5q-5 -34 -12.5 -58.5t-19.5 -44t-30.5 -35t-44.5 -30.5q-30 -18 -48.5 -31t-28.5 -24.5t-14.5 -22.5t-6.5 -26l-4 -27h-28zM152 0l20 146h34l-20 -146h-34z" />
    <glyph glyph-name="at" unicode="@" horiz-adv-x="509" 
d="M157 -102q-27 0 -49.5 5.5t-38 18t-24 33t-8.5 51.5v8t2 9l65 461q5 36 19 60t34 38.5t45.5 20.5t54.5 6h165q25 0 47 -5t38.5 -17t26 -31t9.5 -47q0 -6 -0.5 -12t-1.5 -13l-53 -374q-22 -8 -55 -15.5t-87 -7.5q-57 0 -87.5 24t-30.5 89v9.5t2 9.5l11 76q6 42 20 67.5
t33.5 40t44 19.5t51.5 5q45 0 70.5 -10t42.5 -25l12 90q1 6 1.5 11t0.5 10q0 46 -28.5 63.5t-69.5 17.5h-165q-23 0 -44 -5t-38 -17t-28.5 -31.5t-15.5 -48.5l-64 -458q-1 -6 -1.5 -11t-0.5 -10q0 -46 29 -63.5t70 -17.5h300l-4 -24h-300zM499 369q-16 15 -40.5 23.5
t-69.5 8.5q-24 0 -44.5 -4t-36 -16t-26.5 -33t-16 -55l-11 -73q-1 -7 -1.5 -13t-0.5 -12q0 -47 27 -65t69 -18q45 0 71.5 5.5t45.5 11.5z" />
    <glyph glyph-name="A" unicode="A" horiz-adv-x="425" 
d="M357 0l37 266h-291l-37 -266h-30l59 426q7 55 27.5 95t49 69t63.5 50.5t72 39.5q27 -16 52.5 -34.5t46 -43t32.5 -56.5t12 -75q0 -21 -3 -45l-59 -426h-31zM417 428q3 21 3 40q0 36 -9.5 63.5t-26 48.5t-38 37t-44.5 30q-31 -15 -60 -33.5t-52.5 -44t-40 -60t-23.5 -81.5
l-19 -135h291z" />
    <glyph glyph-name="B" unicode="B" horiz-adv-x="424" 
d="M43 0l93 664h210q32 0 53 -9t33 -24.5t17 -35.5t5 -42q0 -41 -7.5 -77.5t-23 -65t-39 -47.5t-56.5 -25q49 -8 70 -41.5t21 -85.5q0 -33 -7 -70t-25.5 -68.5t-51 -52t-82.5 -20.5h-210zM248 27q43 0 70.5 18t43 46t21.5 61.5t6 64.5q0 24 -5 43.5t-17 34t-32 22.5t-50 8
h-168l-42 -298h173zM289 351q39 0 65 16.5t41.5 43.5t22.5 60.5t7 68.5q0 20 -4 37.5t-14.5 31t-28 21t-44.5 7.5h-173l-40 -286h168z" />
    <glyph glyph-name="C" unicode="C" horiz-adv-x="404" 
d="M379 275h28l-18 -130q-6 -47 -22 -78t-39.5 -49.5t-54 -26.5t-65.5 -8q-33 0 -61.5 6t-49.5 21t-32.5 39t-11.5 60q0 16 3 36l52 373q6 46 24 77.5t44 50t59.5 26.5t70.5 8q31 0 56.5 -6t43.5 -20t28 -37t10 -57q0 -20 -3 -42l-19 -135h-28l19 135q3 19 3 36
q0 56 -30 77.5t-84 21.5q-65 0 -109.5 -29.5t-54.5 -105.5l-52 -373q-2 -5 -2 -9.5v-9.5q0 -66 32.5 -91t95.5 -25q31 0 56.5 6.5t44 22.5t31 42t17.5 64z" />
    <glyph glyph-name="D" unicode="D" horiz-adv-x="432" 
d="M43 0l93 664h176q31 0 58.5 -6t48 -22t32.5 -44.5t12 -73.5q0 -14 -1 -28t-3 -31l-38 -270q-8 -52 -27 -88t-46 -58.5t-60 -32.5t-69 -10h-176zM429 459q2 16 3 30t1 27q0 38 -9.5 62t-26.5 37t-40 17.5t-49 4.5h-146l-86 -610h146q31 0 58.5 8.5t50 27.5t38.5 50t22 76z
" />
    <glyph glyph-name="E" unicode="E" horiz-adv-x="324" 
d="M43 0l93 664h247l-4 -27h-217l-39 -275h205l-3 -27h-205l-44 -308h223l-3 -27h-253z" />
    <glyph glyph-name="F" unicode="F" horiz-adv-x="333" 
d="M43 0l93 664h263l-4 -27h-233l-39 -281h229l-4 -26h-229l-46 -330h-30z" />
    <glyph glyph-name="G" unicode="G" horiz-adv-x="418" 
d="M396 340h29l-46 -328q-26 -9 -66 -19t-107 -10q-32 0 -60 6t-48.5 20.5t-32.5 38.5t-12 60q0 16 3 36l52 374q6 46 24 77.5t44 50t59.5 26.5t70.5 8q31 0 56.5 -6t43.5 -20t28 -37t10 -57q0 -20 -3 -42l-13 -92h-28l13 92q3 19 3 36q0 56 -30 77.5t-84 21.5
q-64 0 -108.5 -29.5t-55.5 -105.5l-52 -374q-2 -5 -2 -9.5v-9.5q0 -33 8.5 -55.5t25 -35.5t40 -18.5t53.5 -5.5q54 0 86.5 7t55.5 15z" />
    <glyph glyph-name="H" unicode="H" horiz-adv-x="439" 
d="M365 0l45 323h-292l-45 -323h-30l93 664h30l-44 -314h292l44 314h30l-93 -664h-30z" />
    <glyph glyph-name="I" unicode="I" horiz-adv-x="116" 
d="M43 0l93 664h30l-93 -664h-30z" />
    <glyph glyph-name="J" unicode="J" horiz-adv-x="264" 
d="M286 664h31l-74 -525q-7 -47 -25 -77.5t-44.5 -49.5t-59 -26.5t-68.5 -7.5q-6 0 -11 0.5t-10 1.5l4 28q9 -3 21 -3q30 0 57.5 6.5t49 22t36 41.5t19.5 64z" />
    <glyph glyph-name="K" unicode="K" horiz-adv-x="435" 
d="M385 0l-265 345l-48 -345h-29l93 664h29l-42 -299l340 299h41l-355 -307l274 -357h-38z" />
    <glyph glyph-name="L" unicode="L" horiz-adv-x="318" 
d="M43 0l93 664h30l-90 -637h221l-3 -27h-251z" />
    <glyph glyph-name="M" unicode="M" horiz-adv-x="671" 
d="M601 0l72 514q1 7 1.5 13.5t0.5 12.5q0 55 -32 84t-86 29q-78 0 -120 -36l-86 -617h-29l86 614q-8 11 -23 18.5t-32.5 12t-35.5 6.5t-33 2q-38 0 -70 -7t-53 -15l-88 -631h-30l91 651q24 9 63.5 19t88.5 10q19 0 39.5 -3t39.5 -8t35 -13t25 -18q20 17 55 29.5t83 12.5
q64 0 103 -34t39 -101q0 -8 -0.5 -16t-1.5 -16l-72 -513h-30z" />
    <glyph glyph-name="N" unicode="N" horiz-adv-x="435" 
d="M365 0l72 519q1 8 1.5 15t0.5 15q0 30 -9.5 50t-26.5 32t-40 17t-50 5q-55 0 -91.5 -7t-60.5 -15l-88 -631h-30l91 651q26 9 70 19t113 10q31 0 59 -6t49 -21t33 -39t12 -60q0 -16 -3 -35l-72 -519h-30z" />
    <glyph glyph-name="O" unicode="O" horiz-adv-x="425" 
d="M108 518q7 46 25 77.5t44 50t59 26.5t71 8q32 0 60.5 -6.5t49.5 -21.5t33.5 -39.5t12.5 -60.5q0 -16 -3 -34l-52 -373q-6 -47 -25 -78t-46 -49.5t-60.5 -26.5t-67.5 -8q-33 0 -61.5 6t-49.5 21t-33 39t-12 60q0 16 3 36zM429 518q1 8 1.5 15.5t0.5 14.5q0 30 -9.5 50
t-27 32.5t-41 17.5t-50.5 5q-32 0 -60 -6.5t-49.5 -22t-36 -41.5t-19.5 -65l-52 -373q-3 -17 -3 -32q0 -59 36 -81t94 -22q30 0 57.5 6.5t49 22t36.5 41.5t21 65z" />
    <glyph glyph-name="P" unicode="P" horiz-adv-x="414" 
d="M43 0l93 664h198q71 0 98.5 -29t27.5 -95q0 -19 -1.5 -40.5t-5.5 -46.5q-8 -56 -19.5 -96t-32 -65.5t-51 -37.5t-75.5 -12h-168l-34 -242h-30zM273 267q38 0 63.5 11t42.5 33.5t27.5 57.5t17.5 83q3 23 5 42.5t2 36.5q0 57 -23.5 81.5t-82.5 24.5h-163l-52 -370h163z" />
    <glyph glyph-name="Q" unicode="Q" horiz-adv-x="425" 
d="M266 -102l-20 107q-5 -2 -10.5 -2h-10.5q-35 0 -66 5t-54 19t-36 38.5t-13 63.5q0 16 3 36l49 353q6 46 24 77.5t44.5 50t60 26.5t70.5 8q32 0 60.5 -6.5t49.5 -21.5t33.5 -39.5t12.5 -60.5q0 -16 -3 -34l-49 -353q-10 -72 -47.5 -108t-88.5 -48l22 -111h-31zM429 518
q1 8 1.5 15.5t0.5 14.5q0 30 -9.5 50t-27 32.5t-41 17.5t-50.5 5q-32 0 -60 -6.5t-49.5 -22t-36 -41.5t-19.5 -65l-49 -353q-3 -17 -3 -32q0 -59 36 -81t94 -22q30 0 57.5 6.5t49 22t36.5 41.5t21 65z" />
    <glyph glyph-name="R" unicode="R" horiz-adv-x="422" 
d="M355 0l28 206q3 18 3 33q0 37 -19 60t-67 23h-183l-45 -322h-29l93 664h210q33 0 54.5 -9.5t34 -25t17.5 -36.5t5 -44q0 -40 -8 -76.5t-23 -65t-37 -47.5t-50 -24q42 -7 59 -30.5t17 -65.5q0 -19 -3 -38l-28 -202h-29zM303 347q33 0 56.5 17t38.5 44t22 61.5t7 70.5
q0 20 -4.5 37.5t-15 31t-28.5 21t-45 7.5h-173l-41 -290h183z" />
    <glyph glyph-name="S" unicode="S" 
d="M396 466l8 59q2 5 2 10v10q0 62 -27 85t-84 23q-46 0 -77.5 -12t-51 -34.5t-28.5 -54t-9 -69.5q0 -25 7.5 -43.5t23 -32t39.5 -23.5t58 -19q39 -10 65 -22.5t42 -28.5t23 -37t7 -48q0 -13 -1.5 -27t-3.5 -30q-6 -40 -17 -74.5t-33.5 -60t-58.5 -40t-91 -14.5
q-69 0 -105.5 29t-36.5 96q0 19 3 40l13 88h28l-13 -87q-3 -20 -3 -35q0 -57 30.5 -80.5t88.5 -23.5q45 0 74.5 12t48 33t28 51t14.5 66q2 15 3 28t1 24q0 25 -6.5 43t-21 31t-38.5 23t-60 20q-72 19 -105 50t-33 90q0 40 10 76.5t33.5 63.5t61.5 43t95 16q66 0 100.5 -27.5
t34.5 -100.5v-10.5t-2 -11.5l-9 -64h-27z" />
    <glyph glyph-name="T" unicode="T" horiz-adv-x="349" 
d="M159 0l89 637h-146l4 27h322l-4 -27h-146l-89 -637h-30z" />
    <glyph glyph-name="U" unicode="U" horiz-adv-x="435" 
d="M454 664h31l-92 -652q-26 -9 -71 -19t-112 -10q-32 0 -60 6t-48.5 20.5t-32.5 38.5t-12 60q0 16 3 36l73 520h30l-73 -520q-2 -5 -2 -9.5v-9.5q0 -67 33.5 -91t92.5 -24q55 0 91.5 7t59.5 15z" />
    <glyph glyph-name="V" unicode="V" horiz-adv-x="425" 
d="M451 664h30l-60 -426q-8 -56 -28 -95.5t-48.5 -69t-63.5 -50.5t-72 -39q-27 16 -53 34.5t-46.5 43t-32.5 56.5t-12 74q0 11 1 22.5t3 23.5l60 426h30l-60 -429q-3 -23 -3 -41q0 -36 10 -63.5t26.5 -48t37.5 -36.5t44 -30q30 16 59 34.5t53 44t41 59.5t24 81z" />
    <glyph glyph-name="W" unicode="W" horiz-adv-x="646" 
d="M672 664h29l-60 -427q-8 -55 -26.5 -94.5t-43.5 -69t-55 -50.5t-61 -39q-22 15 -42 32.5t-35 39t-24 49t-9 63.5q-9 -35 -25.5 -63t-38.5 -50.5t-47 -39.5t-51 -31q-23 15 -44 33t-37.5 42t-26.5 54.5t-10 71.5q0 12 1 25t3 27l60 427h30l-60 -427q-3 -24 -3 -45
q0 -35 7.5 -61.5t20.5 -47.5t29.5 -37t34.5 -29q26 15 50.5 33.5t45 44t35.5 60t22 82.5l60 427h29l-60 -427q-2 -14 -3 -26t-1 -23q0 -34 7.5 -60t20.5 -46t30 -36t37 -29q25 15 49.5 34t45 45.5t35.5 61t21 79.5z" />
    <glyph glyph-name="X" unicode="X" horiz-adv-x="423" 
d="M273 336l138 -336h-32l-127 311q-52 -78 -103.5 -155.5t-105.5 -155.5h-32l230 339l-131 325h33l119 -299l203 299h31z" />
    <glyph glyph-name="Y" unicode="Y" horiz-adv-x="410" 
d="M190 0l33 236q-26 15 -49.5 33.5t-41.5 42.5t-28.5 55t-10.5 71q0 20 3 44l26 182h30l-26 -184q-3 -23 -3 -41q0 -36 10 -63.5t26.5 -48.5t37.5 -37t44 -30q31 16 60 34.5t52.5 44t40.5 60t24 81.5l26 184h30l-26 -182q-8 -52 -26.5 -90.5t-44.5 -67.5t-57.5 -50
t-65.5 -38l-33 -236h-31z" />
    <glyph glyph-name="Z" unicode="Z" horiz-adv-x="382" 
d="M27 0l4 30l372 607h-278l4 27h311l-3 -23l-374 -614h287l-3 -27h-320z" />
    <glyph glyph-name="bracketleft" unicode="[" horiz-adv-x="301" 
d="M78 -130l120 849h192l-5 -30h-160l-111 -790h160l-4 -29h-192z" />
    <glyph glyph-name="backslash" unicode="\" horiz-adv-x="278" 
d="M252 0l-159 664h28l157 -664h-26z" />
    <glyph glyph-name="bracketright" unicode="]" horiz-adv-x="295" 
d="M-6 -130l4 29h160l111 790h-161l5 30h192l-120 -849h-191z" />
    <glyph glyph-name="asciicircum" unicode="^" horiz-adv-x="329" 
d="M333 473l-80 165l-128 -165h-29l150 191h21l96 -191h-30z" />
    <glyph glyph-name="underscore" unicode="_" horiz-adv-x="337" 
d="M-15 -105l2 19h340l-2 -19h-340z" />
    <glyph glyph-name="grave" unicode="`" horiz-adv-x="302" 
d="M137 677l4 33l195 -155l-3 -21z" />
    <glyph glyph-name="a" unicode="a" horiz-adv-x="397" 
d="M376 348q1 8 1.5 15t0.5 14q0 54 -32.5 77t-84.5 23q-48 0 -81 -6t-67 -20l4 29q26 11 61 18t87 7q34 0 60.5 -6.5t45 -22.5t28 -41.5t9.5 -64.5v-10.5t-2 -10.5l-48 -338q-24 -12 -59.5 -20t-99.5 -8q-78 0 -117.5 27t-39.5 96v8.5t2 9.5l4 32q5 41 21.5 67t41 41
t54.5 20.5t62 5.5q48 0 83 -14t52 -28zM359 227q-23 17 -57 29t-73 12q-29 0 -54.5 -4.5t-45.5 -17t-33.5 -34.5t-18.5 -57l-4 -29q-1 -6 -1.5 -12t-0.5 -11q0 -51 35 -72t96 -21q52 0 81 6t49 15z" />
    <glyph glyph-name="b" unicode="b" horiz-adv-x="390" 
d="M376 139q-6 -45 -22.5 -75t-41 -48t-55 -25.5t-64.5 -7.5q-32 0 -58 6t-45 20t-29.5 37t-10.5 57q0 16 3 36l75 533h28l-29 -208q24 15 60.5 28t90.5 13q28 0 52 -5.5t41.5 -18.5t27.5 -36t10 -57q0 -18 -3 -39zM377 348q3 18 3 34q0 56 -30.5 75.5t-78.5 19.5
q-54 0 -89.5 -13t-58.5 -27l-42 -299q-2 -5 -2 -9.5v-9.5q0 -62 30 -85.5t88 -23.5q28 0 53 6t45 21t34 39.5t19 61.5z" />
    <glyph glyph-name="c" unicode="c" horiz-adv-x="383" 
d="M352 206h28l-9 -67q-6 -45 -22 -75t-40 -48t-54 -25.5t-63 -7.5q-32 0 -58 6t-44.5 20t-29 36.5t-10.5 56.5q0 16 3 37l30 210q6 45 22 75t39.5 48t54 25.5t66.5 7.5q66 0 102 -29t36 -105v-10.5t-2 -11.5l-9 -63h-28l9 63q1 8 1.5 15t0.5 14q0 28 -8.5 47t-23.5 30.5
t-35.5 16.5t-45.5 5q-29 0 -54.5 -6t-45.5 -21t-33 -39.5t-18 -61.5l-29 -200q-3 -21 -3 -37q0 -58 31 -80t86 -22q27 0 51.5 6t44 21t33 39.5t18.5 62.5z" />
    <glyph glyph-name="d" unicode="d" horiz-adv-x="400" 
d="M83 349q6 46 21.5 76.5t38 48t50.5 24.5t60 7q54 0 87.5 -13t53.5 -28l29 208h28l-93 -661q-26 -9 -65.5 -18.5t-102.5 -9.5q-30 0 -56 6t-44.5 19.5t-29 36.5t-10.5 57q0 17 3 37zM390 437q-18 14 -50 27t-86 13q-27 0 -51 -5.5t-43 -20t-32 -39.5t-18 -64l-29 -209
q-2 -5 -2 -9.5v-9.5q0 -63 29.5 -86.5t85.5 -23.5q52 0 84 6.5t55 14.5z" />
    <glyph glyph-name="e" unicode="e" 
d="M353 8q-25 -10 -66 -17.5t-95 -7.5q-30 0 -56 6t-45 19.5t-30 36.5t-11 58q0 16 3 36l30 210q6 45 22 75t39.5 48t54 25.5t66.5 7.5q30 0 56.5 -6t45.5 -20.5t30 -38t11 -58.5q0 -8 -0.5 -16t-1.5 -17l-17 -121h-295l-13 -87q-2 -5 -2 -9.5v-9.5q0 -64 31.5 -87.5
t89.5 -23.5q48 0 86.5 7t70.5 18zM378 349q1 8 1.5 14.5t0.5 12.5q0 56 -33 78.5t-85 22.5q-62 0 -101.5 -28.5t-49.5 -99.5l-14 -95h267z" />
    <glyph glyph-name="f" unicode="f" horiz-adv-x="258" 
d="M80 0l65 469h-59l4 23h59l7 49q6 40 20.5 67t35 43t45.5 22.5t52 6.5q14 0 22 -3l-4 -27q-5 2 -9.5 2.5t-12.5 0.5q-21 0 -41 -5.5t-36.5 -19t-28 -35t-15.5 -54.5l-6 -47h115l-4 -23h-115l-65 -469h-29z" />
    <glyph glyph-name="g" unicode="g" horiz-adv-x="393" 
d="M333 35q-23 -15 -60 -28t-91 -13q-30 0 -54 5.5t-41 19t-26.5 37.5t-9.5 62q0 8 1 16t3 16l28 199q6 45 22.5 75t40.5 48t54 25.5t65 7.5q69 0 106 -29.5t37 -105.5v-10.5t-2 -10.5l-63 -444q-6 -43 -22.5 -72t-40.5 -46.5t-55 -25t-65 -7.5q-29 0 -53 5.5t-41.5 19
t-27.5 36t-10 55.5q0 15 3 35l6 39h27l-6 -39q-2 -5 -2 -9.5v-8.5q0 -60 28 -83t80 -23q28 0 53.5 6t45.5 20.5t33.5 38.5t18.5 59zM378 349q1 8 1.5 15t0.5 13q0 57 -32 78.5t-86 21.5q-28 0 -53 -6t-45 -21t-34 -39.5t-19 -61.5l-28 -198q-3 -20 -3 -34q0 -28 8.5 -46.5
t23 -29t34.5 -15t44 -4.5q54 0 89.5 13t57.5 27z" />
    <glyph glyph-name="h" unicode="h" horiz-adv-x="405" 
d="M338 0l48 348q3 18 3 34q0 56 -30.5 75.5t-78.5 19.5q-54 0 -89.5 -13t-58.5 -27l-61 -437h-28l94 672h28l-29 -208q24 15 60.5 28t90.5 13q28 0 52 -5.5t41.5 -18.5t27.5 -36t10 -57q0 -18 -3 -39l-49 -349h-28z" />
    <glyph glyph-name="i" unicode="i" horiz-adv-x="125" 
d="M48 0l69 492h29l-69 -492h-29zM123 551l17 121h33l-17 -121h-33z" />
    <glyph glyph-name="j" unicode="j" horiz-adv-x="208" 
d="M201 492h28l-83 -586q-6 -41 -20.5 -67.5t-34.5 -42.5t-45 -22.5t-52 -6.5q-13 0 -22 3l4 26q5 -2 9 -2.5t12 -0.5q21 0 41 5.5t36.5 19t28 35.5t16.5 55zM206 551l17 121h33l-17 -121h-33z" />
    <glyph glyph-name="k" unicode="k" horiz-adv-x="409" 
d="M358 0l-252 256l-35 -256h-28l94 672h28l-56 -401l303 221h43l-320 -227l262 -265h-39z" />
    <glyph glyph-name="l" unicode="l" horiz-adv-x="114" 
d="M43 0l94 672h28l-94 -672h-28z" />
    <glyph glyph-name="m" unicode="m" horiz-adv-x="579" 
d="M512 0l52 375q1 5 1 9.5v9.5q0 42 -26 62.5t-71 20.5q-31 0 -57.5 -7t-42.5 -19l-63 -451h-28l63 449q-7 7 -19 12.5t-26.5 9t-29 5t-27.5 1.5q-32 0 -58.5 -5t-44.5 -11l-64 -461h-28l67 482q20 7 53.5 15t75.5 8q15 0 32.5 -2t33.5 -5.5t29 -9.5t21 -13q17 12 46.5 21
t69.5 9q57 0 90 -25.5t33 -79.5q0 -6 -0.5 -12t-1.5 -12l-52 -376h-28z" />
    <glyph glyph-name="n" unicode="n" horiz-adv-x="405" 
d="M338 0l48 348q1 8 1.5 15.5t0.5 15.5q0 55 -31.5 76.5t-82.5 21.5q-54 0 -85.5 -6.5t-53.5 -14.5l-64 -456h-28l67 477q25 9 64.5 18.5t102.5 9.5q67 0 103.5 -29t36.5 -106v-10.5t-2 -10.5l-49 -349h-28z" />
    <glyph glyph-name="o" unicode="o" 
d="M376 139q-6 -45 -23 -75t-41.5 -48t-55 -25.5t-64.5 -7.5q-32 0 -58 6t-44.5 20t-29 36.5t-10.5 56.5q0 17 3 37l30 210q6 45 22 75t39.5 48t54 25.5t66.5 7.5q30 0 56.5 -6t45.5 -20.5t30 -38t11 -58.5q0 -8 -0.5 -16t-1.5 -17zM378 349q1 8 1.5 14.5t0.5 12.5
q0 29 -9 48.5t-25 31t-37.5 16.5t-46.5 5q-30 0 -55 -6t-44.5 -21t-33 -39.5t-18.5 -61.5l-30 -210q-2 -5 -2 -9.5v-9.5q0 -62 29.5 -86t87.5 -24q28 0 53.5 6t45.5 21t34 39.5t19 62.5z" />
    <glyph glyph-name="p" unicode="p" horiz-adv-x="393" 
d="M1 -233l100 710q25 9 64.5 18.5t102.5 9.5q67 0 103.5 -29t36.5 -106v-10.5t-2 -10.5l-30 -210q-7 -47 -22.5 -77.5t-38 -48t-51 -24t-59.5 -6.5q-54 0 -87 12.5t-53 27.5l-36 -256h-28zM377 348q1 8 1.5 15.5t0.5 15.5q0 55 -31.5 76.5t-82.5 21.5q-52 0 -84.5 -6.5
t-54.5 -14.5l-57 -405q18 -15 50 -28t86 -13q27 0 50.5 5.5t42.5 20t32 39.5t18 64z" />
    <glyph glyph-name="q" unicode="q" horiz-adv-x="410" 
d="M296 -233l36 256q-24 -15 -61 -27.5t-91 -12.5q-28 0 -51.5 5t-41 18t-27.5 35t-10 57q0 18 3 41l30 210q6 45 22.5 75t40.5 48t54 25.5t65 7.5q69 0 106 -29.5t37 -105.5v-10.5t-2 -10.5l-82 -582h-28zM378 349q1 8 1.5 15t0.5 13q0 57 -32 78.5t-86 21.5q-28 0 -53 -6
t-45 -21t-34 -39.5t-19 -61.5l-30 -210q-3 -18 -3 -33q0 -29 8 -47.5t23 -29t35 -15t44 -4.5q54 0 89.5 13t58.5 28z" />
    <glyph glyph-name="r" unicode="r" horiz-adv-x="375" 
d="M43 0l67 477q23 9 60 18.5t97 9.5q30 0 55 -5t43.5 -17.5t29 -33.5t10.5 -52q0 -6 -0.5 -12.5t-1.5 -14.5l-9 -63h-26l8 59q1 6 1.5 12t0.5 11q0 50 -32 69t-81 19q-48 0 -79 -6.5t-51 -14.5l-64 -456h-28z" />
    <glyph glyph-name="s" unicode="s" horiz-adv-x="387" 
d="M373 347l6 44q1 5 1 8.5v7.5q0 24 -10.5 38t-27.5 21.5t-38 9.5t-43 2q-26 0 -53 -3.5t-50 -15.5t-37.5 -34t-14.5 -59q0 -31 16 -48t48 -28q36 -13 73 -20.5t67.5 -19t50 -32t19.5 -59.5q0 -50 -15 -84t-41 -54.5t-61.5 -29t-76.5 -8.5q-29 0 -55.5 4t-47.5 15.5
t-33.5 31t-12.5 50.5q0 5 0.5 10.5t1.5 11.5l8 55h28l-7 -50q-1 -5 -1.5 -10t-0.5 -10q0 -26 10.5 -42t27.5 -25t39 -12t45 -3q31 0 58 5t47.5 18.5t34.5 37t20 61.5q1 6 1.5 11.5t0.5 10.5q0 34 -20.5 52t-50.5 28t-66 16t-66 17.5t-50.5 32.5t-20.5 60q0 46 17 75t44 44.5
t60.5 21t66.5 5.5q27 0 53 -3.5t46.5 -13.5t33 -28t12.5 -47v-10t-1 -10l-7 -46h-28z" />
    <glyph glyph-name="t" unicode="t" horiz-adv-x="212" 
d="M90 0l65 469h-69l4 23h69l15 112h28l-15 -112h72l-4 -23h-72l-65 -469h-28z" />
    <glyph glyph-name="u" unicode="u" horiz-adv-x="407" 
d="M402 492h28l-68 -481q-24 -9 -64.5 -18.5t-103.5 -9.5q-30 0 -55.5 6t-44 19.5t-29 36.5t-10.5 57q0 17 3 37l50 353h28l-50 -353q-2 -5 -2 -9.5v-9.5q0 -63 29 -86.5t85 -23.5q51 0 84.5 6.5t54.5 14.5z" />
    <glyph glyph-name="v" unicode="v" horiz-adv-x="392" 
d="M399 492h28l-38 -267q-8 -55 -26.5 -94.5t-45 -69t-59 -50.5t-67.5 -39q-26 15 -49.5 33.5t-41.5 42.5t-28.5 55.5t-10.5 72.5q0 11 1 23.5t3 25.5l38 267h28l-38 -269q-2 -13 -3.5 -24t-0.5 -22q0 -36 8.5 -63t23.5 -47.5t34 -35.5t40 -28q30 15 57 33t49 43.5
t37.5 60.5t22.5 83z" />
    <glyph glyph-name="w" unicode="w" horiz-adv-x="571" 
d="M577 492h29l-41 -289q-7 -50 -23.5 -86.5t-38.5 -63t-48.5 -46t-53.5 -35.5q-41 26 -69 63.5t-28 100.5q-18 -64 -57.5 -101.5t-84.5 -62.5q-20 13 -39 29.5t-33.5 38t-23 49.5t-8.5 65q0 11 1 23t3 26l41 289h28l-42 -293q-3 -23 -3 -42q0 -60 23.5 -95.5t55.5 -58.5
q22 13 43 29t39 38.5t31.5 53.5t19.5 75l42 293h28l-41 -292q-2 -13 -3.5 -24t-0.5 -22q0 -30 6.5 -53.5t18 -41.5t26 -31.5t31.5 -24.5q21 13 42 30t38.5 40t30.5 54t19 72z" />
    <glyph glyph-name="x" unicode="x" horiz-adv-x="378" 
d="M238 249l128 -249h-32l-114 228l-178 -228h-31l196 251l-122 241h32l110 -221l170 221h31z" />
    <glyph glyph-name="y" unicode="y" horiz-adv-x="402" 
d="M337 35q-23 -15 -60 -28t-91 -13q-27 0 -51 5t-41.5 18.5t-27.5 35.5t-10 57q0 17 3 40l48 342h29l-48 -341q-3 -20 -3 -34q0 -28 8.5 -46.5t23 -29t34.5 -15t44 -4.5q54 0 89 13t57 27l61 430h29l-83 -587q-6 -43 -22.5 -72t-40.5 -46.5t-55 -25t-65 -7.5
q-29 0 -53.5 5.5t-42 19t-27.5 36t-10 55.5q0 15 3 35l6 39h27l-6 -39q-2 -5 -2 -9.5v-8.5q0 -60 28 -83t81 -23q28 0 53.5 6t45 20.5t33 38.5t18.5 59z" />
    <glyph glyph-name="z" unicode="z" horiz-adv-x="359" 
d="M25 0l3 26l329 441h-253l4 25h288l-3 -21l-332 -446h275l-3 -25h-308z" />
    <glyph glyph-name="braceleft" unicode="{" horiz-adv-x="309" 
d="M243 -131q-39 0 -65 5.5t-41 17.5t-21 30t-6 42q0 28 6 63l27 151q2 11 2 21t1 18q0 35 -15 50t-50 15l4 26q44 0 63.5 23.5t27.5 81.5q8 78 13 135.5t21 96t50.5 57t102.5 18.5h22l-4 -25h-19q-42 0 -67 -8t-39.5 -24t-21.5 -41t-11 -58q-6 -44 -9.5 -89.5t-12 -84
t-26.5 -64.5t-52 -31q54 -11 54 -80q0 -24 -5.5 -58t-12 -69.5t-12 -67t-5.5 -49.5q0 -40 22 -58.5t86 -18.5h19l-4 -25h-22z" />
    <glyph glyph-name="bar" unicode="|" horiz-adv-x="202" 
d="M68 -125l121 861h29l-121 -861h-29z" />
    <glyph glyph-name="braceright" unicode="}" horiz-adv-x="311" 
d="M5 -131l4 25h19q41 0 66 8t40 24t22 40.5t12 57.5q6 48 9.5 94.5t12 83.5t26 62t51.5 31q-30 5 -41.5 27t-11.5 62v9.5t2 9.5q4 28 9.5 59.5t10.5 60.5t8.5 53.5t3.5 39.5q0 40 -22 59.5t-86 19.5h-19l4 25h23q39 0 64 -5.5t40 -17t21 -29t6 -41.5q0 -14 -2 -30t-4 -35
q-6 -28 -11 -60t-9 -60t-6 -47.5t-2 -21.5q0 -35 14.5 -50t49.5 -15l-4 -26q-22 0 -37 -5.5t-25.5 -17.5t-17 -32t-10.5 -49q-12 -79 -16.5 -137t-19 -96.5t-48 -57t-103.5 -18.5h-23z" />
    <glyph glyph-name="asciitilde" unicode="~" horiz-adv-x="567" 
d="M564 332q-34 -35 -68.5 -51t-79.5 -16q-29 0 -52 11t-45.5 23.5t-46 23.5t-53.5 11q-39 0 -71.5 -19t-63.5 -54l5 33q24 25 57 46t76 21q31 0 56.5 -10.5t48.5 -23.5t45.5 -23.5t48.5 -10.5q40 0 75.5 16t72.5 55z" />
    <glyph glyph-name="uni00A0" unicode="&#xa0;" horiz-adv-x="182" 
 />
    <glyph glyph-name="exclamdown" unicode="&#xa1;" horiz-adv-x="155" 
d="M187.004 664l-19.999 -145.991h-33.998l19.999 145.991h33.998zM155.006 466.012q-6 -60.9961 -11 -113.493q-4.99902 -52.4961 -10.499 -101.493q-5.49902 -48.9971 -10.999 -96.9941t-12.499 -98.9941q-2 -16.999 -4.5 -29.498t-7.5 -25.498h-40.9971
q0 12.999 1 25.498t3 29.498q6.99902 50.9971 14.499 98.9941q7.49902 47.9971 15.999 96.9941q8.49902 48.9971 18.499 101.493q9.99902 52.4971 21.998 113.493h22.999z" />
    <glyph glyph-name="cent" unicode="&#xa2;" horiz-adv-x="390" 
d="M184 0l10 74q-29 1 -53 7.5t-41 20.5t-26 36.5t-9 54.5q0 16 3 37l29 210q6 42 20.5 71.5t36.5 47.5t51 26.5t62 9.5l10 69h25l-10 -69q56 -2 91 -29t35 -90q0 -17 -3 -36l-9 -63h-28l9 63q1 8 1.5 15.5t0.5 14.5q0 28 -8.5 46.5t-23.5 30t-35.5 16.5t-45.5 5
q-30 0 -55 -6t-44.5 -21t-33 -39.5t-18.5 -61.5l-29 -210q-2 -5 -2 -9.5v-9.5q0 -62 29.5 -86t87.5 -24q27 0 51.5 6t44 21t33 39.5t18.5 62.5l9 67h28l-9 -67q-6 -43 -21 -72t-37 -47.5t-50 -27t-59 -9.5l-10 -74h-25z" />
    <glyph glyph-name="sterling" unicode="&#xa3;" horiz-adv-x="418" 
d="M392 15q-14 -14 -31.5 -23t-40.5 -9q-17 0 -31.5 5.5t-29.5 12t-32.5 13t-41.5 8.5q-16 -18 -38.5 -28.5t-53.5 -10.5t-57 17l3 27q27 -18 55 -18q30 0 51 12.5t33.5 32.5t18.5 46.5t6 54.5q0 43 -14 74t-32 61h-78l3 21h66q-17 27 -28.5 58t-11.5 76q0 11 0.5 22t2.5 23
q7 46 19.5 81.5t34.5 59.5t55 36.5t80 12.5q33 0 60 -5.5t45.5 -20t29 -39t10.5 -62.5v-10t-2 -10l-9 -67h-28l9 62q1 7 1.5 13.5t0.5 12.5q0 29 -9.5 48t-25.5 30.5t-38 16t-47 4.5q-39 0 -66 -10t-45.5 -30t-29 -50.5t-16.5 -72.5q-3 -24 -3 -45q0 -45 12 -76t29 -58h212
l-3 -21h-200q17 -28 30 -57.5t13 -72.5q0 -30 -7 -62t-24 -56q24 -3 42 -8.5t32.5 -11.5t27 -10t25.5 -4q20 0 36 7t33 27z" />
    <glyph glyph-name="currency" unicode="&#xa4;" horiz-adv-x="505" 
d="M461 140l-55 65q-60 -48 -133 -48q-74 0 -119 48l-73 -65l-17 19l74 64q-32 41 -32 98q0 46 18 85.5t48 69.5l-54 63l23 19l52 -63q60 48 134 48q37 0 67 -13t53 -36l72 64l17 -19l-74 -63q16 -22 25 -47t9 -54q0 -45 -19.5 -84t-49.5 -68l57 -64zM473 350q1 6 1.5 12
t0.5 12q0 31 -11 58.5t-31.5 47.5t-48 31.5t-60.5 11.5q-39 0 -74.5 -16t-63 -43t-44 -63t-16.5 -76q0 -32 11 -58.5t31 -46.5t47.5 -31t60.5 -11q36 0 69.5 13.5t60 36.5t44.5 54.5t23 67.5z" />
    <glyph glyph-name="yen" unicode="&#xa5;" horiz-adv-x="425" 
d="M241 94l-13 -94h-31l13 94h-161l4 27h161l14 103h-161l4 27h161l7 49q-26 16 -49.5 34.5t-41.5 42.5t-28.5 54.5t-10.5 71.5q0 20 3 44l17 117h30l-17 -120q-3 -23 -3 -41q0 -36 10 -63.5t26.5 -48.5t37.5 -37t44 -29q31 15 60 33.5t52.5 44t40.5 60t24 81.5l17 120h30
l-17 -117q-8 -53 -26.5 -91t-44.5 -66.5t-57.5 -50t-65.5 -39.5l-7 -49h160l-4 -27h-160l-14 -103h160l-4 -27h-160z" />
    <glyph glyph-name="brokenbar" unicode="&#xa6;" horiz-adv-x="345" 
d="M139 -125l52 372h29l-52 -372h-29zM212 397l48 339h29l-48 -339h-29z" />
    <glyph glyph-name="section" unicode="&#xa7;" horiz-adv-x="414" 
d="M49 76h27l-7 -54q-1 -6 -1.5 -11.5t-0.5 -10.5q0 -26 9.5 -42t26 -25t38.5 -12.5t46 -3.5q28 0 54.5 4t48 17.5t37 38t21.5 65.5q1 7 1.5 13t0.5 12q0 35 -20 53.5t-50.5 29.5t-65.5 19t-65.5 20.5t-50.5 34.5t-20 62q0 60 27.5 96.5t69.5 51.5q-25 13 -41 34t-16 57
q0 49 18.5 79.5t47 47t62.5 22.5t65 6q26 0 51 -3.5t45 -14t32 -29t12 -49.5q0 -5 -0.5 -11t-1.5 -13l-7 -49h-27l7 47q1 5 1 9v9q0 24 -9.5 39.5t-25.5 23.5t-37 11t-44 3q-26 0 -53.5 -4t-50.5 -17.5t-38 -38t-15 -64.5q0 -29 12 -45t32 -25.5t45.5 -15.5t52.5 -14
q28 -9 51.5 -17.5t40 -21.5t26 -32t9.5 -48q0 -55 -21 -97t-56 -62q17 -14 27.5 -33.5t10.5 -49.5q0 -6 -0.5 -12t-1.5 -13q-12 -84 -62.5 -118t-131.5 -34q-27 0 -53.5 4t-46.5 15.5t-32.5 31.5t-12.5 53q0 5 0.5 11.5t1.5 13.5zM318 166q13 7 25.5 18.5t23 28.5t17 39
t6.5 50q0 33 -17.5 52t-44.5 30t-59.5 19t-61.5 19q-19 -5 -36.5 -15t-31.5 -25.5t-22.5 -38.5t-8.5 -53q0 -35 18.5 -53.5t48.5 -30t67.5 -19.5t75.5 -21z" />
    <glyph glyph-name="dieresis" unicode="&#xa8;" horiz-adv-x="365" 
d="M149 554l19 133h38l-19 -133h-38zM331 554l19 133h38l-19 -133h-38z" />
    <glyph glyph-name="ordfeminine" unicode="&#xaa;" horiz-adv-x="248" 
d="M253 482q1 3 1 15q0 26 -15.5 37.5t-41.5 11.5q-25 0 -44 -4t-41 -13l4 27q32 17 85 17q35 0 58 -14.5t23 -54.5q0 -5 -0.5 -10t-1.5 -11l-25 -184q-15 -8 -35.5 -13t-55.5 -5q-42 0 -66 15t-24 50v7.5t1 8.5l3 18q7 47 35.5 62t67.5 15q23 0 39 -5.5t27 -12.5zM244 415
q-11 8 -29 13t-35 5q-29 0 -49.5 -10t-25.5 -44l-2 -16q-1 -3 -1 -11q0 -25 18 -35t48 -10q26 0 39 2t23 6z" />
    <glyph glyph-name="guillemotleft" unicode="&#xab;" horiz-adv-x="384" 
d="M67 317l155 174l14 -20l-139 -154l95 -154l-19 -18zM259 317l155 174l14 -20l-139 -154l95 -154l-19 -18z" />
    <glyph glyph-name="logicalnot" unicode="&#xac;" horiz-adv-x="595" 
d="M510 0l64 459h-459l5 33h491l-69 -492h-32z" />
    <glyph glyph-name="macron" unicode="&#xaf;" horiz-adv-x="404" 
d="M138 620l3 25h301l-3 -25h-301z" />
    <glyph glyph-name="degree" unicode="&#xb0;" horiz-adv-x="393" 
d="M244 355q-63 0 -90.5 34t-27.5 88q0 40 10 75.5t30 62t51 42t72 15.5q64 0 92 -34.5t28 -88.5q0 -39 -10.5 -74t-31 -61.5t-51.5 -42.5t-72 -16zM247 375q34 0 60.5 14t44 37.5t26.5 54.5t9 65q0 46 -23.5 76t-77.5 30q-35 0 -61 -14t-43.5 -37t-26 -54.5t-8.5 -65.5
q0 -46 23 -76t77 -30z" />
    <glyph glyph-name="plusminus" unicode="&#xb1;" horiz-adv-x="540" 
d="M272 124l29 208h-207l4 27h207l29 207h28l-29 -207h207l-4 -27h-207l-29 -208h-28zM57 53l4 27h442l-4 -27h-442z" />
    <glyph glyph-name="uni00B2" unicode="&#xb2;" horiz-adv-x="235" 
d="M81 343l13 89q5 34 19.5 51.5t33 27t39 15.5t37.5 15.5t28 27t11 51.5q0 18 -10 29.5t-41 11.5q-23 0 -42.5 -7.5t-23.5 -36.5l-4 -29h-22l4 30q5 38 31 51.5t58 13.5q38 0 55.5 -13.5t17.5 -45.5q0 -26 -4 -44t-13 -30.5t-23.5 -21.5t-35.5 -16q-13 -5 -31 -11t-29 -12
q-18 -10 -23.5 -28t-7.5 -37l-8 -59h139l-3 -22h-165z" />
    <glyph glyph-name="uni00B3" unicode="&#xb3;" horiz-adv-x="231" 
d="M235 445q1 5 1 9v8q0 22 -10 31t-32 9h-35l3 20h36q22 0 37 15.5t18 44.5l2 19q1 5 1 9v8q0 25 -13.5 34t-39.5 9q-30 0 -46 -12.5t-21 -49.5l-4 -26h-23l4 29q7 48 30.5 64.5t62.5 16.5q35 0 55 -13t20 -48v-10t-1 -10l-2 -20q-3 -29 -18.5 -47.5t-39.5 -22.5
q41 -6 41 -50v-8.5t-1 -8.5l-4 -30q-6 -45 -32.5 -63t-66.5 -18q-34 0 -53 13t-19 48q0 5 0.5 10t1.5 10l4 30h23l-4 -28q-1 -5 -1 -8.5v-7.5q0 -26 13 -35.5t38 -9.5q29 0 47.5 12.5t23.5 46.5z" />
    <glyph glyph-name="acute" unicode="&#xb4;" horiz-adv-x="302" 
d="M117 534l3 21l237 155l-4 -33z" />
    <glyph glyph-name="mu" unicode="&#xb5;" horiz-adv-x="409" 
d="M406 492h28l-68 -481q-24 -9 -63 -18.5t-94 -9.5q-54 0 -87.5 16t-43.5 56l-40 -288h-28l102 725h28l-50 -351q-2 -5 -2 -9.5v-9.5q0 -64 29.5 -88t84.5 -24q51 0 84.5 6.5t54.5 14.5z" />
    <glyph glyph-name="mu" unicode="&#x3bc;" horiz-adv-x="409" 
d="M406 492h28l-68 -481q-24 -9 -63 -18.5t-94 -9.5q-54 0 -87.5 16t-43.5 56l-40 -288h-28l102 725h28l-50 -351q-2 -5 -2 -9.5v-9.5q0 -64 29.5 -88t84.5 -24q51 0 84.5 6.5t54.5 14.5z" />
    <glyph glyph-name="paragraph" unicode="&#xb6;" horiz-adv-x="495" 
d="M376 -100l105 741h-147l-105 -741h-24l69 491h-62q-88 0 -88 98q0 91 35 133t95 42h294l-3 -23h-41l-105 -741h-23z" />
    <glyph glyph-name="periodcentered" unicode="&#xb7;" horiz-adv-x="173" 
d="M102 240l21 151h35l-21 -151h-35z" />
    <glyph glyph-name="cedilla" unicode="&#xb8;" horiz-adv-x="176" 
d="M77 -34h32l-20 -81q-6 -22 -12.5 -44.5t-14.5 -40.5t-16.5 -30t-18.5 -13z" />
    <glyph glyph-name="uni00B9" unicode="&#xb9;" horiz-adv-x="162" 
d="M149 343l36 254q0 3 0.5 6t0.5 6q0 26 -16 36t-40 10q-8 0 -11 -1l3 24q3 0 5.5 0.5t6.5 0.5q32 0 55 -14t23 -50v-8t-1 -9l-36 -255h-26z" />
    <glyph glyph-name="ordmasculine" unicode="&#xba;" horiz-adv-x="245" 
d="M265 370q-8 -51 -37.5 -70t-67.5 -19q-35 0 -58 14.5t-23 53.5q0 5 0.5 10t1.5 11l15 113q7 52 36.5 71t68.5 19q34 0 57 -15t23 -54v-10.5t-1 -10.5zM254 483q1 4 1 7.5v6.5q0 28 -16.5 38.5t-41.5 10.5q-29 0 -49.5 -13.5t-25.5 -49.5l-15 -113q-1 -3 -1 -15
q0 -27 16 -37.5t42 -10.5t48 13.5t27 49.5z" />
    <glyph glyph-name="guillemotright" unicode="&#xbb;" horiz-adv-x="384" 
d="M213 317l-154 -172l-15 18l139 154l-95 154l20 20zM405 317l-154 -172l-15 18l139 154l-95 154l20 20z" />
    <glyph glyph-name="onequarter" unicode="&#xbc;" horiz-adv-x="512" 
d="M196 343l36 254q0 3 0.5 6t0.5 6q0 26 -16 36t-40 10q-8 0 -11 -1l3 24q3 0 5.5 0.5t6.5 0.5q32 0 55 -14t23 -50v-8t-1 -9l-36 -255h-26zM31 -20l496 704h30l-496 -704h-30zM430 -10l10 70h-133l3 25l147 237h25l-149 -239h110l13 90h23l-26 -183h-23z" />
    <glyph glyph-name="onehalf" unicode="&#xbd;" horiz-adv-x="518" 
d="M196 343l36 254q0 3 0.5 6t0.5 6q0 26 -16 36t-40 10q-8 0 -11 -1l3 24q3 0 5.5 0.5t6.5 0.5q32 0 55 -14t23 -50v-8t-1 -9l-36 -255h-26zM31 -20l496 704h30l-496 -704h-30zM314 -10l13 89q5 34 19.5 51.5t33 27t39 15.5t37.5 15.5t28 27t11 51.5q0 18 -10 29.5
t-41 11.5q-23 0 -42.5 -7.5t-23.5 -36.5l-4 -29h-22l4 30q5 38 31 51.5t58 13.5q38 0 55.5 -13.5t17.5 -45.5q0 -26 -4 -44t-13 -30.5t-23.5 -21.5t-35.5 -16q-13 -5 -31 -11t-29 -12q-18 -10 -23.5 -28t-7.5 -37l-8 -59h139l-3 -22h-165z" />
    <glyph glyph-name="threequarters" unicode="&#xbe;" horiz-adv-x="512" 
d="M253 445q1 5 1 9v8q0 22 -10 31t-32 9h-35l3 20h36q22 0 37 15.5t18 44.5l2 19q1 5 1 9v8q0 25 -13.5 34t-39.5 9q-30 0 -46 -12.5t-21 -49.5l-4 -26h-23l4 29q7 48 30.5 64.5t62.5 16.5q35 0 55 -13t20 -48v-10t-1 -10l-2 -20q-3 -29 -18.5 -47.5t-39.5 -22.5
q41 -6 41 -50v-8.5t-1 -8.5l-4 -30q-6 -45 -32.5 -63t-66.5 -18q-34 0 -53 13t-19 48q0 5 0.5 10t1.5 10l4 30h23l-4 -28q-1 -5 -1 -8.5v-7.5q0 -26 13 -35.5t38 -9.5q29 0 47.5 12.5t23.5 46.5zM31 -20l496 704h30l-496 -704h-30zM420 -10l10 70h-133l3 25l147 237h25
l-149 -239h110l13 90h23l-26 -183h-23z" />
    <glyph glyph-name="questiondown" unicode="&#xbf;" horiz-adv-x="370" 
d="M280.012 455.013l-4 -27.998q-3 -17.999 -8 -31.998q-4.99902 -13.999 -15.999 -26.499q-10.999 -12.499 -30.498 -26.498t-50.4971 -33.998q-28.998 -17.999 -48.4971 -35.998q-19.498 -17.998 -31.498 -40.9971q-11.999 -22.999 -16.999 -52.4971
q-4.99902 -29.498 -4.99902 -69.4951q0 -48.9971 25.498 -73.4961q25.499 -24.498 93.4941 -24.498q29.998 0 54.9971 5.49902q24.998 5.5 44.4971 19.499t32.998 37.998q13.499 23.998 18.499 59.9961l8.99902 63.9961h27.999l-9 -63.9961q-6 -43.9971 -21.499 -72.9951
t-38.9971 -45.9971q-23.499 -16.999 -54.4971 -23.999t-67.9951 -7q-81.9951 0 -113.493 29.999q-31.498 29.998 -31.498 87.9941q0 11.999 0.999023 25.499q1 13.499 3 28.498q5 33.998 12.5 58.4961q7.49902 24.499 19.498 43.9971q12 19.499 30.498 34.998
q18.499 15.499 44.498 30.498q29.998 17.999 48.4971 30.998q18.498 12.999 28.498 24.499q9.99902 11.499 14.499 22.498q4.5 11 6.5 25.999l3.99902 26.998h27.999zM312.01 664l-19.999 -145.991h-33.998l19.999 145.991h33.998z" />
    <glyph glyph-name="Agrave" unicode="&#xc0;" horiz-adv-x="425" 
d="M357 0l37 266h-291l-37 -266h-30l59 426q7 55 27.5 95t49 69t63.5 50.5t72 39.5q27 -16 52.5 -34.5t46 -43t32.5 -56.5t12 -75q0 -21 -3 -45l-59 -426h-31zM417 428q3 21 3 40q0 36 -9.5 63.5t-26 48.5t-38 37t-44.5 30q-31 -15 -60 -33.5t-52.5 -44t-40 -60t-23.5 -81.5
l-19 -135h291zM203 849l4 33l195 -155l-3 -21z" />
    <glyph glyph-name="Aacute" unicode="&#xc1;" horiz-adv-x="425" 
d="M357 0l37 266h-291l-37 -266h-30l59 426q7 55 27.5 95t49 69t63.5 50.5t72 39.5q27 -16 52.5 -34.5t46 -43t32.5 -56.5t12 -75q0 -21 -3 -45l-59 -426h-31zM417 428q3 21 3 40q0 36 -9.5 63.5t-26 48.5t-38 37t-44.5 30q-31 -15 -60 -33.5t-52.5 -44t-40 -60t-23.5 -81.5
l-19 -135h291zM223 706l3 21l237 155l-4 -33z" />
    <glyph glyph-name="Acircumflex" unicode="&#xc2;" horiz-adv-x="425" 
d="M357 0l37 266h-291l-37 -266h-30l59 426q7 55 27.5 95t49 69t63.5 50.5t72 39.5q27 -16 52.5 -34.5t46 -43t32.5 -56.5t12 -75q0 -21 -3 -45l-59 -426h-31zM417 428q3 21 3 40q0 36 -9.5 63.5t-26 48.5t-38 37t-44.5 30q-31 -15 -60 -33.5t-52.5 -44t-40 -60t-23.5 -81.5
l-19 -135h291zM468 723l-130 163l-176 -163l-11 13l175 172h30l127 -172z" />
    <glyph glyph-name="Atilde" unicode="&#xc3;" horiz-adv-x="425" 
d="M357 0l37 266h-291l-37 -266h-30l59 426q7 55 27.5 95t49 69t63.5 50.5t72 39.5q27 -16 52.5 -34.5t46 -43t32.5 -56.5t12 -75q0 -21 -3 -45l-59 -426h-31zM417 428q3 21 3 40q0 36 -9.5 63.5t-26 48.5t-38 37t-44.5 30q-31 -15 -60 -33.5t-52.5 -44t-40 -60t-23.5 -81.5
l-19 -135h291zM173 792l3 25h301l-3 -25h-301z" />
    <glyph glyph-name="Adieresis" unicode="&#xc4;" horiz-adv-x="425" 
d="M357 0l37 266h-291l-37 -266h-30l59 426q7 55 27.5 95t49 69t63.5 50.5t72 39.5q27 -16 52.5 -34.5t46 -43t32.5 -56.5t12 -75q0 -21 -3 -45l-59 -426h-31zM417 428q3 21 3 40q0 36 -9.5 63.5t-26 48.5t-38 37t-44.5 30q-31 -15 -60 -33.5t-52.5 -44t-40 -60t-23.5 -81.5
l-19 -135h291zM203 726l19 133h38l-19 -133h-38zM385 726l19 133h38l-19 -133h-38z" />
    <glyph glyph-name="Aring" unicode="&#xc5;" horiz-adv-x="425" 
d="M357 0l37 266h-291l-37 -266h-30l59 426q7 55 27.5 95t49 69t63.5 50.5t72 39.5q27 -16 52.5 -34.5t46 -43t32.5 -56.5t12 -75q0 -21 -3 -45l-59 -426h-31zM417 428q3 21 3 40q0 36 -9.5 63.5t-26 48.5t-38 37t-44.5 30q-31 -15 -60 -33.5t-52.5 -44t-40 -60t-23.5 -81.5
l-19 -135h291zM309 696q-83 0 -83 73q0 57 28 88t82 31q45 0 64.5 -19.5t19.5 -54.5q0 -118 -111 -118zM312 713q90 0 90 98q0 29 -16 44.5t-52 15.5q-42 0 -66 -25t-24 -73q0 -60 68 -60z" />
    <glyph glyph-name="AE" unicode="&#xc6;" horiz-adv-x="512" 
d="M258 0l37 266h-192l-37 -266h-30l59 426q8 58 29 102.5t51.5 74.5t68.5 45.5t80 15.5h247l-4 -27h-191l-39 -275h179l-3 -27h-179l-44 -308h197l-3 -27h-226zM347 637h-27q-36 0 -68.5 -14t-58.5 -40.5t-43.5 -66t-24.5 -90.5l-18 -133h192z" />
    <glyph glyph-name="Ccedilla" unicode="&#xc7;" horiz-adv-x="404" 
d="M379 275h28l-18 -130q-6 -47 -22 -78t-39.5 -49.5t-54 -26.5t-65.5 -8q-33 0 -61.5 6t-49.5 21t-32.5 39t-11.5 60q0 16 3 36l52 373q6 46 24 77.5t44 50t59.5 26.5t70.5 8q31 0 56.5 -6t43.5 -20t28 -37t10 -57q0 -20 -3 -42l-19 -135h-28l19 135q3 19 3 36
q0 56 -30 77.5t-84 21.5q-65 0 -109.5 -29.5t-54.5 -105.5l-52 -373q-2 -5 -2 -9.5v-9.5q0 -66 32.5 -91t95.5 -25q31 0 56.5 6.5t44 22.5t31 42t17.5 64zM191 -34h32l-20 -81q-6 -22 -12.5 -44.5t-14.5 -40.5t-16.5 -30t-18.5 -13z" />
    <glyph glyph-name="Egrave" unicode="&#xc8;" horiz-adv-x="324" 
d="M43 0l93 664h247l-4 -27h-217l-39 -275h205l-3 -27h-205l-44 -308h223l-3 -27h-253zM158 849l4 33l195 -155l-3 -21z" />
    <glyph glyph-name="Eacute" unicode="&#xc9;" horiz-adv-x="324" 
d="M43 0l93 664h247l-4 -27h-217l-39 -275h205l-3 -27h-205l-44 -308h223l-3 -27h-253zM180 706l3 21l237 155l-4 -33z" />
    <glyph glyph-name="Ecircumflex" unicode="&#xca;" horiz-adv-x="324" 
d="M43 0l93 664h247l-4 -27h-217l-39 -275h205l-3 -27h-205l-44 -308h223l-3 -27h-253zM423 723l-130 163l-176 -163l-11 13l175 172h30l127 -172z" />
    <glyph glyph-name="Edieresis" unicode="&#xcb;" horiz-adv-x="324" 
d="M43 0l93 664h247l-4 -27h-217l-39 -275h205l-3 -27h-205l-44 -308h223l-3 -27h-253zM158 726l19 133h38l-19 -133h-38zM340 726l19 133h38l-19 -133h-38z" />
    <glyph glyph-name="Igrave" unicode="&#xcc;" horiz-adv-x="116" 
d="M43 0l93 664h30l-93 -664h-30zM51 849l4 33l195 -155l-3 -21z" />
    <glyph glyph-name="Iacute" unicode="&#xcd;" horiz-adv-x="116" 
d="M43 0l93 664h30l-93 -664h-30zM71 706l3 21l237 155l-4 -33z" />
    <glyph glyph-name="Icircumflex" unicode="&#xce;" horiz-adv-x="116" 
d="M43 0l93 664h30l-93 -664h-30zM314 723l-130 163l-176 -163l-11 13l175 172h30l127 -172z" />
    <glyph glyph-name="Idieresis" unicode="&#xcf;" horiz-adv-x="116" 
d="M43 0l93 664h30l-93 -664h-30zM51 726l19 133h38l-19 -133h-38zM233 726l19 133h38l-19 -133h-38z" />
    <glyph glyph-name="Eth" unicode="&#xd0;" horiz-adv-x="432" 
d="M45 0l47 335h-25l3 27h25l43 302h176q31 0 58.5 -6t48 -22t32.5 -44.5t12 -73.5q0 -14 -1 -28t-3 -31l-38 -270q-8 -52 -27 -88t-46 -58.5t-60 -32.5t-69 -10h-176zM430 459q2 16 3 30t1 27q0 38 -9.5 62t-26 37t-39.5 17.5t-49 4.5h-146l-39 -275h166l-3 -27h-166
l-44 -308h146q30 0 58 8.5t50 27.5t38 50t22 76z" />
    <glyph glyph-name="Ntilde" unicode="&#xd1;" horiz-adv-x="435" 
d="M365 0l72 519q1 8 1.5 15t0.5 15q0 30 -9.5 50t-26.5 32t-40 17t-50 5q-55 0 -91.5 -7t-60.5 -15l-88 -631h-30l91 651q26 9 70 19t113 10q31 0 59 -6t49 -21t33 -39t12 -60q0 -16 -3 -35l-72 -519h-30zM178 792l3 25h301l-3 -25h-301z" />
    <glyph glyph-name="Ograve" unicode="&#xd2;" horiz-adv-x="425" 
d="M108 518q7 46 25 77.5t44 50t59 26.5t71 8q32 0 60.5 -6.5t49.5 -21.5t33.5 -39.5t12.5 -60.5q0 -16 -3 -34l-52 -373q-6 -47 -25 -78t-46 -49.5t-60.5 -26.5t-67.5 -8q-33 0 -61.5 6t-49.5 21t-33 39t-12 60q0 16 3 36zM429 518q1 8 1.5 15.5t0.5 14.5q0 30 -9.5 50
t-27 32.5t-41 17.5t-50.5 5q-32 0 -60 -6.5t-49.5 -22t-36 -41.5t-19.5 -65l-52 -373q-3 -17 -3 -32q0 -59 36 -81t94 -22q30 0 57.5 6.5t49 22t36.5 41.5t21 65zM203 849l4 33l195 -155l-3 -21z" />
    <glyph glyph-name="Oacute" unicode="&#xd3;" horiz-adv-x="425" 
d="M108 518q7 46 25 77.5t44 50t59 26.5t71 8q32 0 60.5 -6.5t49.5 -21.5t33.5 -39.5t12.5 -60.5q0 -16 -3 -34l-52 -373q-6 -47 -25 -78t-46 -49.5t-60.5 -26.5t-67.5 -8q-33 0 -61.5 6t-49.5 21t-33 39t-12 60q0 16 3 36zM429 518q1 8 1.5 15.5t0.5 14.5q0 30 -9.5 50
t-27 32.5t-41 17.5t-50.5 5q-32 0 -60 -6.5t-49.5 -22t-36 -41.5t-19.5 -65l-52 -373q-3 -17 -3 -32q0 -59 36 -81t94 -22q30 0 57.5 6.5t49 22t36.5 41.5t21 65zM223 706l3 21l237 155l-4 -33z" />
    <glyph glyph-name="Ocircumflex" unicode="&#xd4;" horiz-adv-x="425" 
d="M108 518q7 46 25 77.5t44 50t59 26.5t71 8q32 0 60.5 -6.5t49.5 -21.5t33.5 -39.5t12.5 -60.5q0 -16 -3 -34l-52 -373q-6 -47 -25 -78t-46 -49.5t-60.5 -26.5t-67.5 -8q-33 0 -61.5 6t-49.5 21t-33 39t-12 60q0 16 3 36zM429 518q1 8 1.5 15.5t0.5 14.5q0 30 -9.5 50
t-27 32.5t-41 17.5t-50.5 5q-32 0 -60 -6.5t-49.5 -22t-36 -41.5t-19.5 -65l-52 -373q-3 -17 -3 -32q0 -59 36 -81t94 -22q30 0 57.5 6.5t49 22t36.5 41.5t21 65zM468 723l-130 163l-176 -163l-11 13l175 172h30l127 -172z" />
    <glyph glyph-name="Otilde" unicode="&#xd5;" horiz-adv-x="425" 
d="M108 518q7 46 25 77.5t44 50t59 26.5t71 8q32 0 60.5 -6.5t49.5 -21.5t33.5 -39.5t12.5 -60.5q0 -16 -3 -34l-52 -373q-6 -47 -25 -78t-46 -49.5t-60.5 -26.5t-67.5 -8q-33 0 -61.5 6t-49.5 21t-33 39t-12 60q0 16 3 36zM429 518q1 8 1.5 15.5t0.5 14.5q0 30 -9.5 50
t-27 32.5t-41 17.5t-50.5 5q-32 0 -60 -6.5t-49.5 -22t-36 -41.5t-19.5 -65l-52 -373q-3 -17 -3 -32q0 -59 36 -81t94 -22q30 0 57.5 6.5t49 22t36.5 41.5t21 65zM173 792l3 25h301l-3 -25h-301z" />
    <glyph glyph-name="Odieresis" unicode="&#xd6;" horiz-adv-x="425" 
d="M108 518q7 46 25 77.5t44 50t59 26.5t71 8q32 0 60.5 -6.5t49.5 -21.5t33.5 -39.5t12.5 -60.5q0 -16 -3 -34l-52 -373q-6 -47 -25 -78t-46 -49.5t-60.5 -26.5t-67.5 -8q-33 0 -61.5 6t-49.5 21t-33 39t-12 60q0 16 3 36zM429 518q1 8 1.5 15.5t0.5 14.5q0 30 -9.5 50
t-27 32.5t-41 17.5t-50.5 5q-32 0 -60 -6.5t-49.5 -22t-36 -41.5t-19.5 -65l-52 -373q-3 -17 -3 -32q0 -59 36 -81t94 -22q30 0 57.5 6.5t49 22t36.5 41.5t21 65zM203 726l19 133h38l-19 -133h-38zM385 726l19 133h38l-19 -133h-38z" />
    <glyph glyph-name="multiply" unicode="&#xd7;" horiz-adv-x="540" 
d="M314 325l-167 -146l-17 19l168 147l-126 146l21 20l127 -147l167 147l17 -19l-168 -147l126 -147l-21 -19z" />
    <glyph glyph-name="Oslash" unicode="&#xd8;" horiz-adv-x="425" 
d="M108 518q7 46 25 77.5t44 50t59 26.5t71 8q35 0 64.5 -7.5t51.5 -24.5l42 74l22 -12l-46 -81q11 -17 16 -38.5t5 -51.5v-10.5t-2 -10.5l-52 -373q-6 -47 -25 -78t-46 -49.5t-60.5 -26.5t-67.5 -8q-37 0 -67.5 8t-52.5 26l-37 -66l-22 12l43 73q-20 29 -20 73q0 16 3 36z
M429 518q2 5 2 9.5v9.5q0 18 -2 32.5t-7 27.5l-317 -552q17 -20 44.5 -27.5t63.5 -7.5q30 0 57.5 6.5t49 22t36.5 41.5t21 65zM86 145q-3 -17 -3 -31q0 -24 8 -45l316 551q-17 18 -44.5 25.5t-59.5 7.5t-60 -6.5t-49.5 -22t-36 -41.5t-19.5 -65z" />
    <glyph glyph-name="Ugrave" unicode="&#xd9;" horiz-adv-x="435" 
d="M454 664h31l-92 -652q-26 -9 -71 -19t-112 -10q-32 0 -60 6t-48.5 20.5t-32.5 38.5t-12 60q0 16 3 36l73 520h30l-73 -520q-2 -5 -2 -9.5v-9.5q0 -67 33.5 -91t92.5 -24q55 0 91.5 7t59.5 15zM208 849l4 33l195 -155l-3 -21z" />
    <glyph glyph-name="Uacute" unicode="&#xda;" horiz-adv-x="435" 
d="M454 664h31l-92 -652q-26 -9 -71 -19t-112 -10q-32 0 -60 6t-48.5 20.5t-32.5 38.5t-12 60q0 16 3 36l73 520h30l-73 -520q-2 -5 -2 -9.5v-9.5q0 -67 33.5 -91t92.5 -24q55 0 91.5 7t59.5 15zM228 706l3 21l237 155l-4 -33z" />
    <glyph glyph-name="Ucircumflex" unicode="&#xdb;" horiz-adv-x="435" 
d="M454 664h31l-92 -652q-26 -9 -71 -19t-112 -10q-32 0 -60 6t-48.5 20.5t-32.5 38.5t-12 60q0 16 3 36l73 520h30l-73 -520q-2 -5 -2 -9.5v-9.5q0 -67 33.5 -91t92.5 -24q55 0 91.5 7t59.5 15zM472 723l-130 163l-176 -163l-11 13l175 172h30l127 -172z" />
    <glyph glyph-name="Udieresis" unicode="&#xdc;" horiz-adv-x="435" 
d="M454 664h31l-92 -652q-26 -9 -71 -19t-112 -10q-32 0 -60 6t-48.5 20.5t-32.5 38.5t-12 60q0 16 3 36l73 520h30l-73 -520q-2 -5 -2 -9.5v-9.5q0 -67 33.5 -91t92.5 -24q55 0 91.5 7t59.5 15zM208 726l19 133h38l-19 -133h-38zM390 726l19 133h38l-19 -133h-38z" />
    <glyph glyph-name="Yacute" unicode="&#xdd;" horiz-adv-x="410" 
d="M190 0l33 236q-26 15 -49.5 33.5t-41.5 42.5t-28.5 55t-10.5 71q0 20 3 44l26 182h30l-26 -184q-3 -23 -3 -41q0 -36 10 -63.5t26.5 -48.5t37.5 -37t44 -30q31 16 60 34.5t52.5 44t40.5 60t24 81.5l26 184h30l-26 -182q-8 -52 -26.5 -90.5t-44.5 -67.5t-57.5 -50
t-65.5 -38l-33 -236h-31zM216 706l3 21l237 155l-4 -33z" />
    <glyph glyph-name="Thorn" unicode="&#xde;" horiz-adv-x="411" 
d="M91 129l-18 -129h-30l93 664h30l-16 -113h176q66 0 92 -30.5t26 -93.5q0 -19 -1.5 -40.5t-5.5 -46.5q-8 -54 -19 -93.5t-30.5 -66t-48.5 -39t-72 -12.5h-176zM270 154q34 0 57 10t38.5 32.5t25.5 57.5t17 86q4 25 5.5 45.5t1.5 37.5q0 55 -21 78.5t-72 23.5h-176
l-52 -371h176z" />
    <glyph glyph-name="germandbls" unicode="&#xdf;" horiz-adv-x="512" 
d="M484 174q3 24 3 42q0 32 -11.5 49t-39.5 31q-29 14 -44 33t-15 56q-1 9 0.5 19.5t3.5 22.5l12 87q3 19 3 37q0 58 -29.5 80t-80.5 22q-64 0 -99.5 -29t-45.5 -100l-73 -524h-28l73 524q6 45 21.5 75t38.5 48t52.5 25.5t64.5 7.5q28 0 53 -6t43 -20t28.5 -36.5t10.5 -56.5
q0 -18 -3 -37l-13 -92q-3 -23 -3 -39q0 -35 13.5 -50.5t39.5 -28.5q30 -15 43 -36t13 -56q0 -10 -1 -21t-3 -24l-5 -41q-10 -79 -46 -116t-111 -37q-36 0 -60.5 5.5t-38.5 17.5t-20 31.5t-6 47.5v9.5t2 9.5l8 57h25l-7 -52q-1 -7 -1.5 -13t-0.5 -12q0 -40 24 -57t78 -17
q61 0 88 29.5t38 95.5z" />
    <glyph glyph-name="agrave" unicode="&#xe0;" horiz-adv-x="397" 
d="M376 348q1 8 1.5 15t0.5 14q0 54 -32.5 77t-84.5 23q-48 0 -81 -6t-67 -20l4 29q26 11 61 18t87 7q34 0 60.5 -6.5t45 -22.5t28 -41.5t9.5 -64.5v-10.5t-2 -10.5l-48 -338q-24 -12 -59.5 -20t-99.5 -8q-78 0 -117.5 27t-39.5 96v8.5t2 9.5l4 32q5 41 21.5 67t41 41
t54.5 20.5t62 5.5q48 0 83 -14t52 -28zM359 227q-23 17 -57 29t-73 12q-29 0 -54.5 -4.5t-45.5 -17t-33.5 -34.5t-18.5 -57l-4 -29q-1 -6 -1.5 -12t-0.5 -11q0 -51 35 -72t96 -21q52 0 81 6t49 15zM165 677l4 33l195 -155l-3 -21z" />
    <glyph glyph-name="aacute" unicode="&#xe1;" horiz-adv-x="397" 
d="M376 348q1 8 1.5 15t0.5 14q0 54 -32.5 77t-84.5 23q-48 0 -81 -6t-67 -20l4 29q26 11 61 18t87 7q34 0 60.5 -6.5t45 -22.5t28 -41.5t9.5 -64.5v-10.5t-2 -10.5l-48 -338q-24 -12 -59.5 -20t-99.5 -8q-78 0 -117.5 27t-39.5 96v8.5t2 9.5l4 32q5 41 21.5 67t41 41
t54.5 20.5t62 5.5q48 0 83 -14t52 -28zM359 227q-23 17 -57 29t-73 12q-29 0 -54.5 -4.5t-45.5 -17t-33.5 -34.5t-18.5 -57l-4 -29q-1 -6 -1.5 -12t-0.5 -11q0 -51 35 -72t96 -21q52 0 81 6t49 15zM185 534l3 21l237 155l-4 -33z" />
    <glyph glyph-name="acircumflex" unicode="&#xe2;" horiz-adv-x="397" 
d="M376 348q1 8 1.5 15t0.5 14q0 54 -32.5 77t-84.5 23q-48 0 -81 -6t-67 -20l4 29q26 11 61 18t87 7q34 0 60.5 -6.5t45 -22.5t28 -41.5t9.5 -64.5v-10.5t-2 -10.5l-48 -338q-24 -12 -59.5 -20t-99.5 -8q-78 0 -117.5 27t-39.5 96v8.5t2 9.5l4 32q5 41 21.5 67t41 41
t54.5 20.5t62 5.5q48 0 83 -14t52 -28zM359 227q-23 17 -57 29t-73 12q-29 0 -54.5 -4.5t-45.5 -17t-33.5 -34.5t-18.5 -57l-4 -29q-1 -6 -1.5 -12t-0.5 -11q0 -51 35 -72t96 -21q52 0 81 6t49 15zM430 551l-130 163l-176 -163l-11 13l175 172h30l127 -172z" />
    <glyph glyph-name="atilde" unicode="&#xe3;" horiz-adv-x="397" 
d="M376 348q1 8 1.5 15t0.5 14q0 54 -32.5 77t-84.5 23q-48 0 -81 -6t-67 -20l4 29q26 11 61 18t87 7q34 0 60.5 -6.5t45 -22.5t28 -41.5t9.5 -64.5v-10.5t-2 -10.5l-48 -338q-24 -12 -59.5 -20t-99.5 -8q-78 0 -117.5 27t-39.5 96v8.5t2 9.5l4 32q5 41 21.5 67t41 41
t54.5 20.5t62 5.5q48 0 83 -14t52 -28zM359 227q-23 17 -57 29t-73 12q-29 0 -54.5 -4.5t-45.5 -17t-33.5 -34.5t-18.5 -57l-4 -29q-1 -6 -1.5 -12t-0.5 -11q0 -51 35 -72t96 -21q52 0 81 6t49 15zM136 620l3 25h301l-3 -25h-301z" />
    <glyph glyph-name="adieresis" unicode="&#xe4;" horiz-adv-x="397" 
d="M376 348q1 8 1.5 15t0.5 14q0 54 -32.5 77t-84.5 23q-48 0 -81 -6t-67 -20l4 29q26 11 61 18t87 7q34 0 60.5 -6.5t45 -22.5t28 -41.5t9.5 -64.5v-10.5t-2 -10.5l-48 -338q-24 -12 -59.5 -20t-99.5 -8q-78 0 -117.5 27t-39.5 96v8.5t2 9.5l4 32q5 41 21.5 67t41 41
t54.5 20.5t62 5.5q48 0 83 -14t52 -28zM359 227q-23 17 -57 29t-73 12q-29 0 -54.5 -4.5t-45.5 -17t-33.5 -34.5t-18.5 -57l-4 -29q-1 -6 -1.5 -12t-0.5 -11q0 -51 35 -72t96 -21q52 0 81 6t49 15zM165 554l19 133h38l-19 -133h-38zM347 554l19 133h38l-19 -133h-38z" />
    <glyph glyph-name="aring" unicode="&#xe5;" horiz-adv-x="397" 
d="M376 348q1 8 1.5 15t0.5 14q0 54 -32.5 77t-84.5 23q-48 0 -81 -6t-67 -20l4 29q26 11 61 18t87 7q34 0 60.5 -6.5t45 -22.5t28 -41.5t9.5 -64.5v-10.5t-2 -10.5l-48 -338q-24 -12 -59.5 -20t-99.5 -8q-78 0 -117.5 27t-39.5 96v8.5t2 9.5l4 32q5 41 21.5 67t41 41
t54.5 20.5t62 5.5q48 0 83 -14t52 -28zM359 227q-23 17 -57 29t-73 12q-29 0 -54.5 -4.5t-45.5 -17t-33.5 -34.5t-18.5 -57l-4 -29q-1 -6 -1.5 -12t-0.5 -11q0 -51 35 -72t96 -21q52 0 81 6t49 15zM271 524q-83 0 -83 73q0 57 28 88t82 31q45 0 64.5 -19.5t19.5 -54.5
q0 -118 -111 -118zM274 541q90 0 90 98q0 29 -16 44.5t-52 15.5q-42 0 -66 -25t-24 -73q0 -60 68 -60z" />
    <glyph glyph-name="ae" unicode="&#xe6;" horiz-adv-x="686" 
d="M648 8q-25 -10 -66 -17.5t-95 -7.5q-42 0 -75.5 11.5t-50.5 40.5l-3 -24q-24 -12 -59.5 -20t-99.5 -8q-78 0 -117.5 27t-39.5 96v8.5t2 9.5l4 32q5 41 21.5 67t41 41t54.5 20.5t62 5.5q48 0 83 -14t52 -28l14 100q1 8 1.5 15t0.5 14q0 54 -32.5 77t-84.5 23q-48 0 -81 -6
t-67 -20l4 29q26 11 61 18t87 7q51 0 88 -17t50 -60q24 43 64.5 60t92.5 17q30 0 56.5 -6t45.5 -20.5t30 -38t11 -58.5q0 -8 -0.5 -16t-1.5 -17l-17 -121h-295l-14 -95q-1 -7 -1.5 -13.5t-0.5 -12.5q0 -28 9.5 -46.5t26 -29.5t38.5 -15.5t48 -4.5q48 0 86.5 7t70.5 18z
M359 227q-23 17 -57 29t-73 12q-29 0 -54.5 -4.5t-45.5 -17t-33.5 -34.5t-18.5 -57l-4 -29q-1 -6 -1.5 -12t-0.5 -11q0 -51 35 -72t96 -21q52 0 81 6t49 15zM673 349q1 8 1.5 14.5t0.5 12.5q0 56 -33 78.5t-85 22.5q-62 0 -101.5 -28.5t-49.5 -99.5l-14 -95h267z" />
    <glyph glyph-name="ccedilla" unicode="&#xe7;" horiz-adv-x="383" 
d="M352 206h28l-9 -67q-6 -45 -22 -75t-40 -48t-54 -25.5t-63 -7.5q-32 0 -58 6t-44.5 20t-29 36.5t-10.5 56.5q0 16 3 37l30 210q6 45 22 75t39.5 48t54 25.5t66.5 7.5q66 0 102 -29t36 -105v-10.5t-2 -11.5l-9 -63h-28l9 63q1 8 1.5 15t0.5 14q0 28 -8.5 47t-23.5 30.5
t-35.5 16.5t-45.5 5q-29 0 -54.5 -6t-45.5 -21t-33 -39.5t-18 -61.5l-29 -200q-3 -21 -3 -37q0 -58 31 -80t86 -22q27 0 51.5 6t44 21t33 39.5t18.5 62.5zM180 -34h32l-20 -81q-6 -22 -12.5 -44.5t-14.5 -40.5t-16.5 -30t-18.5 -13z" />
    <glyph glyph-name="egrave" unicode="&#xe8;" 
d="M353 8q-25 -10 -66 -17.5t-95 -7.5q-30 0 -56 6t-45 19.5t-30 36.5t-11 58q0 16 3 36l30 210q6 45 22 75t39.5 48t54 25.5t66.5 7.5q30 0 56.5 -6t45.5 -20.5t30 -38t11 -58.5q0 -8 -0.5 -16t-1.5 -17l-17 -121h-295l-13 -87q-2 -5 -2 -9.5v-9.5q0 -64 31.5 -87.5
t89.5 -23.5q48 0 86.5 7t70.5 18zM378 349q1 8 1.5 14.5t0.5 12.5q0 56 -33 78.5t-85 22.5q-62 0 -101.5 -28.5t-49.5 -99.5l-14 -95h267zM162 677l4 33l195 -155l-3 -21z" />
    <glyph glyph-name="eacute" unicode="&#xe9;" 
d="M353 8q-25 -10 -66 -17.5t-95 -7.5q-30 0 -56 6t-45 19.5t-30 36.5t-11 58q0 16 3 36l30 210q6 45 22 75t39.5 48t54 25.5t66.5 7.5q30 0 56.5 -6t45.5 -20.5t30 -38t11 -58.5q0 -8 -0.5 -16t-1.5 -17l-17 -121h-295l-13 -87q-2 -5 -2 -9.5v-9.5q0 -64 31.5 -87.5
t89.5 -23.5q48 0 86.5 7t70.5 18zM378 349q1 8 1.5 14.5t0.5 12.5q0 56 -33 78.5t-85 22.5q-62 0 -101.5 -28.5t-49.5 -99.5l-14 -95h267zM182 534l3 21l237 155l-4 -33z" />
    <glyph glyph-name="ecircumflex" unicode="&#xea;" 
d="M353 8q-25 -10 -66 -17.5t-95 -7.5q-30 0 -56 6t-45 19.5t-30 36.5t-11 58q0 16 3 36l30 210q6 45 22 75t39.5 48t54 25.5t66.5 7.5q30 0 56.5 -6t45.5 -20.5t30 -38t11 -58.5q0 -8 -0.5 -16t-1.5 -17l-17 -121h-295l-13 -87q-2 -5 -2 -9.5v-9.5q0 -64 31.5 -87.5
t89.5 -23.5q48 0 86.5 7t70.5 18zM378 349q1 8 1.5 14.5t0.5 12.5q0 56 -33 78.5t-85 22.5q-62 0 -101.5 -28.5t-49.5 -99.5l-14 -95h267zM427 551l-130 163l-176 -163l-11 13l175 172h30l127 -172z" />
    <glyph glyph-name="edieresis" unicode="&#xeb;" 
d="M353 8q-25 -10 -66 -17.5t-95 -7.5q-30 0 -56 6t-45 19.5t-30 36.5t-11 58q0 16 3 36l30 210q6 45 22 75t39.5 48t54 25.5t66.5 7.5q30 0 56.5 -6t45.5 -20.5t30 -38t11 -58.5q0 -8 -0.5 -16t-1.5 -17l-17 -121h-295l-13 -87q-2 -5 -2 -9.5v-9.5q0 -64 31.5 -87.5
t89.5 -23.5q48 0 86.5 7t70.5 18zM378 349q1 8 1.5 14.5t0.5 12.5q0 56 -33 78.5t-85 22.5q-62 0 -101.5 -28.5t-49.5 -99.5l-14 -95h267zM162 554l19 133h38l-19 -133h-38zM344 554l19 133h38l-19 -133h-38z" />
    <glyph glyph-name="igrave" unicode="&#xec;" horiz-adv-x="125" 
d="M48 0l69 492h29l-69 -492h-29zM31 677l4 33l195 -155l-3 -21z" />
    <glyph glyph-name="iacute" unicode="&#xed;" horiz-adv-x="125" 
d="M48 0l69 492h29l-69 -492h-29zM51 534l3 21l237 155l-4 -33z" />
    <glyph glyph-name="icircumflex" unicode="&#xee;" horiz-adv-x="125" 
d="M48 0l69 492h29l-69 -492h-29zM294 551l-130 163l-176 -163l-11 13l175 172h30l127 -172z" />
    <glyph glyph-name="idieresis" unicode="&#xef;" horiz-adv-x="125" 
d="M48 0l69 492h29l-69 -492h-29zM31 554l19 133h38l-19 -133h-38zM213 554l19 133h38l-19 -133h-38z" />
    <glyph glyph-name="eth" unicode="&#xf0;" horiz-adv-x="401" 
d="M389 398q2 5 2 10v10q0 38 -8.5 76t-34.5 75l-178 -49l-2 21l168 46q-25 29 -61 51t-87 34h42q46 -10 80 -29.5t57 -47.5l75 21l3 -20l-66 -19q22 -33 32 -70t10 -74q0 -21 -3 -42l-35 -252q-6 -45 -22.5 -75t-41 -48t-55 -25.5t-65.5 -7.5q-30 0 -57 6t-47 20.5
t-31.5 37.5t-11.5 58q0 16 3 34l23 160q7 49 24 79.5t40 47.5t51.5 23t58.5 6q27 0 47.5 -4.5t36 -13.5t27.5 -23t24 -32zM385 352q-23 37 -52 55.5t-81 18.5q-25 0 -49 -5t-43.5 -19t-33.5 -39.5t-20 -66.5l-20 -146q-3 -18 -3 -33q0 -60 34 -83t86 -23q29 0 54.5 6.5
t45.5 21.5t33.5 40t18.5 62z" />
    <glyph glyph-name="ntilde" unicode="&#xf1;" horiz-adv-x="405" 
d="M338 0l48 348q1 8 1.5 15.5t0.5 15.5q0 55 -31.5 76.5t-82.5 21.5q-54 0 -85.5 -6.5t-53.5 -14.5l-64 -456h-28l67 477q25 9 64.5 18.5t102.5 9.5q67 0 103.5 -29t36.5 -106v-10.5t-2 -10.5l-49 -349h-28zM139 620l3 25h301l-3 -25h-301z" />
    <glyph glyph-name="ograve" unicode="&#xf2;" 
d="M376 139q-6 -45 -23 -75t-41.5 -48t-55 -25.5t-64.5 -7.5q-32 0 -58 6t-44.5 20t-29 36.5t-10.5 56.5q0 17 3 37l30 210q6 45 22 75t39.5 48t54 25.5t66.5 7.5q30 0 56.5 -6t45.5 -20.5t30 -38t11 -58.5q0 -8 -0.5 -16t-1.5 -17zM378 349q1 8 1.5 14.5t0.5 12.5
q0 29 -9 48.5t-25 31t-37.5 16.5t-46.5 5q-30 0 -55 -6t-44.5 -21t-33 -39.5t-18.5 -61.5l-30 -210q-2 -5 -2 -9.5v-9.5q0 -62 29.5 -86t87.5 -24q28 0 53.5 6t45.5 21t34 39.5t19 62.5zM162 677l4 33l195 -155l-3 -21z" />
    <glyph glyph-name="oacute" unicode="&#xf3;" 
d="M376 139q-6 -45 -23 -75t-41.5 -48t-55 -25.5t-64.5 -7.5q-32 0 -58 6t-44.5 20t-29 36.5t-10.5 56.5q0 17 3 37l30 210q6 45 22 75t39.5 48t54 25.5t66.5 7.5q30 0 56.5 -6t45.5 -20.5t30 -38t11 -58.5q0 -8 -0.5 -16t-1.5 -17zM378 349q1 8 1.5 14.5t0.5 12.5
q0 29 -9 48.5t-25 31t-37.5 16.5t-46.5 5q-30 0 -55 -6t-44.5 -21t-33 -39.5t-18.5 -61.5l-30 -210q-2 -5 -2 -9.5v-9.5q0 -62 29.5 -86t87.5 -24q28 0 53.5 6t45.5 21t34 39.5t19 62.5zM182 534l3 21l237 155l-4 -33z" />
    <glyph glyph-name="ocircumflex" unicode="&#xf4;" 
d="M376 139q-6 -45 -23 -75t-41.5 -48t-55 -25.5t-64.5 -7.5q-32 0 -58 6t-44.5 20t-29 36.5t-10.5 56.5q0 17 3 37l30 210q6 45 22 75t39.5 48t54 25.5t66.5 7.5q30 0 56.5 -6t45.5 -20.5t30 -38t11 -58.5q0 -8 -0.5 -16t-1.5 -17zM378 349q1 8 1.5 14.5t0.5 12.5
q0 29 -9 48.5t-25 31t-37.5 16.5t-46.5 5q-30 0 -55 -6t-44.5 -21t-33 -39.5t-18.5 -61.5l-30 -210q-2 -5 -2 -9.5v-9.5q0 -62 29.5 -86t87.5 -24q28 0 53.5 6t45.5 21t34 39.5t19 62.5zM427 551l-130 163l-176 -163l-11 13l175 172h30l127 -172z" />
    <glyph glyph-name="otilde" unicode="&#xf5;" 
d="M376 139q-6 -45 -23 -75t-41.5 -48t-55 -25.5t-64.5 -7.5q-32 0 -58 6t-44.5 20t-29 36.5t-10.5 56.5q0 17 3 37l30 210q6 45 22 75t39.5 48t54 25.5t66.5 7.5q30 0 56.5 -6t45.5 -20.5t30 -38t11 -58.5q0 -8 -0.5 -16t-1.5 -17zM378 349q1 8 1.5 14.5t0.5 12.5
q0 29 -9 48.5t-25 31t-37.5 16.5t-46.5 5q-30 0 -55 -6t-44.5 -21t-33 -39.5t-18.5 -61.5l-30 -210q-2 -5 -2 -9.5v-9.5q0 -62 29.5 -86t87.5 -24q28 0 53.5 6t45.5 21t34 39.5t19 62.5zM133 620l3 25h301l-3 -25h-301z" />
    <glyph glyph-name="odieresis" unicode="&#xf6;" 
d="M376 139q-6 -45 -23 -75t-41.5 -48t-55 -25.5t-64.5 -7.5q-32 0 -58 6t-44.5 20t-29 36.5t-10.5 56.5q0 17 3 37l30 210q6 45 22 75t39.5 48t54 25.5t66.5 7.5q30 0 56.5 -6t45.5 -20.5t30 -38t11 -58.5q0 -8 -0.5 -16t-1.5 -17zM378 349q1 8 1.5 14.5t0.5 12.5
q0 29 -9 48.5t-25 31t-37.5 16.5t-46.5 5q-30 0 -55 -6t-44.5 -21t-33 -39.5t-18.5 -61.5l-30 -210q-2 -5 -2 -9.5v-9.5q0 -62 29.5 -86t87.5 -24q28 0 53.5 6t45.5 21t34 39.5t19 62.5zM162 554l19 133h38l-19 -133h-38zM344 554l19 133h38l-19 -133h-38z" />
    <glyph glyph-name="divide" unicode="&#xf7;" horiz-adv-x="540" 
d="M94 332l4 27h442l-4 -27h-442zM315 449l21 151h35l-21 -151h-35zM264 91l21 151h35l-21 -151h-35z" />
    <glyph glyph-name="oslash" unicode="&#xf8;" 
d="M28 -37l42 64q-20 29 -20 75q0 17 3 37l30 210q6 45 22 75t39.5 48t54 25.5t66.5 7.5q31 0 57.5 -6.5t46.5 -21.5l41 63l21 -12l-46 -68q23 -29 23 -79q0 -8 -0.5 -15.5t-1.5 -16.5l-30 -210q-6 -45 -23 -75t-41.5 -48t-55 -25.5t-64.5 -7.5q-32 0 -59 6.5t-46 21.5
l-39 -60zM378 349q1 7 1.5 13.5t0.5 13.5q0 33 -13 56l-262 -395q15 -15 38.5 -21t52.5 -6q28 0 53.5 6t45.5 21t34 39.5t19 62.5zM81 139q-3 -18 -3 -32q0 -31 11 -51l262 395q-16 14 -38.5 20t-50.5 6q-30 0 -55 -6t-44.5 -21t-33 -39.5t-18.5 -61.5z" />
    <glyph glyph-name="ugrave" unicode="&#xf9;" horiz-adv-x="407" 
d="M402 492h28l-68 -481q-24 -9 -64.5 -18.5t-103.5 -9.5q-30 0 -55.5 6t-44 19.5t-29 36.5t-10.5 57q0 17 3 37l50 353h28l-50 -353q-2 -5 -2 -9.5v-9.5q0 -63 29 -86.5t85 -23.5q51 0 84.5 6.5t54.5 14.5zM170 677l4 33l195 -155l-3 -21z" />
    <glyph glyph-name="uacute" unicode="&#xfa;" horiz-adv-x="407" 
d="M402 492h28l-68 -481q-24 -9 -64.5 -18.5t-103.5 -9.5q-30 0 -55.5 6t-44 19.5t-29 36.5t-10.5 57q0 17 3 37l50 353h28l-50 -353q-2 -5 -2 -9.5v-9.5q0 -63 29 -86.5t85 -23.5q51 0 84.5 6.5t54.5 14.5zM190 534l3 21l237 155l-4 -33z" />
    <glyph glyph-name="ucircumflex" unicode="&#xfb;" horiz-adv-x="407" 
d="M402 492h28l-68 -481q-24 -9 -64.5 -18.5t-103.5 -9.5q-30 0 -55.5 6t-44 19.5t-29 36.5t-10.5 57q0 17 3 37l50 353h28l-50 -353q-2 -5 -2 -9.5v-9.5q0 -63 29 -86.5t85 -23.5q51 0 84.5 6.5t54.5 14.5zM435 551l-130 163l-176 -163l-11 13l175 172h30l127 -172z" />
    <glyph glyph-name="udieresis" unicode="&#xfc;" horiz-adv-x="407" 
d="M402 492h28l-68 -481q-24 -9 -64.5 -18.5t-103.5 -9.5q-30 0 -55.5 6t-44 19.5t-29 36.5t-10.5 57q0 17 3 37l50 353h28l-50 -353q-2 -5 -2 -9.5v-9.5q0 -63 29 -86.5t85 -23.5q51 0 84.5 6.5t54.5 14.5zM170 554l19 133h38l-19 -133h-38zM352 554l19 133h38l-19 -133
h-38z" />
    <glyph glyph-name="yacute" unicode="&#xfd;" horiz-adv-x="402" 
d="M337 35q-23 -15 -60 -28t-91 -13q-27 0 -51 5t-41.5 18.5t-27.5 35.5t-10 57q0 17 3 40l48 342h29l-48 -341q-3 -20 -3 -34q0 -28 8.5 -46.5t23 -29t34.5 -15t44 -4.5q54 0 89 13t57 27l61 430h29l-83 -587q-6 -43 -22.5 -72t-40.5 -46.5t-55 -25t-65 -7.5
q-29 0 -53.5 5.5t-42 19t-27.5 36t-10 55.5q0 15 3 35l6 39h27l-6 -39q-2 -5 -2 -9.5v-8.5q0 -60 28 -83t81 -23q28 0 53.5 6t45 20.5t33 38.5t18.5 59zM188 534l3 21l237 155l-4 -33z" />
    <glyph glyph-name="thorn" unicode="&#xfe;" horiz-adv-x="400" 
d="M10 -233l127 905h28l-29 -208q24 15 60.5 28t90.5 13q28 0 52 -5.5t41.5 -18.5t27.5 -36t10 -57q0 -18 -3 -39l-30 -210q-7 -47 -22.5 -77.5t-38 -48t-51 -24t-59.5 -6.5q-54 0 -87 12.5t-53 27.5l-36 -256h-28zM386 346q3 18 3 34q0 28 -8.5 47t-23 29.5t-34.5 15
t-44 4.5q-54 0 -89.5 -13t-57.5 -28l-54 -383q18 -15 50 -28t86 -13q27 0 50.5 5.5t42.5 20.5t31.5 40t18.5 64z" />
    <glyph glyph-name="ydieresis" unicode="&#xff;" horiz-adv-x="402" 
d="M337 35q-23 -15 -60 -28t-91 -13q-27 0 -51 5t-41.5 18.5t-27.5 35.5t-10 57q0 17 3 40l48 342h29l-48 -341q-3 -20 -3 -34q0 -28 8.5 -46.5t23 -29t34.5 -15t44 -4.5q54 0 89 13t57 27l61 430h29l-83 -587q-6 -43 -22.5 -72t-40.5 -46.5t-55 -25t-65 -7.5
q-29 0 -53.5 5.5t-42 19t-27.5 36t-10 55.5q0 15 3 35l6 39h27l-6 -39q-2 -5 -2 -9.5v-8.5q0 -60 28 -83t81 -23q28 0 53.5 6t45 20.5t33 38.5t18.5 59zM168 554l19 133h38l-19 -133h-38zM350 554l19 133h38l-19 -133h-38z" />
    <glyph glyph-name="Amacron" unicode="&#x100;" horiz-adv-x="425" 
d="M357 0l37 266h-291l-37 -266h-30l59 426q7 55 27.5 95t49 69t63.5 50.5t72 39.5q27 -16 52.5 -34.5t46 -43t32.5 -56.5t12 -75q0 -21 -3 -45l-59 -426h-31zM417 428q3 21 3 40q0 36 -9.5 63.5t-26 48.5t-38 37t-44.5 30q-31 -15 -60 -33.5t-52.5 -44t-40 -60t-23.5 -81.5
l-19 -135h291zM173 792l3 25h301l-3 -25h-301z" />
    <glyph glyph-name="amacron" unicode="&#x101;" horiz-adv-x="397" 
d="M376 348q1 8 1.5 15t0.5 14q0 54 -32.5 77t-84.5 23q-48 0 -81 -6t-67 -20l4 29q26 11 61 18t87 7q34 0 60.5 -6.5t45 -22.5t28 -41.5t9.5 -64.5v-10.5t-2 -10.5l-48 -338q-24 -12 -59.5 -20t-99.5 -8q-78 0 -117.5 27t-39.5 96v8.5t2 9.5l4 32q5 41 21.5 67t41 41
t54.5 20.5t62 5.5q48 0 83 -14t52 -28zM359 227q-23 17 -57 29t-73 12q-29 0 -54.5 -4.5t-45.5 -17t-33.5 -34.5t-18.5 -57l-4 -29q-1 -6 -1.5 -12t-0.5 -11q0 -51 35 -72t96 -21q52 0 81 6t49 15zM136 620l3 25h301l-3 -25h-301z" />
    <glyph glyph-name="Abreve" unicode="&#x102;" horiz-adv-x="425" 
d="M357 0l37 266h-291l-37 -266h-30l59 426q7 55 27.5 95t49 69t63.5 50.5t72 39.5q27 -16 52.5 -34.5t46 -43t32.5 -56.5t12 -75q0 -21 -3 -45l-59 -426h-31zM417 428q3 21 3 40q0 36 -9.5 63.5t-26 48.5t-38 37t-44.5 30q-31 -15 -60 -33.5t-52.5 -44t-40 -60t-23.5 -81.5
l-19 -135h291zM486 888q-6 -42 -23 -73t-40.5 -51.5t-52 -31t-56.5 -10.5q-57 0 -92.5 36.5t-35.5 110.5v9.5t2 9.5h24q-1 -7 -1.5 -13.5t-0.5 -12.5q0 -60 31 -88.5t76 -28.5q24 0 47.5 8.5t43.5 26t34.5 44.5t19.5 64h24z" />
    <glyph glyph-name="abreve" unicode="&#x103;" horiz-adv-x="397" 
d="M376 348q1 8 1.5 15t0.5 14q0 54 -32.5 77t-84.5 23q-48 0 -81 -6t-67 -20l4 29q26 11 61 18t87 7q34 0 60.5 -6.5t45 -22.5t28 -41.5t9.5 -64.5v-10.5t-2 -10.5l-48 -338q-24 -12 -59.5 -20t-99.5 -8q-78 0 -117.5 27t-39.5 96v8.5t2 9.5l4 32q5 41 21.5 67t41 41
t54.5 20.5t62 5.5q48 0 83 -14t52 -28zM359 227q-23 17 -57 29t-73 12q-29 0 -54.5 -4.5t-45.5 -17t-33.5 -34.5t-18.5 -57l-4 -29q-1 -6 -1.5 -12t-0.5 -11q0 -51 35 -72t96 -21q52 0 81 6t49 15zM449 716q-6 -42 -23 -73t-40.5 -51.5t-52 -31t-56.5 -10.5
q-57 0 -92.5 36.5t-35.5 110.5v9.5t2 9.5h24q-1 -7 -1.5 -13.5t-0.5 -12.5q0 -60 31 -88.5t76 -28.5q24 0 47.5 8.5t43.5 26t34.5 44.5t19.5 64h24z" />
    <glyph glyph-name="Aogonek" unicode="&#x104;" horiz-adv-x="425" 
d="M355 -229q-5 -2 -16 -3t-33 -1q-32 0 -53 6t-33 16.5t-17 24.5t-5 31q0 52 22 84t73 49l63 20l38 268h-291l-37 -266h-30l59 426q7 55 27.5 95t49 69t63.5 50.5t72 39.5q27 -16 52.5 -34.5t46 -43t32.5 -56.5t12 -75q0 -21 -3 -45l-59 -426l-83 -27q-45 -14 -63.5 -43
t-18.5 -74q0 -27 18 -45t70 -18q39 0 48 4zM417 428q3 21 3 40q0 36 -9.5 63.5t-26 48.5t-38 37t-44.5 30q-31 -15 -60 -33.5t-52.5 -44t-40 -60t-23.5 -81.5l-19 -135h291z" />
    <glyph glyph-name="aogonek" unicode="&#x105;" horiz-adv-x="397" 
d="M298 -229q-5 -2 -16 -3t-33 -1q-32 0 -53 6t-33 16.5t-17 24.5t-5 31q0 52 22 84t73 49l25 8q-29 -3 -62 -3q-78 0 -117.5 27t-39.5 96v8.5t2 9.5l4 32q5 41 21.5 67t41 41t54.5 20.5t62 5.5q48 0 83 -14t52 -28l14 100q1 8 1.5 15t0.5 14q0 54 -32.5 77t-84.5 23
q-48 0 -81 -6t-67 -20l4 29q26 11 61 18t87 7q34 0 60.5 -6.5t45 -22.5t28 -41.5t9.5 -64.5v-10.5t-2 -10.5l-48 -338q-5 -3 -11.5 -6t-18.5 -7t-31 -10t-49 -15q-45 -14 -63.5 -43.5t-18.5 -73.5q0 -27 18 -45t70 -18q39 0 48 4zM359 227q-23 17 -57 29t-73 12
q-29 0 -54.5 -4.5t-45.5 -17t-33.5 -34.5t-18.5 -57l-4 -29q-1 -6 -1.5 -12t-0.5 -11q0 -51 35 -72t96 -21q52 0 81 6t49 15z" />
    <glyph glyph-name="Cacute" unicode="&#x106;" horiz-adv-x="404" 
d="M379 275h28l-18 -130q-6 -47 -22 -78t-39.5 -49.5t-54 -26.5t-65.5 -8q-33 0 -61.5 6t-49.5 21t-32.5 39t-11.5 60q0 16 3 36l52 373q6 46 24 77.5t44 50t59.5 26.5t70.5 8q31 0 56.5 -6t43.5 -20t28 -37t10 -57q0 -20 -3 -42l-19 -135h-28l19 135q3 19 3 36
q0 56 -30 77.5t-84 21.5q-65 0 -109.5 -29.5t-54.5 -105.5l-52 -373q-2 -5 -2 -9.5v-9.5q0 -66 32.5 -91t95.5 -25q31 0 56.5 6.5t44 22.5t31 42t17.5 64zM213 706l3 21l237 155l-4 -33z" />
    <glyph glyph-name="cacute" unicode="&#x107;" horiz-adv-x="383" 
d="M352 206h28l-9 -67q-6 -45 -22 -75t-40 -48t-54 -25.5t-63 -7.5q-32 0 -58 6t-44.5 20t-29 36.5t-10.5 56.5q0 16 3 37l30 210q6 45 22 75t39.5 48t54 25.5t66.5 7.5q66 0 102 -29t36 -105v-10.5t-2 -11.5l-9 -63h-28l9 63q1 8 1.5 15t0.5 14q0 28 -8.5 47t-23.5 30.5
t-35.5 16.5t-45.5 5q-29 0 -54.5 -6t-45.5 -21t-33 -39.5t-18 -61.5l-29 -200q-3 -21 -3 -37q0 -58 31 -80t86 -22q27 0 51.5 6t44 21t33 39.5t18.5 62.5zM178 534l3 21l237 155l-4 -33z" />
    <glyph glyph-name="Ccircumflex" unicode="&#x108;" horiz-adv-x="404" 
d="M379 275h28l-18 -130q-6 -47 -22 -78t-39.5 -49.5t-54 -26.5t-65.5 -8q-33 0 -61.5 6t-49.5 21t-32.5 39t-11.5 60q0 16 3 36l52 373q6 46 24 77.5t44 50t59.5 26.5t70.5 8q31 0 56.5 -6t43.5 -20t28 -37t10 -57q0 -20 -3 -42l-19 -135h-28l19 135q3 19 3 36
q0 56 -30 77.5t-84 21.5q-65 0 -109.5 -29.5t-54.5 -105.5l-52 -373q-2 -5 -2 -9.5v-9.5q0 -66 32.5 -91t95.5 -25q31 0 56.5 6.5t44 22.5t31 42t17.5 64zM458 723l-130 163l-176 -163l-11 13l175 172h30l127 -172z" />
    <glyph glyph-name="ccircumflex" unicode="&#x109;" horiz-adv-x="383" 
d="M352 206h28l-9 -67q-6 -45 -22 -75t-40 -48t-54 -25.5t-63 -7.5q-32 0 -58 6t-44.5 20t-29 36.5t-10.5 56.5q0 16 3 37l30 210q6 45 22 75t39.5 48t54 25.5t66.5 7.5q66 0 102 -29t36 -105v-10.5t-2 -11.5l-9 -63h-28l9 63q1 8 1.5 15t0.5 14q0 28 -8.5 47t-23.5 30.5
t-35.5 16.5t-45.5 5q-29 0 -54.5 -6t-45.5 -21t-33 -39.5t-18 -61.5l-29 -200q-3 -21 -3 -37q0 -58 31 -80t86 -22q27 0 51.5 6t44 21t33 39.5t18.5 62.5zM423 551l-130 163l-176 -163l-11 13l175 172h30l127 -172z" />
    <glyph glyph-name="Cdotaccent" unicode="&#x10a;" horiz-adv-x="404" 
d="M379 275h28l-18 -130q-6 -47 -22 -78t-39.5 -49.5t-54 -26.5t-65.5 -8q-33 0 -61.5 6t-49.5 21t-32.5 39t-11.5 60q0 16 3 36l52 373q6 46 24 77.5t44 50t59.5 26.5t70.5 8q31 0 56.5 -6t43.5 -20t28 -37t10 -57q0 -20 -3 -42l-19 -135h-28l19 135q3 19 3 36
q0 56 -30 77.5t-84 21.5q-65 0 -109.5 -29.5t-54.5 -105.5l-52 -373q-2 -5 -2 -9.5v-9.5q0 -66 32.5 -91t95.5 -25q31 0 56.5 6.5t44 22.5t31 42t17.5 64zM284 726l19 133h38l-19 -133h-38z" />
    <glyph glyph-name="cdotaccent" unicode="&#x10b;" horiz-adv-x="383" 
d="M352 206h28l-9 -67q-6 -45 -22 -75t-40 -48t-54 -25.5t-63 -7.5q-32 0 -58 6t-44.5 20t-29 36.5t-10.5 56.5q0 16 3 37l30 210q6 45 22 75t39.5 48t54 25.5t66.5 7.5q66 0 102 -29t36 -105v-10.5t-2 -11.5l-9 -63h-28l9 63q1 8 1.5 15t0.5 14q0 28 -8.5 47t-23.5 30.5
t-35.5 16.5t-45.5 5q-29 0 -54.5 -6t-45.5 -21t-33 -39.5t-18 -61.5l-29 -200q-3 -21 -3 -37q0 -58 31 -80t86 -22q27 0 51.5 6t44 21t33 39.5t18.5 62.5zM249 554l19 133h38l-19 -133h-38z" />
    <glyph glyph-name="Ccaron" unicode="&#x10c;" horiz-adv-x="404" 
d="M379 275h28l-18 -130q-6 -47 -22 -78t-39.5 -49.5t-54 -26.5t-65.5 -8q-33 0 -61.5 6t-49.5 21t-32.5 39t-11.5 60q0 16 3 36l52 373q6 46 24 77.5t44 50t59.5 26.5t70.5 8q31 0 56.5 -6t43.5 -20t28 -37t10 -57q0 -20 -3 -42l-19 -135h-28l19 135q3 19 3 36
q0 56 -30 77.5t-84 21.5q-65 0 -109.5 -29.5t-54.5 -105.5l-52 -373q-2 -5 -2 -9.5v-9.5q0 -66 32.5 -91t95.5 -25q31 0 56.5 6.5t44 22.5t31 42t17.5 64zM159 882l15 16l132 -162l179 162l10 -16l-194 -179z" />
    <glyph glyph-name="ccaron" unicode="&#x10d;" horiz-adv-x="383" 
d="M352 206h28l-9 -67q-6 -45 -22 -75t-40 -48t-54 -25.5t-63 -7.5q-32 0 -58 6t-44.5 20t-29 36.5t-10.5 56.5q0 16 3 37l30 210q6 45 22 75t39.5 48t54 25.5t66.5 7.5q66 0 102 -29t36 -105v-10.5t-2 -11.5l-9 -63h-28l9 63q1 8 1.5 15t0.5 14q0 28 -8.5 47t-23.5 30.5
t-35.5 16.5t-45.5 5q-29 0 -54.5 -6t-45.5 -21t-33 -39.5t-18 -61.5l-29 -200q-3 -21 -3 -37q0 -58 31 -80t86 -22q27 0 51.5 6t44 21t33 39.5t18.5 62.5zM124 710l15 16l132 -162l179 162l10 -16l-194 -179z" />
    <glyph glyph-name="Dcaron" unicode="&#x10e;" horiz-adv-x="432" 
d="M43 0l93 664h176q31 0 58.5 -6t48 -22t32.5 -44.5t12 -73.5q0 -14 -1 -28t-3 -31l-38 -270q-8 -52 -27 -88t-46 -58.5t-60 -32.5t-69 -10h-176zM429 459q2 16 3 30t1 27q0 38 -9.5 62t-26.5 37t-40 17.5t-49 4.5h-146l-86 -610h146q31 0 58.5 8.5t50 27.5t38.5 50t22 76z
M163 882l15 16l132 -162l179 162l10 -16l-194 -179z" />
    <glyph glyph-name="dcaron" unicode="&#x10f;" horiz-adv-x="467" 
d="M83 349q6 46 21.5 76.5t38 48t50.5 24.5t60 7q54 0 87.5 -13t53.5 -28l29 208h28l-93 -661q-26 -9 -65.5 -18.5t-102.5 -9.5q-30 0 -56 6t-44.5 19.5t-29 36.5t-10.5 57q0 17 3 37zM390 437q-18 14 -50 27t-86 13q-27 0 -51 -5.5t-43 -20t-32 -39.5t-18 -64l-29 -209
q-2 -5 -2 -9.5v-9.5q0 -63 29.5 -86.5t85.5 -23.5q52 0 84 6.5t55 14.5zM510 672h35l-32 -141q-5 -21 -11.5 -44.5t-14.5 -43t-18.5 -33t-22.5 -14.5z" />
    <glyph glyph-name="Dcroat" unicode="&#x110;" horiz-adv-x="432" 
d="M45 0l47 335h-25l3 27h25l43 302h176q31 0 58.5 -6t48 -22t32.5 -44.5t12 -73.5q0 -14 -1 -28t-3 -31l-38 -270q-8 -52 -27 -88t-46 -58.5t-60 -32.5t-69 -10h-176zM430 459q2 16 3 30t1 27q0 38 -9.5 62t-26 37t-39.5 17.5t-49 4.5h-146l-39 -275h166l-3 -27h-166
l-44 -308h146q30 0 58 8.5t50 27.5t38 50t22 76z" />
    <glyph glyph-name="dcroat" unicode="&#x111;" horiz-adv-x="400" 
d="M436 565l-78 -554q-26 -9 -65.5 -18.5t-102.5 -9.5q-30 0 -56 6t-44.5 19.5t-29 36.5t-10.5 57q0 17 3 37l30 210q7 46 22.5 76.5t38 48t50 24.5t59.5 7q54 0 87.5 -13t53.5 -28l14 101h-230l3 25h230l12 82h28l-12 -82h43l-3 -25h-43zM390 437q-18 14 -50 27t-86 13
q-27 0 -51 -5.5t-43 -20t-32 -39.5t-18 -64l-29 -209q-2 -5 -2 -9.5v-9.5q0 -63 29.5 -86.5t85.5 -23.5q52 0 84 6.5t55 14.5z" />
    <glyph glyph-name="Emacron" unicode="&#x112;" horiz-adv-x="324" 
d="M43 0l93 664h247l-4 -27h-217l-39 -275h205l-3 -27h-205l-44 -308h223l-3 -27h-253zM133 792l3 25h301l-3 -25h-301z" />
    <glyph glyph-name="emacron" unicode="&#x113;" 
d="M353 8q-25 -10 -66 -17.5t-95 -7.5q-30 0 -56 6t-45 19.5t-30 36.5t-11 58q0 16 3 36l30 210q6 45 22 75t39.5 48t54 25.5t66.5 7.5q30 0 56.5 -6t45.5 -20.5t30 -38t11 -58.5q0 -8 -0.5 -16t-1.5 -17l-17 -121h-295l-13 -87q-2 -5 -2 -9.5v-9.5q0 -64 31.5 -87.5
t89.5 -23.5q48 0 86.5 7t70.5 18zM378 349q1 8 1.5 14.5t0.5 12.5q0 56 -33 78.5t-85 22.5q-62 0 -101.5 -28.5t-49.5 -99.5l-14 -95h267zM133 620l3 25h301l-3 -25h-301z" />
    <glyph glyph-name="Ebreve" unicode="&#x114;" horiz-adv-x="324" 
d="M43 0l93 664h247l-4 -27h-217l-39 -275h205l-3 -27h-205l-44 -308h223l-3 -27h-253zM443 888q-6 -42 -23 -73t-40.5 -51.5t-52 -31t-56.5 -10.5q-57 0 -92.5 36.5t-35.5 110.5v9.5t2 9.5h24q-1 -7 -1.5 -13.5t-0.5 -12.5q0 -60 31 -88.5t76 -28.5q24 0 47.5 8.5t43.5 26
t34.5 44.5t19.5 64h24z" />
    <glyph glyph-name="ebreve" unicode="&#x115;" 
d="M353 8q-25 -10 -66 -17.5t-95 -7.5q-30 0 -56 6t-45 19.5t-30 36.5t-11 58q0 16 3 36l30 210q6 45 22 75t39.5 48t54 25.5t66.5 7.5q30 0 56.5 -6t45.5 -20.5t30 -38t11 -58.5q0 -8 -0.5 -16t-1.5 -17l-17 -121h-295l-13 -87q-2 -5 -2 -9.5v-9.5q0 -64 31.5 -87.5
t89.5 -23.5q48 0 86.5 7t70.5 18zM378 349q1 8 1.5 14.5t0.5 12.5q0 56 -33 78.5t-85 22.5q-62 0 -101.5 -28.5t-49.5 -99.5l-14 -95h267zM446 716q-6 -42 -23 -73t-40.5 -51.5t-52 -31t-56.5 -10.5q-57 0 -92.5 36.5t-35.5 110.5v9.5t2 9.5h24q-1 -7 -1.5 -13.5t-0.5 -12.5
q0 -60 31 -88.5t76 -28.5q24 0 47.5 8.5t43.5 26t34.5 44.5t19.5 64h24z" />
    <glyph glyph-name="Edotaccent" unicode="&#x116;" horiz-adv-x="324" 
d="M43 0l93 664h247l-4 -27h-217l-39 -275h205l-3 -27h-205l-44 -308h223l-3 -27h-253zM254 726l19 133h38l-19 -133h-38z" />
    <glyph glyph-name="edotaccent" unicode="&#x117;" 
d="M353 8q-25 -10 -66 -17.5t-95 -7.5q-30 0 -56 6t-45 19.5t-30 36.5t-11 58q0 16 3 36l30 210q6 45 22 75t39.5 48t54 25.5t66.5 7.5q30 0 56.5 -6t45.5 -20.5t30 -38t11 -58.5q0 -8 -0.5 -16t-1.5 -17l-17 -121h-295l-13 -87q-2 -5 -2 -9.5v-9.5q0 -64 31.5 -87.5
t89.5 -23.5q48 0 86.5 7t70.5 18zM378 349q1 8 1.5 14.5t0.5 12.5q0 56 -33 78.5t-85 22.5q-62 0 -101.5 -28.5t-49.5 -99.5l-14 -95h267zM253 554l19 133h38l-19 -133h-38z" />
    <glyph glyph-name="Eogonek" unicode="&#x118;" horiz-adv-x="324" 
d="M263 -229q-5 -2 -16 -3t-33 -1q-32 0 -53 6t-33 16.5t-17 24.5t-5 31q0 52 22 84.5t73 48.5l71 22h-229l93 664h247l-4 -27h-217l-39 -275h205l-3 -27h-205l-44 -308h223l-3 -27l-83 -27q-45 -14 -63.5 -43t-18.5 -74q0 -27 18 -45t70 -18q39 0 48 4z" />
    <glyph glyph-name="eogonek" unicode="&#x119;" 
d="M294 -229q-5 -2 -16 -3t-33 -1q-32 0 -53 6t-33 16.5t-17 24.5t-5 31q0 52 22 84.5t73 48.5l29 9q-16 -2 -33.5 -3t-35.5 -1q-30 0 -56 6t-45 19.5t-30 36.5t-11 58q0 16 3 36l30 210q6 45 22 75t39.5 48t54 25.5t66.5 7.5q30 0 56.5 -6t45.5 -20.5t30 -38t11 -58.5
q0 -8 -0.5 -16t-1.5 -17l-17 -121h-295l-13 -87q-2 -5 -2 -9.5v-9.5q0 -64 31.5 -87.5t89.5 -23.5q48 0 86.5 7t70.5 18l-4 -28q-4 -2 -9.5 -4t-17 -5.5t-31 -9.5t-51.5 -16q-45 -14 -63.5 -43t-18.5 -74q0 -27 18 -45t70 -18q39 0 48 4zM378 349q1 8 1.5 14.5t0.5 12.5
q0 56 -33 78.5t-85 22.5q-62 0 -101.5 -28.5t-49.5 -99.5l-14 -95h267z" />
    <glyph glyph-name="Ecaron" unicode="&#x11a;" horiz-adv-x="324" 
d="M43 0l93 664h247l-4 -27h-217l-39 -275h205l-3 -27h-205l-44 -308h223l-3 -27h-253zM125 882l15 16l132 -162l179 162l10 -16l-194 -179z" />
    <glyph glyph-name="ecaron" unicode="&#x11b;" 
d="M353 8q-25 -10 -66 -17.5t-95 -7.5q-30 0 -56 6t-45 19.5t-30 36.5t-11 58q0 16 3 36l30 210q6 45 22 75t39.5 48t54 25.5t66.5 7.5q30 0 56.5 -6t45.5 -20.5t30 -38t11 -58.5q0 -8 -0.5 -16t-1.5 -17l-17 -121h-295l-13 -87q-2 -5 -2 -9.5v-9.5q0 -64 31.5 -87.5
t89.5 -23.5q48 0 86.5 7t70.5 18zM378 349q1 8 1.5 14.5t0.5 12.5q0 56 -33 78.5t-85 22.5q-62 0 -101.5 -28.5t-49.5 -99.5l-14 -95h267zM128 710l15 16l132 -162l179 162l10 -16l-194 -179z" />
    <glyph glyph-name="Gcircumflex" unicode="&#x11c;" horiz-adv-x="418" 
d="M396 340h29l-46 -328q-26 -9 -66 -19t-107 -10q-32 0 -60 6t-48.5 20.5t-32.5 38.5t-12 60q0 16 3 36l52 374q6 46 24 77.5t44 50t59.5 26.5t70.5 8q31 0 56.5 -6t43.5 -20t28 -37t10 -57q0 -20 -3 -42l-13 -92h-28l13 92q3 19 3 36q0 56 -30 77.5t-84 21.5
q-64 0 -108.5 -29.5t-55.5 -105.5l-52 -374q-2 -5 -2 -9.5v-9.5q0 -33 8.5 -55.5t25 -35.5t40 -18.5t53.5 -5.5q54 0 86.5 7t55.5 15zM465 723l-130 163l-176 -163l-11 13l175 172h30l127 -172z" />
    <glyph glyph-name="gcircumflex" unicode="&#x11d;" horiz-adv-x="393" 
d="M333 35q-23 -15 -60 -28t-91 -13q-30 0 -54 5.5t-41 19t-26.5 37.5t-9.5 62q0 8 1 16t3 16l28 199q6 45 22.5 75t40.5 48t54 25.5t65 7.5q69 0 106 -29.5t37 -105.5v-10.5t-2 -10.5l-63 -444q-6 -43 -22.5 -72t-40.5 -46.5t-55 -25t-65 -7.5q-29 0 -53 5.5t-41.5 19
t-27.5 36t-10 55.5q0 15 3 35l6 39h27l-6 -39q-2 -5 -2 -9.5v-8.5q0 -60 28 -83t80 -23q28 0 53.5 6t45.5 20.5t33.5 38.5t18.5 59zM378 349q1 8 1.5 15t0.5 13q0 57 -32 78.5t-86 21.5q-28 0 -53 -6t-45 -21t-34 -39.5t-19 -61.5l-28 -198q-3 -20 -3 -34q0 -28 8.5 -46.5
t23 -29t34.5 -15t44 -4.5q54 0 89.5 13t57.5 27zM428 551l-130 163l-176 -163l-11 13l175 172h30l127 -172z" />
    <glyph glyph-name="Gbreve" unicode="&#x11e;" horiz-adv-x="418" 
d="M396 340h29l-46 -328q-26 -9 -66 -19t-107 -10q-32 0 -60 6t-48.5 20.5t-32.5 38.5t-12 60q0 16 3 36l52 374q6 46 24 77.5t44 50t59.5 26.5t70.5 8q31 0 56.5 -6t43.5 -20t28 -37t10 -57q0 -20 -3 -42l-13 -92h-28l13 92q3 19 3 36q0 56 -30 77.5t-84 21.5
q-64 0 -108.5 -29.5t-55.5 -105.5l-52 -374q-2 -5 -2 -9.5v-9.5q0 -33 8.5 -55.5t25 -35.5t40 -18.5t53.5 -5.5q54 0 86.5 7t55.5 15zM482 888q-6 -42 -23 -73t-40.5 -51.5t-52 -31t-56.5 -10.5q-57 0 -92.5 36.5t-35.5 110.5v9.5t2 9.5h24q-1 -7 -1.5 -13.5t-0.5 -12.5
q0 -60 31 -88.5t76 -28.5q24 0 47.5 8.5t43.5 26t34.5 44.5t19.5 64h24z" />
    <glyph glyph-name="gbreve" unicode="&#x11f;" horiz-adv-x="393" 
d="M333 35q-23 -15 -60 -28t-91 -13q-30 0 -54 5.5t-41 19t-26.5 37.5t-9.5 62q0 8 1 16t3 16l28 199q6 45 22.5 75t40.5 48t54 25.5t65 7.5q69 0 106 -29.5t37 -105.5v-10.5t-2 -10.5l-63 -444q-6 -43 -22.5 -72t-40.5 -46.5t-55 -25t-65 -7.5q-29 0 -53 5.5t-41.5 19
t-27.5 36t-10 55.5q0 15 3 35l6 39h27l-6 -39q-2 -5 -2 -9.5v-8.5q0 -60 28 -83t80 -23q28 0 53.5 6t45.5 20.5t33.5 38.5t18.5 59zM378 349q1 8 1.5 15t0.5 13q0 57 -32 78.5t-86 21.5q-28 0 -53 -6t-45 -21t-34 -39.5t-19 -61.5l-28 -198q-3 -20 -3 -34q0 -28 8.5 -46.5
t23 -29t34.5 -15t44 -4.5q54 0 89.5 13t57.5 27zM447 716q-6 -42 -23 -73t-40.5 -51.5t-52 -31t-56.5 -10.5q-57 0 -92.5 36.5t-35.5 110.5v9.5t2 9.5h24q-1 -7 -1.5 -13.5t-0.5 -12.5q0 -60 31 -88.5t76 -28.5q24 0 47.5 8.5t43.5 26t34.5 44.5t19.5 64h24z" />
    <glyph glyph-name="Gdotaccent" unicode="&#x120;" horiz-adv-x="418" 
d="M396 340h29l-46 -328q-26 -9 -66 -19t-107 -10q-32 0 -60 6t-48.5 20.5t-32.5 38.5t-12 60q0 16 3 36l52 374q6 46 24 77.5t44 50t59.5 26.5t70.5 8q31 0 56.5 -6t43.5 -20t28 -37t10 -57q0 -20 -3 -42l-13 -92h-28l13 92q3 19 3 36q0 56 -30 77.5t-84 21.5
q-64 0 -108.5 -29.5t-55.5 -105.5l-52 -374q-2 -5 -2 -9.5v-9.5q0 -33 8.5 -55.5t25 -35.5t40 -18.5t53.5 -5.5q54 0 86.5 7t55.5 15zM291 726l19 133h38l-19 -133h-38z" />
    <glyph glyph-name="gdotaccent" unicode="&#x121;" horiz-adv-x="393" 
d="M333 35q-23 -15 -60 -28t-91 -13q-30 0 -54 5.5t-41 19t-26.5 37.5t-9.5 62q0 8 1 16t3 16l28 199q6 45 22.5 75t40.5 48t54 25.5t65 7.5q69 0 106 -29.5t37 -105.5v-10.5t-2 -10.5l-63 -444q-6 -43 -22.5 -72t-40.5 -46.5t-55 -25t-65 -7.5q-29 0 -53 5.5t-41.5 19
t-27.5 36t-10 55.5q0 15 3 35l6 39h27l-6 -39q-2 -5 -2 -9.5v-8.5q0 -60 28 -83t80 -23q28 0 53.5 6t45.5 20.5t33.5 38.5t18.5 59zM378 349q1 8 1.5 15t0.5 13q0 57 -32 78.5t-86 21.5q-28 0 -53 -6t-45 -21t-34 -39.5t-19 -61.5l-28 -198q-3 -20 -3 -34q0 -28 8.5 -46.5
t23 -29t34.5 -15t44 -4.5q54 0 89.5 13t57.5 27zM254 554l19 133h38l-19 -133h-38z" />
    <glyph glyph-name="uni0122" unicode="&#x122;" horiz-adv-x="418" 
d="M396 340h29l-46 -328q-26 -9 -66 -19t-107 -10q-32 0 -60 6t-48.5 20.5t-32.5 38.5t-12 60q0 16 3 36l52 374q6 46 24 77.5t44 50t59.5 26.5t70.5 8q31 0 56.5 -6t43.5 -20t28 -37t10 -57q0 -20 -3 -42l-13 -92h-28l13 92q3 19 3 36q0 56 -30 77.5t-84 21.5
q-64 0 -108.5 -29.5t-55.5 -105.5l-52 -374q-2 -5 -2 -9.5v-9.5q0 -33 8.5 -55.5t25 -35.5t40 -18.5t53.5 -5.5q54 0 86.5 7t55.5 15zM198 -34h32l-20 -81q-6 -22 -12.5 -44.5t-14.5 -40.5t-16.5 -30t-18.5 -13z" />
    <glyph glyph-name="uni0123" unicode="&#x123;" horiz-adv-x="393" 
d="M333 35q-23 -15 -60 -28t-91 -13q-30 0 -54 5.5t-41 19t-26.5 37.5t-9.5 62q0 8 1 16t3 16l28 199q6 45 22.5 75t40.5 48t54 25.5t65 7.5q69 0 106 -29.5t37 -105.5v-10.5t-2 -10.5l-63 -444q-6 -43 -22.5 -72t-40.5 -46.5t-55 -25t-65 -7.5q-29 0 -53 5.5t-41.5 19
t-27.5 36t-10 55.5q0 15 3 35l6 39h27l-6 -39q-2 -5 -2 -9.5v-8.5q0 -60 28 -83t80 -23q28 0 53.5 6t45.5 20.5t33.5 38.5t18.5 59zM378 349q1 8 1.5 15t0.5 13q0 57 -32 78.5t-86 21.5q-28 0 -53 -6t-45 -21t-34 -39.5t-19 -61.5l-28 -198q-3 -20 -3 -34q0 -28 8.5 -46.5
t23 -29t34.5 -15t44 -4.5q54 0 89.5 13t57.5 27zM286.005 528.998h-31.998l19.999 80.9951q5.99902 21.998 12.499 44.4971q6.49902 22.499 14.499 40.498q7.99902 17.998 16.499 29.998q8.49902 11.999 18.499 12.999z" />
    <glyph glyph-name="Hcircumflex" unicode="&#x124;" horiz-adv-x="439" 
d="M365 0l45 323h-292l-45 -323h-30l93 664h30l-44 -314h292l44 314h30l-93 -664h-30zM474 723l-130 163l-176 -163l-11 13l175 172h30l127 -172z" />
    <glyph glyph-name="hcircumflex" unicode="&#x125;" horiz-adv-x="405" 
d="M338 0l48 348q3 18 3 34q0 56 -30.5 75.5t-78.5 19.5q-54 0 -89.5 -13t-58.5 -27l-61 -437h-28l94 672h28l-29 -208q24 15 60.5 28t90.5 13q28 0 52 -5.5t41.5 -18.5t27.5 -36t10 -57q0 -18 -3 -39l-49 -349h-28zM465 723l-130 163l-176 -163l-11 13l175 172h30l127 -172
z" />
    <glyph glyph-name="Hbar" unicode="&#x126;" horiz-adv-x="439" 
d="M365 0l45 323h-292l-45 -323h-30l93 664h30l-21 -147h292l21 147h30l-93 -664h-30zM414 350l20 142h-292l-20 -142h292z" />
    <glyph glyph-name="hbar" unicode="&#x127;" horiz-adv-x="405" 
d="M151 570l-15 -106q24 15 60.5 28t90.5 13q28 0 52 -5.5t41.5 -18.5t27.5 -36t10 -57q0 -18 -3 -39l-49 -349h-28l48 348q3 18 3 34q0 56 -30.5 75.5t-78.5 19.5q-54 0 -89.5 -13t-58.5 -27l-61 -437h-28l80 570h-43l3 25h43l11 77h28l-11 -77h230l-3 -25h-230z" />
    <glyph glyph-name="Itilde" unicode="&#x128;" horiz-adv-x="116" 
d="M43 0l93 664h30l-93 -664h-30zM21 792l3 25h301l-3 -25h-301z" />
    <glyph glyph-name="itilde" unicode="&#x129;" horiz-adv-x="125" 
d="M48 0l69 492h29l-69 -492h-29zM0 620l3 25h301l-3 -25h-301z" />
    <glyph glyph-name="Imacron" unicode="&#x12a;" horiz-adv-x="116" 
d="M43 0l93 664h30l-93 -664h-30zM21 792l3 25h301l-3 -25h-301z" />
    <glyph glyph-name="imacron" unicode="&#x12b;" horiz-adv-x="125" 
d="M48 0l69 492h29l-69 -492h-29zM0 620l3 25h301l-3 -25h-301z" />
    <glyph glyph-name="Ibreve" unicode="&#x12c;" horiz-adv-x="116" 
d="M43 0l93 664h30l-93 -664h-30zM333 888q-6 -42 -23 -73t-40.5 -51.5t-52 -31t-56.5 -10.5q-57 0 -92.5 36.5t-35.5 110.5v9.5t2 9.5h24q-1 -7 -1.5 -13.5t-0.5 -12.5q0 -60 31 -88.5t76 -28.5q24 0 47.5 8.5t43.5 26t34.5 44.5t19.5 64h24z" />
    <glyph glyph-name="ibreve" unicode="&#x12d;" horiz-adv-x="125" 
d="M48 0l69 492h29l-69 -492h-29zM313 716q-6 -42 -23 -73t-40.5 -51.5t-52 -31t-56.5 -10.5q-57 0 -92.5 36.5t-35.5 110.5v9.5t2 9.5h24q-1 -7 -1.5 -13.5t-0.5 -12.5q0 -60 31 -88.5t76 -28.5q24 0 47.5 8.5t43.5 26t34.5 44.5t19.5 64h24z" />
    <glyph glyph-name="Iogonek" unicode="&#x12e;" horiz-adv-x="116" 
d="M40 -229q-5 -2 -16 -3t-32 -1q-32 0 -53 6t-33 16.5t-17 24.5t-5 31q0 52 22 84t73 49l63 20l94 666h30l-93 -664l-82 -27q-45 -15 -63.5 -43.5t-18.5 -73.5q0 -27 18 -45t70 -18q38 0 47 4z" />
    <glyph glyph-name="iogonek" unicode="&#x12f;" horiz-adv-x="125" 
d="M44 -229q-5 -2 -16 -3t-32 -1q-32 0 -53 6t-33 16.5t-17 24.5t-5 31q0 53 22 84.5t73 48.5l64 21l70 493h29l-69 -492l-82 -27q-45 -15 -63.5 -43.5t-18.5 -73.5q0 -27 17.5 -45t69.5 -18q39 0 48 4zM123 551l17 121h33l-17 -121h-33z" />
    <glyph glyph-name="Idotaccent" unicode="&#x130;" horiz-adv-x="116" 
d="M43 0l93 664h30l-93 -664h-30zM142 726l19 133h38l-19 -133h-38z" />
    <glyph glyph-name="dotlessi" unicode="&#x131;" horiz-adv-x="125" 
d="M48 0l69 492h29l-69 -492h-29z" />
    <glyph glyph-name="IJ" unicode="&#x132;" horiz-adv-x="380" 
d="M43 0l93 664h30l-93 -664h-30zM402 664h31l-74 -525q-7 -47 -25 -77.5t-44.5 -49.5t-59 -26.5t-68.5 -7.5q-6 0 -11 0.5t-10 1.5l4 28q9 -3 21 -3q30 0 57.5 6.5t49 22t36 41.5t19.5 64z" />
    <glyph glyph-name="ij" unicode="&#x133;" horiz-adv-x="333" 
d="M48 0l69 492h29l-69 -492h-29zM123 551l17 121h33l-17 -121h-33zM326 492h28l-83 -586q-6 -41 -20.5 -67.5t-34.5 -42.5t-45 -22.5t-52 -6.5q-13 0 -22 3l4 26q5 -2 9 -2.5t12 -0.5q21 0 41 5.5t36.5 19t28 35.5t16.5 55zM331 551l17 121h33l-17 -121h-33z" />
    <glyph glyph-name="Jcircumflex" unicode="&#x134;" horiz-adv-x="264" 
d="M286 664h31l-74 -525q-7 -47 -25 -77.5t-44.5 -49.5t-59 -26.5t-68.5 -7.5q-6 0 -11 0.5t-10 1.5l4 28q9 -3 21 -3q30 0 57.5 6.5t49 22t36 41.5t19.5 64zM378 723l-130 163l-176 -163l-11 13l175 172h30l127 -172z" />
    <glyph glyph-name="jcircumflex" unicode="&#x135;" horiz-adv-x="208" 
d="M201 492h28l-83 -586q-6 -41 -20.5 -67.5t-34.5 -42.5t-45 -22.5t-52 -6.5q-13 0 -22 3l4 26q5 -2 9 -2.5t12 -0.5q21 0 41 5.5t36.5 19t28 35.5t16.5 55zM315 551l-130 163l-176 -163l-11 13l175 172h30l127 -172z" />
    <glyph glyph-name="uni0136" unicode="&#x136;" horiz-adv-x="435" 
d="M385 0l-265 345l-48 -345h-29l93 664h29l-42 -299l340 299h41l-355 -307l274 -357h-38zM206 -34h32l-20 -81q-6 -22 -12.5 -44.5t-14.5 -40.5t-16.5 -30t-18.5 -13z" />
    <glyph glyph-name="uni0137" unicode="&#x137;" horiz-adv-x="409" 
d="M358 0l-252 256l-35 -256h-28l94 672h28l-56 -401l303 221h43l-320 -227l262 -265h-39zM193 -34h32l-20 -81q-6 -22 -12.5 -44.5t-14.5 -40.5t-16.5 -30t-18.5 -13z" />
    <glyph glyph-name="Lacute" unicode="&#x139;" horiz-adv-x="318" 
d="M43 0l93 664h30l-90 -637h221l-3 -27h-251zM72 706l3 21l237 155l-4 -33z" />
    <glyph glyph-name="lacute" unicode="&#x13a;" horiz-adv-x="114" 
d="M43 0l94 672h28l-94 -672h-28zM70 706l3 21l237 155l-4 -33z" />
    <glyph glyph-name="uni013B" unicode="&#x13b;" horiz-adv-x="318" 
d="M43 0l93 664h30l-90 -637h221l-3 -27h-251zM148 -34h32l-20 -81q-6 -22 -12.5 -44.5t-14.5 -40.5t-16.5 -30t-18.5 -13z" />
    <glyph glyph-name="uni013C" unicode="&#x13c;" horiz-adv-x="114" 
d="M43 0l94 672h28l-94 -672h-28zM38 -34h32l-20 -81q-6 -22 -12.5 -44.5t-14.5 -40.5t-16.5 -30t-18.5 -13z" />
    <glyph glyph-name="Lcaron" unicode="&#x13d;" horiz-adv-x="318" 
d="M43 0l93 664h30l-90 -637h221l-3 -27h-251zM325 798h35l-32 -141q-5 -21 -11.5 -44.5t-14.5 -43t-18.5 -33t-22.5 -14.5z" />
    <glyph glyph-name="lcaron" unicode="&#x13e;" horiz-adv-x="161" 
d="M43 0l94 672h28l-94 -672h-28zM220 672h35l-32 -141q-5 -21 -11.5 -44.5t-14.5 -43t-18.5 -33t-22.5 -14.5z" />
    <glyph glyph-name="Ldot" unicode="&#x13f;" horiz-adv-x="318" 
d="M43 0l93 664h30l-90 -637h221l-3 -27h-251zM204 278l19 133h38l-19 -133h-38z" />
    <glyph glyph-name="ldot" unicode="&#x140;" horiz-adv-x="152" 
d="M43 0l94 672h28l-94 -672h-28zM152 282l19 133h38l-19 -133h-38z" />
    <glyph glyph-name="Lslash" unicode="&#x141;" horiz-adv-x="318" 
d="M43 0l93 664h30l-50 -351l213 120l-3 -24l-213 -120l-37 -262h221l-3 -27h-251z" />
    <glyph glyph-name="lslash" unicode="&#x142;" horiz-adv-x="125" 
d="M48 0l43 310l-53 -53l3 27l54 53l47 335h28l-43 -305l55 54l-4 -27l-55 -55l-47 -339h-28z" />
    <glyph glyph-name="Nacute" unicode="&#x143;" horiz-adv-x="435" 
d="M365 0l72 519q1 8 1.5 15t0.5 15q0 30 -9.5 50t-26.5 32t-40 17t-50 5q-55 0 -91.5 -7t-60.5 -15l-88 -631h-30l91 651q26 9 70 19t113 10q31 0 59 -6t49 -21t33 -39t12 -60q0 -16 -3 -35l-72 -519h-30zM228 706l3 21l237 155l-4 -33z" />
    <glyph glyph-name="nacute" unicode="&#x144;" horiz-adv-x="405" 
d="M338 0l48 348q1 8 1.5 15.5t0.5 15.5q0 55 -31.5 76.5t-82.5 21.5q-54 0 -85.5 -6.5t-53.5 -14.5l-64 -456h-28l67 477q25 9 64.5 18.5t102.5 9.5q67 0 103.5 -29t36.5 -106v-10.5t-2 -10.5l-49 -349h-28zM189 534l3 21l237 155l-4 -33z" />
    <glyph glyph-name="uni0145" unicode="&#x145;" horiz-adv-x="435" 
d="M365 0l72 519q1 8 1.5 15t0.5 15q0 30 -9.5 50t-26.5 32t-40 17t-50 5q-55 0 -91.5 -7t-60.5 -15l-88 -631h-30l91 651q26 9 70 19t113 10q31 0 59 -6t49 -21t33 -39t12 -60q0 -16 -3 -35l-72 -519h-30zM206 -34h32l-20 -81q-6 -22 -12.5 -44.5t-14.5 -40.5t-16.5 -30
t-18.5 -13z" />
    <glyph glyph-name="uni0146" unicode="&#x146;" horiz-adv-x="405" 
d="M338 0l48 348q1 8 1.5 15.5t0.5 15.5q0 55 -31.5 76.5t-82.5 21.5q-54 0 -85.5 -6.5t-53.5 -14.5l-64 -456h-28l67 477q25 9 64.5 18.5t102.5 9.5q67 0 103.5 -29t36.5 -106v-10.5t-2 -10.5l-49 -349h-28zM191 -34h32l-20 -81q-6 -22 -12.5 -44.5t-14.5 -40.5t-16.5 -30
t-18.5 -13z" />
    <glyph glyph-name="Ncaron" unicode="&#x147;" horiz-adv-x="435" 
d="M365 0l72 519q1 8 1.5 15t0.5 15q0 30 -9.5 50t-26.5 32t-40 17t-50 5q-55 0 -91.5 -7t-60.5 -15l-88 -631h-30l91 651q26 9 70 19t113 10q31 0 59 -6t49 -21t33 -39t12 -60q0 -16 -3 -35l-72 -519h-30zM173 882l15 16l132 -162l179 162l10 -16l-194 -179z" />
    <glyph glyph-name="ncaron" unicode="&#x148;" horiz-adv-x="405" 
d="M338 0l48 348q1 8 1.5 15.5t0.5 15.5q0 55 -31.5 76.5t-82.5 21.5q-54 0 -85.5 -6.5t-53.5 -14.5l-64 -456h-28l67 477q25 9 64.5 18.5t102.5 9.5q67 0 103.5 -29t36.5 -106v-10.5t-2 -10.5l-49 -349h-28zM135 710l15 16l132 -162l179 162l10 -16l-194 -179z" />
    <glyph glyph-name="Eng" unicode="&#x14a;" horiz-adv-x="435" 
d="M437 519q1 8 1.5 15t0.5 15q0 30 -9.5 50t-26.5 32t-40 17t-50 5q-55 0 -91.5 -7t-60.5 -15l-88 -631h-30l91 651q26 9 70 19t113 10q31 0 59 -6t49 -21t33 -39t12 -60q0 -16 -3 -35l-87 -623q-6 -41 -20.5 -67.5t-35 -42.5t-46 -22.5t-52.5 -6.5q-14 0 -21 3l3 26
q9 -3 22 -3q43 0 77 25t43 90z" />
    <glyph glyph-name="eng" unicode="&#x14b;" horiz-adv-x="405" 
d="M386 348q1 8 1.5 15.5t0.5 15.5q0 55 -31.5 76.5t-82.5 21.5q-54 0 -85.5 -6.5t-53.5 -14.5l-64 -456h-28l67 477q25 9 64.5 18.5t102.5 9.5q67 0 103.5 -29t36.5 -106v-10.5t-2 -10.5l-64 -453q-6 -41 -20.5 -67.5t-35 -42.5t-46 -22.5t-52.5 -6.5q-14 0 -21 3l3 26
q9 -3 22 -3q21 0 41 5.5t36.5 19t28 35.5t16.5 55z" />
    <glyph glyph-name="Omacron" unicode="&#x14c;" horiz-adv-x="425" 
d="M108 518q7 46 25 77.5t44 50t59 26.5t71 8q32 0 60.5 -6.5t49.5 -21.5t33.5 -39.5t12.5 -60.5q0 -16 -3 -34l-52 -373q-6 -47 -25 -78t-46 -49.5t-60.5 -26.5t-67.5 -8q-33 0 -61.5 6t-49.5 21t-33 39t-12 60q0 16 3 36zM429 518q1 8 1.5 15.5t0.5 14.5q0 30 -9.5 50
t-27 32.5t-41 17.5t-50.5 5q-32 0 -60 -6.5t-49.5 -22t-36 -41.5t-19.5 -65l-52 -373q-3 -17 -3 -32q0 -59 36 -81t94 -22q30 0 57.5 6.5t49 22t36.5 41.5t21 65zM173 792l3 25h301l-3 -25h-301z" />
    <glyph glyph-name="omacron" unicode="&#x14d;" 
d="M376 139q-6 -45 -23 -75t-41.5 -48t-55 -25.5t-64.5 -7.5q-32 0 -58 6t-44.5 20t-29 36.5t-10.5 56.5q0 17 3 37l30 210q6 45 22 75t39.5 48t54 25.5t66.5 7.5q30 0 56.5 -6t45.5 -20.5t30 -38t11 -58.5q0 -8 -0.5 -16t-1.5 -17zM378 349q1 8 1.5 14.5t0.5 12.5
q0 29 -9 48.5t-25 31t-37.5 16.5t-46.5 5q-30 0 -55 -6t-44.5 -21t-33 -39.5t-18.5 -61.5l-30 -210q-2 -5 -2 -9.5v-9.5q0 -62 29.5 -86t87.5 -24q28 0 53.5 6t45.5 21t34 39.5t19 62.5zM133 620l3 25h301l-3 -25h-301z" />
    <glyph glyph-name="Obreve" unicode="&#x14e;" horiz-adv-x="425" 
d="M108 518q7 46 25 77.5t44 50t59 26.5t71 8q32 0 60.5 -6.5t49.5 -21.5t33.5 -39.5t12.5 -60.5q0 -16 -3 -34l-52 -373q-6 -47 -25 -78t-46 -49.5t-60.5 -26.5t-67.5 -8q-33 0 -61.5 6t-49.5 21t-33 39t-12 60q0 16 3 36zM429 518q1 8 1.5 15.5t0.5 14.5q0 30 -9.5 50
t-27 32.5t-41 17.5t-50.5 5q-32 0 -60 -6.5t-49.5 -22t-36 -41.5t-19.5 -65l-52 -373q-3 -17 -3 -32q0 -59 36 -81t94 -22q30 0 57.5 6.5t49 22t36.5 41.5t21 65zM486 888q-6 -42 -23 -73t-40.5 -51.5t-52 -31t-56.5 -10.5q-57 0 -92.5 36.5t-35.5 110.5v9.5t2 9.5h24
q-1 -7 -1.5 -13.5t-0.5 -12.5q0 -60 31 -88.5t76 -28.5q24 0 47.5 8.5t43.5 26t34.5 44.5t19.5 64h24z" />
    <glyph glyph-name="obreve" unicode="&#x14f;" 
d="M376 139q-6 -45 -23 -75t-41.5 -48t-55 -25.5t-64.5 -7.5q-32 0 -58 6t-44.5 20t-29 36.5t-10.5 56.5q0 17 3 37l30 210q6 45 22 75t39.5 48t54 25.5t66.5 7.5q30 0 56.5 -6t45.5 -20.5t30 -38t11 -58.5q0 -8 -0.5 -16t-1.5 -17zM378 349q1 8 1.5 14.5t0.5 12.5
q0 29 -9 48.5t-25 31t-37.5 16.5t-46.5 5q-30 0 -55 -6t-44.5 -21t-33 -39.5t-18.5 -61.5l-30 -210q-2 -5 -2 -9.5v-9.5q0 -62 29.5 -86t87.5 -24q28 0 53.5 6t45.5 21t34 39.5t19 62.5zM446 716q-6 -42 -23 -73t-40.5 -51.5t-52 -31t-56.5 -10.5q-57 0 -92.5 36.5
t-35.5 110.5v9.5t2 9.5h24q-1 -7 -1.5 -13.5t-0.5 -12.5q0 -60 31 -88.5t76 -28.5q24 0 47.5 8.5t43.5 26t34.5 44.5t19.5 64h24z" />
    <glyph glyph-name="Ohungarumlaut" unicode="&#x150;" horiz-adv-x="425" 
d="M108 518q7 46 25 77.5t44 50t59 26.5t71 8q32 0 60.5 -6.5t49.5 -21.5t33.5 -39.5t12.5 -60.5q0 -16 -3 -34l-52 -373q-6 -47 -25 -78t-46 -49.5t-60.5 -26.5t-67.5 -8q-33 0 -61.5 6t-49.5 21t-33 39t-12 60q0 16 3 36zM429 518q1 8 1.5 15.5t0.5 14.5q0 30 -9.5 50
t-27 32.5t-41 17.5t-50.5 5q-32 0 -60 -6.5t-49.5 -22t-36 -41.5t-19.5 -65l-52 -373q-3 -17 -3 -32q0 -59 36 -81t94 -22q30 0 57.5 6.5t49 22t36.5 41.5t21 65zM331 728l158 156l14 -12l-160 -155zM186 728l157 157l13 -12l-159 -156z" />
    <glyph glyph-name="ohungarumlaut" unicode="&#x151;" 
d="M376 139q-6 -45 -23 -75t-41.5 -48t-55 -25.5t-64.5 -7.5q-32 0 -58 6t-44.5 20t-29 36.5t-10.5 56.5q0 17 3 37l30 210q6 45 22 75t39.5 48t54 25.5t66.5 7.5q30 0 56.5 -6t45.5 -20.5t30 -38t11 -58.5q0 -8 -0.5 -16t-1.5 -17zM378 349q1 8 1.5 14.5t0.5 12.5
q0 29 -9 48.5t-25 31t-37.5 16.5t-46.5 5q-30 0 -55 -6t-44.5 -21t-33 -39.5t-18.5 -61.5l-30 -210q-2 -5 -2 -9.5v-9.5q0 -62 29.5 -86t87.5 -24q28 0 53.5 6t45.5 21t34 39.5t19 62.5zM291 556l158 156l14 -12l-160 -155zM146 556l157 157l13 -12l-159 -156z" />
    <glyph glyph-name="OE" unicode="&#x152;" horiz-adv-x="622" 
d="M359 0l8 58q-25 -42 -67.5 -58.5t-90.5 -16.5q-33 0 -61.5 6t-49.5 21t-33 39t-12 60q0 16 3 36l52 373q6 46 24 77.5t44.5 50t60 26.5t70.5 8q48 0 85 -17t50 -59l9 60h229l-4 -27h-199l-39 -275h187l-3 -27h-187l-44 -308h205l-3 -27h-234zM429 518q1 8 1.5 15.5
t0.5 14.5q0 30 -9.5 50t-27 32.5t-41 17.5t-50.5 5q-32 0 -60 -6.5t-49.5 -22t-36 -41.5t-19.5 -65l-52 -373q-3 -17 -3 -32q0 -59 36 -81t94 -22q30 0 57.5 7t49.5 23t37 41.5t20 63.5z" />
    <glyph glyph-name="oe" unicode="&#x153;" horiz-adv-x="692" 
d="M648 8q-25 -10 -66 -17.5t-95 -7.5q-53 0 -90 19t-45 69q-23 -50 -65.5 -69t-94.5 -19q-32 0 -58 6t-44.5 20t-29 36.5t-10.5 56.5q0 17 3 37l30 210q6 45 22 75t39.5 48t54 25.5t66.5 7.5q52 0 89.5 -20t46.5 -70q22 51 63.5 70.5t95.5 19.5q30 0 56.5 -6t45.5 -20.5
t30 -38t11 -58.5q0 -8 -0.5 -16t-1.5 -17l-17 -121h-295l-13 -89q-2 -5 -2 -9.5v-8.5q0 -32 8 -53.5t24 -34t38 -17.5t51 -5q48 0 86.5 7t70.5 18zM378 349q1 8 1.5 14.5t0.5 12.5q0 29 -9 48.5t-25 31t-37.5 16.5t-46.5 5q-30 0 -55 -6t-44.5 -21t-33 -39.5t-18.5 -61.5
l-30 -210q-2 -5 -2 -9.5v-9.5q0 -62 29.5 -86t87.5 -24q28 0 53.5 6t45.5 21t34 39.5t19 62.5zM673 349q1 8 1.5 14.5t0.5 12.5q0 56 -33 78.5t-85 22.5q-62 0 -101.5 -28.5t-49.5 -99.5l-14 -95h267z" />
    <glyph glyph-name="Racute" unicode="&#x154;" horiz-adv-x="422" 
d="M355 0l28 206q3 18 3 33q0 37 -19 60t-67 23h-183l-45 -322h-29l93 664h210q33 0 54.5 -9.5t34 -25t17.5 -36.5t5 -44q0 -40 -8 -76.5t-23 -65t-37 -47.5t-50 -24q42 -7 59 -30.5t17 -65.5q0 -19 -3 -38l-28 -202h-29zM303 347q33 0 56.5 17t38.5 44t22 61.5t7 70.5
q0 20 -4.5 37.5t-15 31t-28.5 21t-45 7.5h-173l-41 -290h183zM222 706l3 21l237 155l-4 -33z" />
    <glyph glyph-name="racute" unicode="&#x155;" horiz-adv-x="375" 
d="M43 0l67 477q23 9 60 18.5t97 9.5q30 0 55 -5t43.5 -17.5t29 -33.5t10.5 -52q0 -6 -0.5 -12.5t-1.5 -14.5l-9 -63h-26l8 59q1 6 1.5 12t0.5 11q0 50 -32 69t-81 19q-48 0 -79 -6.5t-51 -14.5l-64 -456h-28zM174 534l3 21l237 155l-4 -33z" />
    <glyph glyph-name="uni0156" unicode="&#x156;" horiz-adv-x="422" 
d="M355 0l28 206q3 18 3 33q0 37 -19 60t-67 23h-183l-45 -322h-29l93 664h210q33 0 54.5 -9.5t34 -25t17.5 -36.5t5 -44q0 -40 -8 -76.5t-23 -65t-37 -47.5t-50 -24q42 -7 59 -30.5t17 -65.5q0 -19 -3 -38l-28 -202h-29zM303 347q33 0 56.5 17t38.5 44t22 61.5t7 70.5
q0 20 -4.5 37.5t-15 31t-28.5 21t-45 7.5h-173l-41 -290h183zM200 -34h32l-20 -81q-6 -22 -12.5 -44.5t-14.5 -40.5t-16.5 -30t-18.5 -13z" />
    <glyph glyph-name="uni0157" unicode="&#x157;" horiz-adv-x="375" 
d="M43 0l67 477q23 9 60 18.5t97 9.5q30 0 55 -5t43.5 -17.5t29 -33.5t10.5 -52q0 -6 -0.5 -12.5t-1.5 -14.5l-9 -63h-26l8 59q1 6 1.5 12t0.5 11q0 50 -32 69t-81 19q-48 0 -79 -6.5t-51 -14.5l-64 -456h-28zM37 -34h32l-20 -81q-6 -22 -12.5 -44.5t-14.5 -40.5t-16.5 -30
t-18.5 -13z" />
    <glyph glyph-name="Rcaron" unicode="&#x158;" horiz-adv-x="422" 
d="M355 0l28 206q3 18 3 33q0 37 -19 60t-67 23h-183l-45 -322h-29l93 664h210q33 0 54.5 -9.5t34 -25t17.5 -36.5t5 -44q0 -40 -8 -76.5t-23 -65t-37 -47.5t-50 -24q42 -7 59 -30.5t17 -65.5q0 -19 -3 -38l-28 -202h-29zM303 347q33 0 56.5 17t38.5 44t22 61.5t7 70.5
q0 20 -4.5 37.5t-15 31t-28.5 21t-45 7.5h-173l-41 -290h183zM158 882l15 16l132 -162l179 162l10 -16l-194 -179z" />
    <glyph glyph-name="rcaron" unicode="&#x159;" horiz-adv-x="375" 
d="M43 0l67 477q23 9 60 18.5t97 9.5q30 0 55 -5t43.5 -17.5t29 -33.5t10.5 -52q0 -6 -0.5 -12.5t-1.5 -14.5l-9 -63h-26l8 59q1 6 1.5 12t0.5 11q0 50 -32 69t-81 19q-48 0 -79 -6.5t-51 -14.5l-64 -456h-28zM120 710l15 16l132 -162l179 162l10 -16l-194 -179z" />
    <glyph glyph-name="Sacute" unicode="&#x15a;" 
d="M396 466l8 59q2 5 2 10v10q0 62 -27 85t-84 23q-46 0 -77.5 -12t-51 -34.5t-28.5 -54t-9 -69.5q0 -25 7.5 -43.5t23 -32t39.5 -23.5t58 -19q39 -10 65 -22.5t42 -28.5t23 -37t7 -48q0 -13 -1.5 -27t-3.5 -30q-6 -40 -17 -74.5t-33.5 -60t-58.5 -40t-91 -14.5
q-69 0 -105.5 29t-36.5 96q0 19 3 40l13 88h28l-13 -87q-3 -20 -3 -35q0 -57 30.5 -80.5t88.5 -23.5q45 0 74.5 12t48 33t28 51t14.5 66q2 15 3 28t1 24q0 25 -6.5 43t-21 31t-38.5 23t-60 20q-72 19 -105 50t-33 90q0 40 10 76.5t33.5 63.5t61.5 43t95 16q66 0 100.5 -27.5
t34.5 -100.5v-10.5t-2 -11.5l-9 -64h-27zM206 706l3 21l237 155l-4 -33z" />
    <glyph glyph-name="sacute" unicode="&#x15b;" horiz-adv-x="387" 
d="M373 347l6 44q1 5 1 8.5v7.5q0 24 -10.5 38t-27.5 21.5t-38 9.5t-43 2q-26 0 -53 -3.5t-50 -15.5t-37.5 -34t-14.5 -59q0 -31 16 -48t48 -28q36 -13 73 -20.5t67.5 -19t50 -32t19.5 -59.5q0 -50 -15 -84t-41 -54.5t-61.5 -29t-76.5 -8.5q-29 0 -55.5 4t-47.5 15.5
t-33.5 31t-12.5 50.5q0 5 0.5 10.5t1.5 11.5l8 55h28l-7 -50q-1 -5 -1.5 -10t-0.5 -10q0 -26 10.5 -42t27.5 -25t39 -12t45 -3q31 0 58 5t47.5 18.5t34.5 37t20 61.5q1 6 1.5 11.5t0.5 10.5q0 34 -20.5 52t-50.5 28t-66 16t-66 17.5t-50.5 32.5t-20.5 60q0 46 17 75t44 44.5
t60.5 21t66.5 5.5q27 0 53 -3.5t46.5 -13.5t33 -28t12.5 -47v-10t-1 -10l-7 -46h-28zM180 534l3 21l237 155l-4 -33z" />
    <glyph glyph-name="Scircumflex" unicode="&#x15c;" 
d="M396 466l8 59q2 5 2 10v10q0 62 -27 85t-84 23q-46 0 -77.5 -12t-51 -34.5t-28.5 -54t-9 -69.5q0 -25 7.5 -43.5t23 -32t39.5 -23.5t58 -19q39 -10 65 -22.5t42 -28.5t23 -37t7 -48q0 -13 -1.5 -27t-3.5 -30q-6 -40 -17 -74.5t-33.5 -60t-58.5 -40t-91 -14.5
q-69 0 -105.5 29t-36.5 96q0 19 3 40l13 88h28l-13 -87q-3 -20 -3 -35q0 -57 30.5 -80.5t88.5 -23.5q45 0 74.5 12t48 33t28 51t14.5 66q2 15 3 28t1 24q0 25 -6.5 43t-21 31t-38.5 23t-60 20q-72 19 -105 50t-33 90q0 40 10 76.5t33.5 63.5t61.5 43t95 16q66 0 100.5 -27.5
t34.5 -100.5v-10.5t-2 -11.5l-9 -64h-27zM452 723l-130 163l-176 -163l-11 13l175 172h30l127 -172z" />
    <glyph glyph-name="scircumflex" unicode="&#x15d;" horiz-adv-x="387" 
d="M373 347l6 44q1 5 1 8.5v7.5q0 24 -10.5 38t-27.5 21.5t-38 9.5t-43 2q-26 0 -53 -3.5t-50 -15.5t-37.5 -34t-14.5 -59q0 -31 16 -48t48 -28q36 -13 73 -20.5t67.5 -19t50 -32t19.5 -59.5q0 -50 -15 -84t-41 -54.5t-61.5 -29t-76.5 -8.5q-29 0 -55.5 4t-47.5 15.5
t-33.5 31t-12.5 50.5q0 5 0.5 10.5t1.5 11.5l8 55h28l-7 -50q-1 -5 -1.5 -10t-0.5 -10q0 -26 10.5 -42t27.5 -25t39 -12t45 -3q31 0 58 5t47.5 18.5t34.5 37t20 61.5q1 6 1.5 11.5t0.5 10.5q0 34 -20.5 52t-50.5 28t-66 16t-66 17.5t-50.5 32.5t-20.5 60q0 46 17 75t44 44.5
t60.5 21t66.5 5.5q27 0 53 -3.5t46.5 -13.5t33 -28t12.5 -47v-10t-1 -10l-7 -46h-28zM425 551l-130 163l-176 -163l-11 13l175 172h30l127 -172z" />
    <glyph glyph-name="Scedilla" unicode="&#x15e;" 
d="M396 466l8 59q2 5 2 10v10q0 62 -27 85t-84 23q-46 0 -77.5 -12t-51 -34.5t-28.5 -54t-9 -69.5q0 -25 7.5 -43.5t23 -32t39.5 -23.5t58 -19q39 -10 65 -22.5t42 -28.5t23 -37t7 -48q0 -13 -1.5 -27t-3.5 -30q-6 -40 -17 -74.5t-33.5 -60t-58.5 -40t-91 -14.5
q-69 0 -105.5 29t-36.5 96q0 19 3 40l13 88h28l-13 -87q-3 -20 -3 -35q0 -57 30.5 -80.5t88.5 -23.5q45 0 74.5 12t48 33t28 51t14.5 66q2 15 3 28t1 24q0 25 -6.5 43t-21 31t-38.5 23t-60 20q-72 19 -105 50t-33 90q0 40 10 76.5t33.5 63.5t61.5 43t95 16q66 0 100.5 -27.5
t34.5 -100.5v-10.5t-2 -11.5l-9 -64h-27zM176 -34h32l-20 -81q-6 -22 -12.5 -44.5t-14.5 -40.5t-16.5 -30t-18.5 -13z" />
    <glyph glyph-name="scedilla" unicode="&#x15f;" horiz-adv-x="387" 
d="M373 347l6 44q1 5 1 8.5v7.5q0 24 -10.5 38t-27.5 21.5t-38 9.5t-43 2q-26 0 -53 -3.5t-50 -15.5t-37.5 -34t-14.5 -59q0 -31 16 -48t48 -28q36 -13 73 -20.5t67.5 -19t50 -32t19.5 -59.5q0 -50 -15 -84t-41 -54.5t-61.5 -29t-76.5 -8.5q-29 0 -55.5 4t-47.5 15.5
t-33.5 31t-12.5 50.5q0 5 0.5 10.5t1.5 11.5l8 55h28l-7 -50q-1 -5 -1.5 -10t-0.5 -10q0 -26 10.5 -42t27.5 -25t39 -12t45 -3q31 0 58 5t47.5 18.5t34.5 37t20 61.5q1 6 1.5 11.5t0.5 10.5q0 34 -20.5 52t-50.5 28t-66 16t-66 17.5t-50.5 32.5t-20.5 60q0 46 17 75t44 44.5
t60.5 21t66.5 5.5q27 0 53 -3.5t46.5 -13.5t33 -28t12.5 -47v-10t-1 -10l-7 -46h-28zM175 -34h32l-20 -81q-6 -22 -12.5 -44.5t-14.5 -40.5t-16.5 -30t-18.5 -13z" />
    <glyph glyph-name="Scaron" unicode="&#x160;" 
d="M396 466l8 59q2 5 2 10v10q0 62 -27 85t-84 23q-46 0 -77.5 -12t-51 -34.5t-28.5 -54t-9 -69.5q0 -25 7.5 -43.5t23 -32t39.5 -23.5t58 -19q39 -10 65 -22.5t42 -28.5t23 -37t7 -48q0 -13 -1.5 -27t-3.5 -30q-6 -40 -17 -74.5t-33.5 -60t-58.5 -40t-91 -14.5
q-69 0 -105.5 29t-36.5 96q0 19 3 40l13 88h28l-13 -87q-3 -20 -3 -35q0 -57 30.5 -80.5t88.5 -23.5q45 0 74.5 12t48 33t28 51t14.5 66q2 15 3 28t1 24q0 25 -6.5 43t-21 31t-38.5 23t-60 20q-72 19 -105 50t-33 90q0 40 10 76.5t33.5 63.5t61.5 43t95 16q66 0 100.5 -27.5
t34.5 -100.5v-10.5t-2 -11.5l-9 -64h-27zM153 882l15 16l132 -162l179 162l10 -16l-194 -179z" />
    <glyph glyph-name="scaron" unicode="&#x161;" horiz-adv-x="387" 
d="M373 347l6 44q1 5 1 8.5v7.5q0 24 -10.5 38t-27.5 21.5t-38 9.5t-43 2q-26 0 -53 -3.5t-50 -15.5t-37.5 -34t-14.5 -59q0 -31 16 -48t48 -28q36 -13 73 -20.5t67.5 -19t50 -32t19.5 -59.5q0 -50 -15 -84t-41 -54.5t-61.5 -29t-76.5 -8.5q-29 0 -55.5 4t-47.5 15.5
t-33.5 31t-12.5 50.5q0 5 0.5 10.5t1.5 11.5l8 55h28l-7 -50q-1 -5 -1.5 -10t-0.5 -10q0 -26 10.5 -42t27.5 -25t39 -12t45 -3q31 0 58 5t47.5 18.5t34.5 37t20 61.5q1 6 1.5 11.5t0.5 10.5q0 34 -20.5 52t-50.5 28t-66 16t-66 17.5t-50.5 32.5t-20.5 60q0 46 17 75t44 44.5
t60.5 21t66.5 5.5q27 0 53 -3.5t46.5 -13.5t33 -28t12.5 -47v-10t-1 -10l-7 -46h-28zM126 710l15 16l132 -162l179 162l10 -16l-194 -179z" />
    <glyph glyph-name="uni0162" unicode="&#x162;" horiz-adv-x="349" 
d="M159 0l89 637h-146l4 27h322l-4 -27h-146l-89 -637h-30zM153 -34h32l-20 -81q-6 -22 -12.5 -44.5t-14.5 -40.5t-16.5 -30t-18.5 -13z" />
    <glyph glyph-name="uni0163" unicode="&#x163;" horiz-adv-x="212" 
d="M90 0l65 469h-69l4 23h69l15 112h28l-15 -112h72l-4 -23h-72l-65 -469h-28zM82 -34h32l-20 -81q-6 -22 -12.5 -44.5t-14.5 -40.5t-16.5 -30t-18.5 -13z" />
    <glyph glyph-name="Tcaron" unicode="&#x164;" horiz-adv-x="349" 
d="M159 0l89 637h-146l4 27h322l-4 -27h-146l-89 -637h-30zM132 882l15 16l132 -162l179 162l10 -16l-194 -179z" />
    <glyph glyph-name="tcaron" unicode="&#x165;" horiz-adv-x="260" 
d="M90 0l65 469h-69l4 23h69l15 112h28l-15 -112h72l-4 -23h-72l-65 -469h-28zM319 672h35l-32 -141q-5 -21 -11.5 -44.5t-14.5 -43t-18.5 -33t-22.5 -14.5z" />
    <glyph glyph-name="Tbar" unicode="&#x166;" horiz-adv-x="349" 
d="M159 0l45 325h-70l4 24h70l40 288h-146l4 27h322l-4 -27h-146l-40 -288h72l-4 -24h-72l-45 -325h-30z" />
    <glyph glyph-name="tbar" unicode="&#x167;" horiz-adv-x="212" 
d="M90 0l34 242h-50l3 24h50l28 203h-69l4 23h69l15 112h28l-15 -112h72l-4 -23h-72l-28 -203h54l-3 -24h-54l-34 -242h-28z" />
    <glyph glyph-name="Utilde" unicode="&#x168;" horiz-adv-x="435" 
d="M454 664h31l-92 -652q-26 -9 -71 -19t-112 -10q-32 0 -60 6t-48.5 20.5t-32.5 38.5t-12 60q0 16 3 36l73 520h30l-73 -520q-2 -5 -2 -9.5v-9.5q0 -67 33.5 -91t92.5 -24q55 0 91.5 7t59.5 15zM178 792l3 25h301l-3 -25h-301z" />
    <glyph glyph-name="utilde" unicode="&#x169;" horiz-adv-x="407" 
d="M402 492h28l-68 -481q-24 -9 -64.5 -18.5t-103.5 -9.5q-30 0 -55.5 6t-44 19.5t-29 36.5t-10.5 57q0 17 3 37l50 353h28l-50 -353q-2 -5 -2 -9.5v-9.5q0 -63 29 -86.5t85 -23.5q51 0 84.5 6.5t54.5 14.5zM140 620l3 25h301l-3 -25h-301z" />
    <glyph glyph-name="Umacron" unicode="&#x16a;" horiz-adv-x="435" 
d="M454 664h31l-92 -652q-26 -9 -71 -19t-112 -10q-32 0 -60 6t-48.5 20.5t-32.5 38.5t-12 60q0 16 3 36l73 520h30l-73 -520q-2 -5 -2 -9.5v-9.5q0 -67 33.5 -91t92.5 -24q55 0 91.5 7t59.5 15zM178 792l3 25h301l-3 -25h-301z" />
    <glyph glyph-name="umacron" unicode="&#x16b;" horiz-adv-x="407" 
d="M402 492h28l-68 -481q-24 -9 -64.5 -18.5t-103.5 -9.5q-30 0 -55.5 6t-44 19.5t-29 36.5t-10.5 57q0 17 3 37l50 353h28l-50 -353q-2 -5 -2 -9.5v-9.5q0 -63 29 -86.5t85 -23.5q51 0 84.5 6.5t54.5 14.5zM140 620l3 25h301l-3 -25h-301z" />
    <glyph glyph-name="Ubreve" unicode="&#x16c;" horiz-adv-x="435" 
d="M454 664h31l-92 -652q-26 -9 -71 -19t-112 -10q-32 0 -60 6t-48.5 20.5t-32.5 38.5t-12 60q0 16 3 36l73 520h30l-73 -520q-2 -5 -2 -9.5v-9.5q0 -67 33.5 -91t92.5 -24q55 0 91.5 7t59.5 15zM491 888q-6 -42 -23 -73t-40.5 -51.5t-52 -31t-56.5 -10.5q-57 0 -92.5 36.5
t-35.5 110.5v9.5t2 9.5h24q-1 -7 -1.5 -13.5t-0.5 -12.5q0 -60 31 -88.5t76 -28.5q24 0 47.5 8.5t43.5 26t34.5 44.5t19.5 64h24z" />
    <glyph glyph-name="ubreve" unicode="&#x16d;" horiz-adv-x="407" 
d="M402 492h28l-68 -481q-24 -9 -64.5 -18.5t-103.5 -9.5q-30 0 -55.5 6t-44 19.5t-29 36.5t-10.5 57q0 17 3 37l50 353h28l-50 -353q-2 -5 -2 -9.5v-9.5q0 -63 29 -86.5t85 -23.5q51 0 84.5 6.5t54.5 14.5zM454 716q-6 -42 -23 -73t-40.5 -51.5t-52 -31t-56.5 -10.5
q-57 0 -92.5 36.5t-35.5 110.5v9.5t2 9.5h24q-1 -7 -1.5 -13.5t-0.5 -12.5q0 -60 31 -88.5t76 -28.5q24 0 47.5 8.5t43.5 26t34.5 44.5t19.5 64h24z" />
    <glyph glyph-name="Uring" unicode="&#x16e;" horiz-adv-x="435" 
d="M454 664h31l-92 -652q-26 -9 -71 -19t-112 -10q-32 0 -60 6t-48.5 20.5t-32.5 38.5t-12 60q0 16 3 36l73 520h30l-73 -520q-2 -5 -2 -9.5v-9.5q0 -67 33.5 -91t92.5 -24q55 0 91.5 7t59.5 15zM314 696q-83 0 -83 73q0 57 28 88t82 31q45 0 64.5 -19.5t19.5 -54.5
q0 -118 -111 -118zM317 713q90 0 90 98q0 29 -16 44.5t-52 15.5q-42 0 -66 -25t-24 -73q0 -60 68 -60z" />
    <glyph glyph-name="uring" unicode="&#x16f;" horiz-adv-x="407" 
d="M402 492h28l-68 -481q-24 -9 -64.5 -18.5t-103.5 -9.5q-30 0 -55.5 6t-44 19.5t-29 36.5t-10.5 57q0 17 3 37l50 353h28l-50 -353q-2 -5 -2 -9.5v-9.5q0 -63 29 -86.5t85 -23.5q51 0 84.5 6.5t54.5 14.5zM276 524q-83 0 -83 73q0 57 28 88t82 31q45 0 64.5 -19.5
t19.5 -54.5q0 -118 -111 -118zM279 541q90 0 90 98q0 29 -16 44.5t-52 15.5q-42 0 -66 -25t-24 -73q0 -60 68 -60z" />
    <glyph glyph-name="Uhungarumlaut" unicode="&#x170;" horiz-adv-x="435" 
d="M454 664h31l-92 -652q-26 -9 -71 -19t-112 -10q-32 0 -60 6t-48.5 20.5t-32.5 38.5t-12 60q0 16 3 36l73 520h30l-73 -520q-2 -5 -2 -9.5v-9.5q0 -67 33.5 -91t92.5 -24q55 0 91.5 7t59.5 15zM336 728l158 156l14 -12l-160 -155zM191 728l157 157l13 -12l-159 -156z" />
    <glyph glyph-name="uhungarumlaut" unicode="&#x171;" horiz-adv-x="407" 
d="M402 492h28l-68 -481q-24 -9 -64.5 -18.5t-103.5 -9.5q-30 0 -55.5 6t-44 19.5t-29 36.5t-10.5 57q0 17 3 37l50 353h28l-50 -353q-2 -5 -2 -9.5v-9.5q0 -63 29 -86.5t85 -23.5q51 0 84.5 6.5t54.5 14.5zM298 556l158 156l14 -12l-160 -155zM153 556l157 157l13 -12
l-159 -156z" />
    <glyph glyph-name="Uogonek" unicode="&#x172;" horiz-adv-x="435" 
d="M319 -229q-5 -2 -16 -3t-33 -1q-32 0 -53 6t-33 16.5t-17 24.5t-5 31q0 51 22 83.5t73 49.5l31 10q-18 -2 -37 -3.5t-41 -1.5q-32 0 -60 6t-48.5 20.5t-32.5 38.5t-12 60q0 16 3 36l73 520h30l-73 -520q-2 -5 -2 -9.5v-9.5q0 -67 33.5 -91t92.5 -24q55 0 91.5 7t59.5 15
l89 632h31l-92 -652q-5 -2 -11.5 -4.5t-19.5 -6t-35 -10.5t-58 -18q-45 -14 -63.5 -44.5t-18.5 -72.5q0 -27 18 -45t70 -18q39 0 48 4z" />
    <glyph glyph-name="uogonek" unicode="&#x173;" horiz-adv-x="407" 
d="M296 -229q-5 -2 -16 -3t-33 -1q-32 0 -53 6t-33 16.5t-17 24.5t-5 31q0 52 22 84.5t73 48.5l28 9q-15 -2 -32 -3t-36 -1q-30 0 -55.5 6t-44 19.5t-29 36.5t-10.5 57q0 17 3 37l50 353h28l-50 -353q-2 -5 -2 -9.5v-9.5q0 -63 29 -86.5t85 -23.5q51 0 84.5 6.5t54.5 14.5
l65 461h28l-68 -481q-4 -2 -10 -4l-18 -6t-33 -10.5t-55 -17.5q-45 -14 -63.5 -43t-18.5 -74q0 -27 18 -45t70 -18q39 0 48 4z" />
    <glyph glyph-name="Wcircumflex" unicode="&#x174;" horiz-adv-x="646" 
d="M672 664h29l-60 -427q-8 -55 -26.5 -94.5t-43.5 -69t-55 -50.5t-61 -39q-22 15 -42 32.5t-35 39t-24 49t-9 63.5q-9 -35 -25.5 -63t-38.5 -50.5t-47 -39.5t-51 -31q-23 15 -44 33t-37.5 42t-26.5 54.5t-10 71.5q0 12 1 25t3 27l60 427h30l-60 -427q-3 -24 -3 -45
q0 -35 7.5 -61.5t20.5 -47.5t29.5 -37t34.5 -29q26 15 50.5 33.5t45 44t35.5 60t22 82.5l60 427h29l-60 -427q-2 -14 -3 -26t-1 -23q0 -34 7.5 -60t20.5 -46t30 -36t37 -29q25 15 49.5 34t45 45.5t35.5 61t21 79.5zM577 723l-130 163l-176 -163l-11 13l175 172h30l127 -172z
" />
    <glyph glyph-name="wcircumflex" unicode="&#x175;" horiz-adv-x="571" 
d="M577 492h29l-41 -289q-7 -50 -23.5 -86.5t-38.5 -63t-48.5 -46t-53.5 -35.5q-41 26 -69 63.5t-28 100.5q-18 -64 -57.5 -101.5t-84.5 -62.5q-20 13 -39 29.5t-33.5 38t-23 49.5t-8.5 65q0 11 1 23t3 26l41 289h28l-42 -293q-3 -23 -3 -42q0 -60 23.5 -95.5t55.5 -58.5
q22 13 43 29t39 38.5t31.5 53.5t19.5 75l42 293h28l-41 -292q-2 -13 -3.5 -24t-0.5 -22q0 -30 6.5 -53.5t18 -41.5t26 -31.5t31.5 -24.5q21 13 42 30t38.5 40t30.5 54t19 72zM515 551l-130 163l-176 -163l-11 13l175 172h30l127 -172z" />
    <glyph glyph-name="Ycircumflex" unicode="&#x176;" horiz-adv-x="410" 
d="M190 0l33 236q-26 15 -49.5 33.5t-41.5 42.5t-28.5 55t-10.5 71q0 20 3 44l26 182h30l-26 -184q-3 -23 -3 -41q0 -36 10 -63.5t26.5 -48.5t37.5 -37t44 -30q31 16 60 34.5t52.5 44t40.5 60t24 81.5l26 184h30l-26 -182q-8 -52 -26.5 -90.5t-44.5 -67.5t-57.5 -50
t-65.5 -38l-33 -236h-31zM461 723l-130 163l-176 -163l-11 13l175 172h30l127 -172z" />
    <glyph glyph-name="ycircumflex" unicode="&#x177;" horiz-adv-x="402" 
d="M337 35q-23 -15 -60 -28t-91 -13q-27 0 -51 5t-41.5 18.5t-27.5 35.5t-10 57q0 17 3 40l48 342h29l-48 -341q-3 -20 -3 -34q0 -28 8.5 -46.5t23 -29t34.5 -15t44 -4.5q54 0 89 13t57 27l61 430h29l-83 -587q-6 -43 -22.5 -72t-40.5 -46.5t-55 -25t-65 -7.5
q-29 0 -53.5 5.5t-42 19t-27.5 36t-10 55.5q0 15 3 35l6 39h27l-6 -39q-2 -5 -2 -9.5v-8.5q0 -60 28 -83t81 -23q28 0 53.5 6t45 20.5t33 38.5t18.5 59zM432 551l-130 163l-176 -163l-11 13l175 172h30l127 -172z" />
    <glyph glyph-name="Ydieresis" unicode="&#x178;" horiz-adv-x="410" 
d="M190 0l33 236q-26 15 -49.5 33.5t-41.5 42.5t-28.5 55t-10.5 71q0 20 3 44l26 182h30l-26 -184q-3 -23 -3 -41q0 -36 10 -63.5t26.5 -48.5t37.5 -37t44 -30q31 16 60 34.5t52.5 44t40.5 60t24 81.5l26 184h30l-26 -182q-8 -52 -26.5 -90.5t-44.5 -67.5t-57.5 -50
t-65.5 -38l-33 -236h-31zM196 726l19 133h38l-19 -133h-38zM378 726l19 133h38l-19 -133h-38z" />
    <glyph glyph-name="Zacute" unicode="&#x179;" horiz-adv-x="382" 
d="M27 0l4 30l372 607h-278l4 27h311l-3 -23l-374 -614h287l-3 -27h-320zM202 706l3 21l237 155l-4 -33z" />
    <glyph glyph-name="zacute" unicode="&#x17a;" horiz-adv-x="359" 
d="M25 0l3 26l329 441h-253l4 25h288l-3 -21l-332 -446h275l-3 -25h-308zM166 534l3 21l237 155l-4 -33z" />
    <glyph glyph-name="Zdotaccent" unicode="&#x17b;" horiz-adv-x="382" 
d="M27 0l4 30l372 607h-278l4 27h311l-3 -23l-374 -614h287l-3 -27h-320zM273 726l19 133h38l-19 -133h-38z" />
    <glyph glyph-name="zdotaccent" unicode="&#x17c;" horiz-adv-x="359" 
d="M25 0l3 26l329 441h-253l4 25h288l-3 -21l-332 -446h275l-3 -25h-308zM237 554l19 133h38l-19 -133h-38z" />
    <glyph glyph-name="Zcaron" unicode="&#x17d;" horiz-adv-x="382" 
d="M27 0l4 30l372 607h-278l4 27h311l-3 -23l-374 -614h287l-3 -27h-320zM148 882l15 16l132 -162l179 162l10 -16l-194 -179z" />
    <glyph glyph-name="zcaron" unicode="&#x17e;" horiz-adv-x="359" 
d="M25 0l3 26l329 441h-253l4 25h288l-3 -21l-332 -446h275l-3 -25h-308zM112 710l15 16l132 -162l179 162l10 -16l-194 -179z" />
    <glyph glyph-name="florin" unicode="&#x192;" horiz-adv-x="477" 
d="M280 405h-111l4 24h114l17 61q14 51 37 86t53 56t65.5 30.5t76.5 9.5h13l-4 -27h-13q-33 0 -63.5 -8.5t-56 -27t-45.5 -48.5t-32 -72l-17 -60h114l-4 -24h-117l-107 -396q-26 -96 -88 -139t-145 -43h-8l4 27h8q33 0 63.5 8.5t56.5 27.5t46 49t32 73z" />
    <glyph glyph-name="uni0218" unicode="&#x218;" 
d="M396 466l8 59q2 5 2 10v10q0 62 -27 85t-84 23q-46 0 -77.5 -12t-51 -34.5t-28.5 -54t-9 -69.5q0 -25 7.5 -43.5t23 -32t39.5 -23.5t58 -19q39 -10 65 -22.5t42 -28.5t23 -37t7 -48q0 -13 -1.5 -27t-3.5 -30q-6 -40 -17 -74.5t-33.5 -60t-58.5 -40t-91 -14.5
q-69 0 -105.5 29t-36.5 96q0 19 3 40l13 88h28l-13 -87q-3 -20 -3 -35q0 -57 30.5 -80.5t88.5 -23.5q45 0 74.5 12t48 33t28 51t14.5 66q2 15 3 28t1 24q0 25 -6.5 43t-21 31t-38.5 23t-60 20q-72 19 -105 50t-33 90q0 40 10 76.5t33.5 63.5t61.5 43t95 16q66 0 100.5 -27.5
t34.5 -100.5v-10.5t-2 -11.5l-9 -64h-27zM176 -34h32l-20 -81q-6 -22 -12.5 -44.5t-14.5 -40.5t-16.5 -30t-18.5 -13z" />
    <glyph glyph-name="uni0219" unicode="&#x219;" horiz-adv-x="387" 
d="M373 347l6 44q1 5 1 8.5v7.5q0 24 -10.5 38t-27.5 21.5t-38 9.5t-43 2q-26 0 -53 -3.5t-50 -15.5t-37.5 -34t-14.5 -59q0 -31 16 -48t48 -28q36 -13 73 -20.5t67.5 -19t50 -32t19.5 -59.5q0 -50 -15 -84t-41 -54.5t-61.5 -29t-76.5 -8.5q-29 0 -55.5 4t-47.5 15.5
t-33.5 31t-12.5 50.5q0 5 0.5 10.5t1.5 11.5l8 55h28l-7 -50q-1 -5 -1.5 -10t-0.5 -10q0 -26 10.5 -42t27.5 -25t39 -12t45 -3q31 0 58 5t47.5 18.5t34.5 37t20 61.5q1 6 1.5 11.5t0.5 10.5q0 34 -20.5 52t-50.5 28t-66 16t-66 17.5t-50.5 32.5t-20.5 60q0 46 17 75t44 44.5
t60.5 21t66.5 5.5q27 0 53 -3.5t46.5 -13.5t33 -28t12.5 -47v-10t-1 -10l-7 -46h-28zM175 -34h32l-20 -81q-6 -22 -12.5 -44.5t-14.5 -40.5t-16.5 -30t-18.5 -13z" />
    <glyph glyph-name="uni021A" unicode="&#x21a;" horiz-adv-x="349" 
d="M159 0l89 637h-146l4 27h322l-4 -27h-146l-89 -637h-30zM153 -34h32l-20 -81q-6 -22 -12.5 -44.5t-14.5 -40.5t-16.5 -30t-18.5 -13z" />
    <glyph glyph-name="uni021B" unicode="&#x21b;" horiz-adv-x="212" 
d="M90 0l65 469h-69l4 23h69l15 112h28l-15 -112h72l-4 -23h-72l-65 -469h-28zM82 -34h32l-20 -81q-6 -22 -12.5 -44.5t-14.5 -40.5t-16.5 -30t-18.5 -13z" />
    <glyph glyph-name="uni0237" unicode="&#x237;" horiz-adv-x="208" 
d="M201 492h28l-83 -586q-6 -41 -20.5 -67.5t-34.5 -42.5t-45 -22.5t-52 -6.5q-13 0 -22 3l4 26q5 -2 9 -2.5t12 -0.5q21 0 41 5.5t36.5 19t28 35.5t16.5 55z" />
    <glyph glyph-name="circumflex" unicode="&#x2c6;" horiz-adv-x="478" 
d="M468 551l-130 163l-176 -163l-11 13l175 172h30l127 -172z" />
    <glyph glyph-name="caron" unicode="&#x2c7;" horiz-adv-x="480" 
d="M171 710l15 16l132 -162l179 162l10 -16l-194 -179z" />
    <glyph glyph-name="breve" unicode="&#x2d8;" horiz-adv-x="443" 
d="M470 716q-6 -42 -23 -73t-40.5 -51.5t-52 -31t-56.5 -10.5q-57 0 -92.5 36.5t-35.5 110.5v9.5t2 9.5h24q-1 -7 -1.5 -13.5t-0.5 -12.5q0 -60 31 -88.5t76 -28.5q24 0 47.5 8.5t43.5 26t34.5 44.5t19.5 64h24z" />
    <glyph glyph-name="dotaccent" unicode="&#x2d9;" horiz-adv-x="183" 
d="M149 554l19 133h38l-19 -133h-38z" />
    <glyph glyph-name="ring" unicode="&#x2da;" horiz-adv-x="335" 
d="M240 524q-83 0 -83 73q0 57 28 88t82 31q45 0 64.5 -19.5t19.5 -54.5q0 -118 -111 -118zM243 541q90 0 90 98q0 29 -16 44.5t-52 15.5q-42 0 -66 -25t-24 -73q0 -60 68 -60z" />
    <glyph glyph-name="ogonek" unicode="&#x2db;" horiz-adv-x="273" 
d="M187 -229q-5 -2 -16 -3t-33 -1q-32 0 -53 6t-33 16.5t-17 24.5t-5 31q0 52 22 84.5t73 48.5l71 22h24l-83 -27q-45 -14 -63.5 -43t-18.5 -74q0 -27 18 -45t70 -18q39 0 48 4z" />
    <glyph glyph-name="tilde" unicode="&#x2dc;" horiz-adv-x="404" 
d="M138 620l3 25h301l-3 -25h-301z" />
    <glyph glyph-name="hungarumlaut" unicode="&#x2dd;" horiz-adv-x="441" 
d="M295 556l158 156l14 -12l-160 -155zM150 556l157 157l13 -12l-159 -156z" />
    <glyph glyph-name="uni0394" unicode="&#x394;" horiz-adv-x="406" 
d="M9 0l296 733l91 -733h-387zM291 637l-244 -610h317z" />
    <glyph glyph-name="uni0394" unicode="&#x2206;" horiz-adv-x="406" 
d="M9 0l296 733l91 -733h-387zM291 637l-244 -610h317z" />
    <glyph glyph-name="uni03A9" unicode="&#x3a9;" horiz-adv-x="437" 
d="M251 0l4 33q55 24 93 74t48 122l40 289q1 8 1.5 15t0.5 14q0 30 -10 50.5t-27.5 33t-41 17.5t-50.5 5q-30 0 -57.5 -6.5t-50 -22t-37.5 -41.5t-20 -65l-40 -289q-3 -23 -3 -41q0 -57 23 -96t65 -59l-4 -33h-145l3 27h122q-48 23 -70.5 65t-22.5 100q0 21 3 45l39 281
q6 46 24.5 77.5t45.5 50t60 26.5t69 8q32 0 60.5 -6.5t49.5 -21.5t33.5 -39.5t12.5 -60.5q0 -16 -3 -34l-39 -281q-11 -75 -49 -129t-101 -81h122l-3 -27h-145z" />
    <glyph glyph-name="uni03A9" unicode="&#x2126;" horiz-adv-x="437" 
d="M251 0l4 33q55 24 93 74t48 122l40 289q1 8 1.5 15t0.5 14q0 30 -10 50.5t-27.5 33t-41 17.5t-50.5 5q-30 0 -57.5 -6.5t-50 -22t-37.5 -41.5t-20 -65l-40 -289q-3 -23 -3 -41q0 -57 23 -96t65 -59l-4 -33h-145l3 27h122q-48 23 -70.5 65t-22.5 100q0 21 3 45l39 281
q6 46 24.5 77.5t45.5 50t60 26.5t69 8q32 0 60.5 -6.5t49.5 -21.5t33.5 -39.5t12.5 -60.5q0 -16 -3 -34l-39 -281q-11 -75 -49 -129t-101 -81h122l-3 -27h-145z" />
    <glyph glyph-name="pi" unicode="&#x3c0;" horiz-adv-x="413" 
d="M340 0l65 465h-268l-65 -465h-30l69 492h328l-69 -492h-30z" />
    <glyph glyph-name="Wgrave" unicode="&#x1e80;" horiz-adv-x="646" 
d="M672 664h29l-60 -427q-8 -55 -26.5 -94.5t-43.5 -69t-55 -50.5t-61 -39q-22 15 -42 32.5t-35 39t-24 49t-9 63.5q-9 -35 -25.5 -63t-38.5 -50.5t-47 -39.5t-51 -31q-23 15 -44 33t-37.5 42t-26.5 54.5t-10 71.5q0 12 1 25t3 27l60 427h30l-60 -427q-3 -24 -3 -45
q0 -35 7.5 -61.5t20.5 -47.5t29.5 -37t34.5 -29q26 15 50.5 33.5t45 44t35.5 60t22 82.5l60 427h29l-60 -427q-2 -14 -3 -26t-1 -23q0 -34 7.5 -60t20.5 -46t30 -36t37 -29q25 15 49.5 34t45 45.5t35.5 61t21 79.5zM314 849l4 33l195 -155l-3 -21z" />
    <glyph glyph-name="wgrave" unicode="&#x1e81;" horiz-adv-x="571" 
d="M577 492h29l-41 -289q-7 -50 -23.5 -86.5t-38.5 -63t-48.5 -46t-53.5 -35.5q-41 26 -69 63.5t-28 100.5q-18 -64 -57.5 -101.5t-84.5 -62.5q-20 13 -39 29.5t-33.5 38t-23 49.5t-8.5 65q0 11 1 23t3 26l41 289h28l-42 -293q-3 -23 -3 -42q0 -60 23.5 -95.5t55.5 -58.5
q22 13 43 29t39 38.5t31.5 53.5t19.5 75l42 293h28l-41 -292q-2 -13 -3.5 -24t-0.5 -22q0 -30 6.5 -53.5t18 -41.5t26 -31.5t31.5 -24.5q21 13 42 30t38.5 40t30.5 54t19 72zM252 677l4 33l195 -155l-3 -21z" />
    <glyph glyph-name="Wacute" unicode="&#x1e82;" horiz-adv-x="646" 
d="M672 664h29l-60 -427q-8 -55 -26.5 -94.5t-43.5 -69t-55 -50.5t-61 -39q-22 15 -42 32.5t-35 39t-24 49t-9 63.5q-9 -35 -25.5 -63t-38.5 -50.5t-47 -39.5t-51 -31q-23 15 -44 33t-37.5 42t-26.5 54.5t-10 71.5q0 12 1 25t3 27l60 427h30l-60 -427q-3 -24 -3 -45
q0 -35 7.5 -61.5t20.5 -47.5t29.5 -37t34.5 -29q26 15 50.5 33.5t45 44t35.5 60t22 82.5l60 427h29l-60 -427q-2 -14 -3 -26t-1 -23q0 -34 7.5 -60t20.5 -46t30 -36t37 -29q25 15 49.5 34t45 45.5t35.5 61t21 79.5zM334 706l3 21l237 155l-4 -33z" />
    <glyph glyph-name="wacute" unicode="&#x1e83;" horiz-adv-x="571" 
d="M577 492h29l-41 -289q-7 -50 -23.5 -86.5t-38.5 -63t-48.5 -46t-53.5 -35.5q-41 26 -69 63.5t-28 100.5q-18 -64 -57.5 -101.5t-84.5 -62.5q-20 13 -39 29.5t-33.5 38t-23 49.5t-8.5 65q0 11 1 23t3 26l41 289h28l-42 -293q-3 -23 -3 -42q0 -60 23.5 -95.5t55.5 -58.5
q22 13 43 29t39 38.5t31.5 53.5t19.5 75l42 293h28l-41 -292q-2 -13 -3.5 -24t-0.5 -22q0 -30 6.5 -53.5t18 -41.5t26 -31.5t31.5 -24.5q21 13 42 30t38.5 40t30.5 54t19 72zM272 534l3 21l237 155l-4 -33z" />
    <glyph glyph-name="Wdieresis" unicode="&#x1e84;" horiz-adv-x="646" 
d="M672 664h29l-60 -427q-8 -55 -26.5 -94.5t-43.5 -69t-55 -50.5t-61 -39q-22 15 -42 32.5t-35 39t-24 49t-9 63.5q-9 -35 -25.5 -63t-38.5 -50.5t-47 -39.5t-51 -31q-23 15 -44 33t-37.5 42t-26.5 54.5t-10 71.5q0 12 1 25t3 27l60 427h30l-60 -427q-3 -24 -3 -45
q0 -35 7.5 -61.5t20.5 -47.5t29.5 -37t34.5 -29q26 15 50.5 33.5t45 44t35.5 60t22 82.5l60 427h29l-60 -427q-2 -14 -3 -26t-1 -23q0 -34 7.5 -60t20.5 -46t30 -36t37 -29q25 15 49.5 34t45 45.5t35.5 61t21 79.5zM314 726l19 133h38l-19 -133h-38zM496 726l19 133h38
l-19 -133h-38z" />
    <glyph glyph-name="wdieresis" unicode="&#x1e85;" horiz-adv-x="571" 
d="M577 492h29l-41 -289q-7 -50 -23.5 -86.5t-38.5 -63t-48.5 -46t-53.5 -35.5q-41 26 -69 63.5t-28 100.5q-18 -64 -57.5 -101.5t-84.5 -62.5q-20 13 -39 29.5t-33.5 38t-23 49.5t-8.5 65q0 11 1 23t3 26l41 289h28l-42 -293q-3 -23 -3 -42q0 -60 23.5 -95.5t55.5 -58.5
q22 13 43 29t39 38.5t31.5 53.5t19.5 75l42 293h28l-41 -292q-2 -13 -3.5 -24t-0.5 -22q0 -30 6.5 -53.5t18 -41.5t26 -31.5t31.5 -24.5q21 13 42 30t38.5 40t30.5 54t19 72zM252 554l19 133h38l-19 -133h-38zM434 554l19 133h38l-19 -133h-38z" />
    <glyph glyph-name="Ygrave" unicode="&#x1ef2;" horiz-adv-x="410" 
d="M190 0l33 236q-26 15 -49.5 33.5t-41.5 42.5t-28.5 55t-10.5 71q0 20 3 44l26 182h30l-26 -184q-3 -23 -3 -41q0 -36 10 -63.5t26.5 -48.5t37.5 -37t44 -30q31 16 60 34.5t52.5 44t40.5 60t24 81.5l26 184h30l-26 -182q-8 -52 -26.5 -90.5t-44.5 -67.5t-57.5 -50
t-65.5 -38l-33 -236h-31zM196 849l4 33l195 -155l-3 -21z" />
    <glyph glyph-name="ygrave" unicode="&#x1ef3;" horiz-adv-x="402" 
d="M337 35q-23 -15 -60 -28t-91 -13q-27 0 -51 5t-41.5 18.5t-27.5 35.5t-10 57q0 17 3 40l48 342h29l-48 -341q-3 -20 -3 -34q0 -28 8.5 -46.5t23 -29t34.5 -15t44 -4.5q54 0 89 13t57 27l61 430h29l-83 -587q-6 -43 -22.5 -72t-40.5 -46.5t-55 -25t-65 -7.5
q-29 0 -53.5 5.5t-42 19t-27.5 36t-10 55.5q0 15 3 35l6 39h27l-6 -39q-2 -5 -2 -9.5v-8.5q0 -60 28 -83t81 -23q28 0 53.5 6t45 20.5t33 38.5t18.5 59zM168 677l4 33l195 -155l-3 -21z" />
    <glyph glyph-name="endash" unicode="&#x2013;" horiz-adv-x="472" 
d="M89 300l3 24h378l-3 -24h-378z" />
    <glyph glyph-name="emdash" unicode="&#x2014;" horiz-adv-x="596" 
d="M65 300l3 24h549l-3 -24h-549z" />
    <glyph glyph-name="quoteleft" unicode="&#x2018;" horiz-adv-x="148" 
d="M158 396q-9 1 -15 9.5t-9 21.5t-4.5 29.5t-1.5 34.5v20.5t1 19.5l8 141h35z" />
    <glyph glyph-name="quoteright" unicode="&#x2019;" horiz-adv-x="148" 
d="M162 672h35l-32 -141q-5 -21 -11.5 -44.5t-14.5 -43t-18.5 -33t-22.5 -14.5z" />
    <glyph glyph-name="quotesinglbase" unicode="&#x201a;" horiz-adv-x="148" 
d="M89 151h35l-32 -141q-5 -23 -12 -46t-15 -42.5t-18 -32t-22 -13.5z" />
    <glyph glyph-name="quotedblleft" unicode="&#x201c;" horiz-adv-x="296" 
d="M158 396q-9 1 -15 9.5t-9 21.5t-4.5 29.5t-1.5 34.5v20.5t1 19.5l8 141h35zM306 396q-9 1 -15 9.5t-9 21.5t-4.5 29.5t-1.5 34.5v20.5t1 19.5l8 141h35z" />
    <glyph glyph-name="quotedblright" unicode="&#x201d;" horiz-adv-x="296" 
d="M162 672h35l-32 -141q-5 -21 -11.5 -44.5t-14.5 -43t-18.5 -33t-22.5 -14.5zM310 672h35l-32 -141q-5 -21 -11.5 -44.5t-14.5 -43t-18.5 -33t-22.5 -14.5z" />
    <glyph glyph-name="quotedblbase" unicode="&#x201e;" horiz-adv-x="296" 
d="M89 151h35l-32 -141q-5 -23 -12 -46t-15 -42.5t-18 -32t-22 -13.5zM237 151h35l-32 -141q-5 -23 -12 -46t-15 -42.5t-18 -32t-22 -13.5z" />
    <glyph glyph-name="dagger" unicode="&#x2020;" horiz-adv-x="327" 
d="M153 0l68 490h-111l4 25h111l21 149h29l-21 -149h102l-4 -25h-102l-68 -490h-29z" />
    <glyph glyph-name="daggerdbl" unicode="&#x2021;" horiz-adv-x="327" 
d="M153 0l20 149h-111l4 24h111l44 317h-111l4 25h111l21 149h29l-21 -149h102l-4 -25h-102l-44 -317h102l-4 -24h-102l-20 -149h-29z" />
    <glyph glyph-name="bullet" unicode="&#x2022;" horiz-adv-x="339" 
d="M333 343q-3 -22 -14.5 -40.5t-29 -32t-39.5 -21t-46 -7.5q-46 0 -75 24.5t-29 63.5q0 25 11 46t29 36t42 23.5t50 8.5q45 0 73.5 -24t28.5 -63q0 -11 -1 -14z" />
    <glyph glyph-name="ellipsis" unicode="&#x2026;" horiz-adv-x="865" 
d="M69 0l21 151h35l-21 -151h-35zM415 0l21 151h35l-21 -151h-35zM761 0l21 151h35l-21 -151h-35z" />
    <glyph glyph-name="perthousand" unicode="&#x2030;" horiz-adv-x="693" 
d="M140 602q7 47 35.5 64t66.5 17q32 0 55 -14t23 -50v-8t-1 -9l-26 -187q-7 -47 -35.5 -64t-64.5 -17q-35 0 -57.5 14t-22.5 51v7.5t1 8.5zM293 602q1 4 1 8v7q0 26 -15 35t-40 9q-30 0 -49 -12t-24 -47l-26 -187q-1 -4 -1 -7.5v-6.5q0 -26 15 -35.5t42 -9.5
q29 0 47.5 12.5t23.5 46.5zM39 -20l496 704h30l-496 -704h-30zM308 249q7 47 35.5 64t66.5 17q32 0 55 -14t23 -50v-8t-1 -9l-26 -187q-7 -47 -35.5 -64t-64.5 -17q-35 0 -57.5 14t-22.5 51v7.5t1 8.5zM461 249q1 4 1 8v7q0 26 -15 35t-40 9q-30 0 -49 -12t-24 -47l-26 -187
q-1 -4 -1 -7.5v-6.5q0 -26 15 -35.5t42 -9.5q29 0 47.5 12.5t23.5 46.5zM512 249q7 47 35.5 64t66.5 17q32 0 55 -14t23 -50v-8t-1 -9l-26 -187q-7 -47 -35.5 -64t-64.5 -17q-35 0 -57.5 14t-22.5 51v7.5t1 8.5zM665 249q1 4 1 8v7q0 26 -15 35t-40 9q-30 0 -49 -12t-24 -47
l-26 -187q-1 -4 -1 -7.5v-6.5q0 -26 15 -35.5t42 -9.5q29 0 47.5 12.5t23.5 46.5z" />
    <glyph glyph-name="guilsinglleft" unicode="&#x2039;" horiz-adv-x="192" 
d="M67 317l155 174l14 -20l-139 -154l95 -154l-19 -18z" />
    <glyph glyph-name="guilsinglright" unicode="&#x203a;" horiz-adv-x="192" 
d="M213 317l-154 -172l-15 18l139 154l-95 154l20 20z" />
    <glyph glyph-name="fraction" unicode="&#x2044;" horiz-adv-x="56" 
d="M-188 -20l496 704h30l-496 -704h-30z" />
    <glyph glyph-name="uni2070" unicode="&#x2070;" horiz-adv-x="244" 
d="M115 602q7 47 35.5 64t66.5 17q32 0 55 -14t23 -50v-8t-1 -9l-26 -187q-7 -47 -35.5 -64t-64.5 -17q-35 0 -57.5 14t-22.5 51v7.5t1 8.5zM268 602q1 4 1 8v7q0 26 -15 35t-40 9q-30 0 -49 -12t-24 -47l-26 -187q-1 -4 -1 -7.5v-6.5q0 -26 15 -35.5t42 -9.5
q29 0 47.5 12.5t23.5 46.5z" />
    <glyph glyph-name="uni2074" unicode="&#x2074;" horiz-adv-x="221" 
d="M207 343l10 70h-133l3 25l147 237h25l-149 -239h110l13 90h23l-26 -183h-23z" />
    <glyph glyph-name="uni2075" unicode="&#x2075;" horiz-adv-x="237" 
d="M241 458q1 5 1 8.5v7.5q0 41 -48 41q-26 0 -38 -4t-28 -17h-21l36 181h145l-3 -22h-122l-27 -136q13 11 28 15.5t39 4.5q35 0 50 -14t15 -42q0 -5 -0.5 -11t-1.5 -12l-6 -43q-7 -47 -33.5 -64t-64.5 -17q-34 0 -53 13.5t-19 48.5v9.5t1 9.5l4 30h22l-4 -28q-1 -3 -1 -15
q0 -27 14.5 -36.5t37.5 -9.5q35 0 50.5 13t20.5 48z" />
    <glyph glyph-name="uni2076" unicode="&#x2076;" horiz-adv-x="243" 
d="M268 412q-6 -44 -34 -61t-65 -17q-34 0 -57.5 14t-23.5 49q0 12 1 15l26 189q7 47 35 64.5t67 17.5q34 0 54 -13.5t20 -48.5v-10t-1 -10l-2 -19h-25l2 19q1 5 1 9v8q0 25 -13.5 34t-38.5 9q-29 0 -48.5 -12.5t-24.5 -47.5l-12 -91q10 23 29 32.5t47 9.5q29 0 51 -11
t22 -48q0 -5 -0.5 -10t-1.5 -10zM251 470q1 5 1 8.5v7.5q0 26 -15 35.5t-41 9.5t-43.5 -11t-28.5 -42l-9 -66q-1 -3 -1 -13q0 -25 15 -34t42 -9q26 0 46.5 12t25.5 44z" />
    <glyph glyph-name="uni2077" unicode="&#x2077;" horiz-adv-x="215" 
d="M125 343q7 45 20.5 90t30.5 85.5t37 75t40 58.5h-136l3 23h160l-3 -21q-21 -25 -41 -60t-36.5 -76t-29.5 -85.5t-20 -89.5h-25z" />
    <glyph glyph-name="uni2078" unicode="&#x2078;" horiz-adv-x="242" 
d="M267 415q-6 -45 -33.5 -63t-66.5 -18q-36 0 -58 14.5t-22 49.5v8.5t1 8.5l4 30q8 60 60 67q-39 6 -39 52q0 5 0.5 9t1.5 9l2 20q7 47 33 64t66 17q35 0 55 -13t20 -48v-10t-1 -10l-1 -14q-5 -29 -17.5 -50t-40.5 -26q41 -6 41 -51v-7.5t-1 -8.5zM246 445q1 5 1 8.5v7.5
q0 25 -13.5 33t-43.5 8q-35 0 -51 -11t-21 -46l-4 -30q-1 -3 -1 -13q0 -26 15.5 -36t41.5 -10q29 0 48 12.5t24 46.5zM266 601q1 5 1 8.5v7.5q0 26 -14 35t-40 9q-29 0 -48.5 -12.5t-23.5 -47.5l-2 -19q-1 -5 -1.5 -9.5t-0.5 -8.5q0 -25 14 -33.5t42 -8.5q31 0 49 12.5
t22 47.5z" />
    <glyph glyph-name="uni2079" unicode="&#x2079;" horiz-adv-x="242" 
d="M255 511q-11 -23 -30 -32.5t-48 -9.5q-30 0 -51.5 11.5t-21.5 48.5q0 5 0.5 9.5t1.5 9.5l8 57q6 44 34.5 61t64.5 17q34 0 57.5 -14t23.5 -49q0 -12 -1 -15l-27 -190q-7 -47 -33.5 -64t-67.5 -17q-34 0 -54 13.5t-20 49.5v8.5t1 9.5l4 25h24l-4 -25q-1 -4 -1 -7.5v-6.5
q0 -26 14 -35.5t39 -9.5q30 0 49 12.5t24 46.5zM268 605q1 3 1 6.5v6.5q0 25 -15.5 34t-41.5 9q-29 0 -48.5 -12t-24.5 -44l-8 -53q-1 -4 -1 -7.5v-6.5q0 -29 15.5 -38.5t41.5 -9.5t44 11.5t28 41.5z" />
    <glyph glyph-name="uni2080" unicode="&#x2080;" horiz-adv-x="244" 
d="M66 249q7 47 35.5 64t66.5 17q32 0 55 -14t23 -50v-8t-1 -9l-26 -187q-7 -47 -35.5 -64t-64.5 -17q-35 0 -57.5 14t-22.5 51v7.5t1 8.5zM219 249q1 4 1 8v7q0 26 -15 35t-40 9q-30 0 -49 -12t-24 -47l-26 -187q-1 -4 -1 -7.5v-6.5q0 -26 15 -35.5t42 -9.5q29 0 47.5 12.5
t23.5 46.5z" />
    <glyph glyph-name="uni2081" unicode="&#x2081;" horiz-adv-x="162" 
d="M100 -10l36 254q0 3 0.5 6t0.5 6q0 26 -16 36t-40 10q-8 0 -11 -1l3 24q3 0 5.5 0.5t6.5 0.5q32 0 55 -14t23 -50v-8t-1 -9l-36 -255h-26z" />
    <glyph glyph-name="uni2082" unicode="&#x2082;" horiz-adv-x="235" 
d="M32 -10l13 89q5 34 19.5 51.5t33 27t39 15.5t37.5 15.5t28 27t11 51.5q0 18 -10 29.5t-41 11.5q-23 0 -42.5 -7.5t-23.5 -36.5l-4 -29h-22l4 30q5 38 31 51.5t58 13.5q38 0 55.5 -13.5t17.5 -45.5q0 -26 -4 -44t-13 -30.5t-23.5 -21.5t-35.5 -16q-13 -5 -31 -11t-29 -12
q-18 -10 -23.5 -28t-7.5 -37l-8 -59h139l-3 -22h-165z" />
    <glyph glyph-name="uni2083" unicode="&#x2083;" horiz-adv-x="231" 
d="M186 92q1 5 1 9v8q0 22 -10 31t-32 9h-35l3 20h36q22 0 37 15.5t18 44.5l2 19q1 5 1 9v8q0 25 -13.5 34t-39.5 9q-30 0 -46 -12.5t-21 -49.5l-4 -26h-23l4 29q7 48 30.5 64.5t62.5 16.5q35 0 55 -13t20 -48v-10t-1 -10l-2 -20q-3 -29 -18.5 -47.5t-39.5 -22.5
q41 -6 41 -50v-8.5t-1 -8.5l-4 -30q-6 -45 -32.5 -63t-66.5 -18q-34 0 -53 13t-19 48q0 5 0.5 10t1.5 10l4 30h23l-4 -28q-1 -5 -1 -8.5v-7.5q0 -26 13 -35.5t38 -9.5q29 0 47.5 12.5t23.5 46.5z" />
    <glyph glyph-name="uni2084" unicode="&#x2084;" horiz-adv-x="221" 
d="M158 -10l10 70h-133l3 25l147 237h25l-149 -239h110l13 90h23l-26 -183h-23z" />
    <glyph glyph-name="uni2085" unicode="&#x2085;" horiz-adv-x="237" 
d="M192 105q1 5 1 8.5v7.5q0 41 -48 41q-26 0 -38 -4t-28 -17h-21l36 181h145l-3 -22h-122l-27 -136q13 11 28 15.5t39 4.5q35 0 50 -14t15 -42q0 -5 -0.5 -11t-1.5 -12l-6 -43q-7 -47 -33.5 -64t-64.5 -17q-34 0 -53 13.5t-19 48.5v9.5t1 9.5l4 30h22l-4 -28q-1 -3 -1 -15
q0 -27 14.5 -36.5t37.5 -9.5q35 0 50.5 13t20.5 48z" />
    <glyph glyph-name="uni2086" unicode="&#x2086;" horiz-adv-x="243" 
d="M219 59q-6 -44 -34 -61t-65 -17q-34 0 -57.5 14t-23.5 49q0 12 1 15l26 189q7 47 35 64.5t67 17.5q34 0 54 -13.5t20 -48.5v-10t-1 -10l-2 -19h-25l2 19q1 5 1 9v8q0 25 -13.5 34t-38.5 9q-29 0 -48.5 -12.5t-24.5 -47.5l-12 -91q10 23 29 32.5t47 9.5q29 0 51 -11
t22 -48q0 -5 -0.5 -10t-1.5 -10zM202 117q1 5 1 8.5v7.5q0 26 -15 35.5t-41 9.5t-43.5 -11t-28.5 -42l-9 -66q-1 -3 -1 -13q0 -25 15 -34t42 -9q26 0 46.5 12t25.5 44z" />
    <glyph glyph-name="uni2087" unicode="&#x2087;" horiz-adv-x="215" 
d="M76 -10q7 45 20.5 90t30.5 85.5t37 75t40 58.5h-136l3 23h160l-3 -21q-21 -25 -41 -60t-36.5 -76t-29.5 -85.5t-20 -89.5h-25z" />
    <glyph glyph-name="uni2088" unicode="&#x2088;" horiz-adv-x="242" 
d="M218 62q-6 -45 -33.5 -63t-66.5 -18q-36 0 -58 14.5t-22 49.5v8.5t1 8.5l4 30q8 60 60 67q-39 6 -39 52q0 5 0.5 9t1.5 9l2 20q7 47 33 64t66 17q35 0 55 -13t20 -48v-10t-1 -10l-1 -14q-5 -29 -17.5 -50t-40.5 -26q41 -6 41 -51v-7.5t-1 -8.5zM197 92q1 5 1 8.5v7.5
q0 25 -13.5 33t-43.5 8q-35 0 -51 -11t-21 -46l-4 -30q-1 -3 -1 -13q0 -26 15.5 -36t41.5 -10q29 0 48 12.5t24 46.5zM217 248q1 5 1 8.5v7.5q0 26 -14 35t-40 9q-29 0 -48.5 -12.5t-23.5 -47.5l-2 -19q-1 -5 -1.5 -9.5t-0.5 -8.5q0 -25 14 -33.5t42 -8.5q31 0 49 12.5
t22 47.5z" />
    <glyph glyph-name="uni2089" unicode="&#x2089;" horiz-adv-x="242" 
d="M206 158q-11 -23 -30 -32.5t-48 -9.5q-30 0 -51.5 11.5t-21.5 48.5q0 5 0.5 9.5t1.5 9.5l8 57q6 44 34.5 61t64.5 17q34 0 57.5 -14t23.5 -49q0 -12 -1 -15l-27 -190q-7 -47 -33.5 -64t-67.5 -17q-34 0 -54 13.5t-20 49.5v8.5t1 9.5l4 25h24l-4 -25q-1 -4 -1 -7.5v-6.5
q0 -26 14 -35.5t39 -9.5q30 0 49 12.5t24 46.5zM219 252q1 3 1 6.5v6.5q0 25 -15.5 34t-41.5 9q-29 0 -48.5 -12t-24.5 -44l-8 -53q-1 -4 -1 -7.5v-6.5q0 -29 15.5 -38.5t41.5 -9.5t44 11.5t28 41.5z" />
    <glyph glyph-name="Euro" unicode="&#x20ac;" horiz-adv-x="351" 
d="M314 -9q-11 -4 -32.5 -6t-47.5 -2q-34 0 -62.5 6t-49.5 21t-32.5 39t-11.5 60q0 16 3 36l16 114h-37l6 23h34l15 107h-37l6 23h34l15 106q6 46 24 77.5t44.5 50t59.5 26.5t71 8q35 0 71 -9l-9 -27q-20 5 -36 7t-30 2q-32 0 -59.5 -6.5t-49.5 -22.5t-36.5 -41.5
t-19.5 -64.5l-15 -106h181l-7 -23h-177l-15 -107h163l-7 -23h-159l-16 -114q-2 -5 -2 -9.5v-9.5q0 -67 33.5 -91.5t95.5 -24.5q23 0 42 1.5t38 6.5z" />
    <glyph glyph-name="trademark" unicode="&#x2122;" horiz-adv-x="549" 
d="M152 353l42 299h-68l3 20h157l-3 -20h-67l-42 -299h-22zM535 353l35 245q0 3 0.5 6t0.5 6q0 24 -14 36t-38 12q-37 0 -53 -15l-41 -290h-22l41 290q-8 8 -24 11.5t-29 3.5q-18 0 -31.5 -2.5t-22.5 -6.5l-42 -296h-22l44 313q11 5 30.5 9.5t45.5 4.5q17 0 35 -4.5
t28 -14.5q10 8 27.5 13.5t39.5 5.5q31 0 50.5 -16.5t19.5 -49.5q0 -12 -1 -15l-35 -246h-22z" />
    <glyph glyph-name="onethird" unicode="&#x2153;" horiz-adv-x="527" 
d="M186 343l36 254q0 3 0.5 6t0.5 6q0 26 -16 36t-40 10q-8 0 -11 -1l3 24q3 0 5.5 0.5t6.5 0.5q32 0 55 -14t23 -50v-8t-1 -9l-36 -255h-26zM36 -20l496 704h30l-496 -704h-30zM478 92q1 5 1 9v8q0 22 -10 31t-32 9h-35l3 20h36q22 0 37 15.5t18 44.5l2 19q1 5 1 9v8
q0 25 -13.5 34t-39.5 9q-30 0 -46 -12.5t-21 -49.5l-4 -26h-23l4 29q7 48 30.5 64.5t62.5 16.5q35 0 55 -13t20 -48v-10t-1 -10l-2 -20q-3 -29 -18.5 -47.5t-39.5 -22.5q41 -6 41 -50v-8.5t-1 -8.5l-4 -30q-6 -45 -32.5 -63t-66.5 -18q-34 0 -53 13t-19 48q0 5 0.5 10
t1.5 10l4 30h23l-4 -28q-1 -5 -1 -8.5v-7.5q0 -26 13 -35.5t38 -9.5q29 0 47.5 12.5t23.5 46.5z" />
    <glyph glyph-name="twothirds" unicode="&#x2154;" horiz-adv-x="512" 
d="M85 343l13 89q5 34 19.5 51.5t33 27t39 15.5t37.5 15.5t28 27t11 51.5q0 18 -10 29.5t-41 11.5q-23 0 -42.5 -7.5t-23.5 -36.5l-4 -29h-22l4 30q5 38 31 51.5t58 13.5q38 0 55.5 -13.5t17.5 -45.5q0 -26 -4 -44t-13 -30.5t-23.5 -21.5t-35.5 -16q-13 -5 -31 -11t-29 -12
q-18 -10 -23.5 -28t-7.5 -37l-8 -59h139l-3 -22h-165zM36 -20l496 704h30l-496 -704h-30zM458 92q1 5 1 9v8q0 22 -10 31t-32 9h-35l3 20h36q22 0 37 15.5t18 44.5l2 19q1 5 1 9v8q0 25 -13.5 34t-39.5 9q-30 0 -46 -12.5t-21 -49.5l-4 -26h-23l4 29q7 48 30.5 64.5
t62.5 16.5q35 0 55 -13t20 -48v-10t-1 -10l-2 -20q-3 -29 -18.5 -47.5t-39.5 -22.5q41 -6 41 -50v-8.5t-1 -8.5l-4 -30q-6 -45 -32.5 -63t-66.5 -18q-34 0 -53 13t-19 48q0 5 0.5 10t1.5 10l4 30h23l-4 -28q-1 -5 -1 -8.5v-7.5q0 -26 13 -35.5t38 -9.5q29 0 47.5 12.5
t23.5 46.5z" />
    <glyph glyph-name="oneeighth" unicode="&#x215b;" horiz-adv-x="532" 
d="M196 343l36 254q0 3 0.5 6t0.5 6q0 26 -16 36t-40 10q-8 0 -11 -1l3 24q3 0 5.5 0.5t6.5 0.5q32 0 55 -14t23 -50v-8t-1 -9l-36 -255h-26zM36 -20l496 704h30l-496 -704h-30zM500 62q-6 -45 -33.5 -63t-66.5 -18q-36 0 -58 14.5t-22 49.5v8.5t1 8.5l4 30q8 60 60 67
q-39 6 -39 52q0 5 0.5 9t1.5 9l2 20q7 47 33 64t66 17q35 0 55 -13t20 -48v-10t-1 -10l-1 -14q-5 -29 -17.5 -50t-40.5 -26q41 -6 41 -51v-7.5t-1 -8.5zM479 92q1 5 1 8.5v7.5q0 25 -13.5 33t-43.5 8q-35 0 -51 -11t-21 -46l-4 -30q-1 -3 -1 -13q0 -26 15.5 -36t41.5 -10
q29 0 48 12.5t24 46.5zM499 248q1 5 1 8.5v7.5q0 26 -14 35t-40 9q-29 0 -48.5 -12.5t-23.5 -47.5l-2 -19q-1 -5 -1.5 -9.5t-0.5 -8.5q0 -25 14 -33.5t42 -8.5q31 0 49 12.5t22 47.5z" />
    <glyph glyph-name="threeeighths" unicode="&#x215c;" horiz-adv-x="512" 
d="M263 445q1 5 1 9v8q0 22 -10 31t-32 9h-35l3 20h36q22 0 37 15.5t18 44.5l2 19q1 5 1 9v8q0 25 -13.5 34t-39.5 9q-30 0 -46 -12.5t-21 -49.5l-4 -26h-23l4 29q7 48 30.5 64.5t62.5 16.5q35 0 55 -13t20 -48v-10t-1 -10l-2 -20q-3 -29 -18.5 -47.5t-39.5 -22.5
q41 -6 41 -50v-8.5t-1 -8.5l-4 -30q-6 -45 -32.5 -63t-66.5 -18q-34 0 -53 13t-19 48q0 5 0.5 10t1.5 10l4 30h23l-4 -28q-1 -5 -1 -8.5v-7.5q0 -26 13 -35.5t38 -9.5q29 0 47.5 12.5t23.5 46.5zM41 -20l496 704h30l-496 -704h-30zM480 62q-6 -45 -33.5 -63t-66.5 -18
q-36 0 -58 14.5t-22 49.5v8.5t1 8.5l4 30q8 60 60 67q-39 6 -39 52q0 5 0.5 9t1.5 9l2 20q7 47 33 64t66 17q35 0 55 -13t20 -48v-10t-1 -10l-1 -14q-5 -29 -17.5 -50t-40.5 -26q41 -6 41 -51v-7.5t-1 -8.5zM459 92q1 5 1 8.5v7.5q0 25 -13.5 33t-43.5 8q-35 0 -51 -11
t-21 -46l-4 -30q-1 -3 -1 -13q0 -26 15.5 -36t41.5 -10q29 0 48 12.5t24 46.5zM479 248q1 5 1 8.5v7.5q0 26 -14 35t-40 9q-29 0 -48.5 -12.5t-23.5 -47.5l-2 -19q-1 -5 -1.5 -9.5t-0.5 -8.5q0 -25 14 -33.5t42 -8.5q31 0 49 12.5t22 47.5z" />
    <glyph glyph-name="fiveeighths" unicode="&#x215d;" horiz-adv-x="512" 
d="M263 458q1 5 1 8.5v7.5q0 41 -48 41q-26 0 -38 -4t-28 -17h-21l36 181h145l-3 -22h-122l-27 -136q13 11 28 15.5t39 4.5q35 0 50 -14t15 -42q0 -5 -0.5 -11t-1.5 -12l-6 -43q-7 -47 -33.5 -64t-64.5 -17q-34 0 -53 13.5t-19 48.5v9.5t1 9.5l4 30h22l-4 -28q-1 -3 -1 -15
q0 -27 14.5 -36.5t37.5 -9.5q35 0 50.5 13t20.5 48zM41 -20l496 704h30l-496 -704h-30zM480 62q-6 -45 -33.5 -63t-66.5 -18q-36 0 -58 14.5t-22 49.5v8.5t1 8.5l4 30q8 60 60 67q-39 6 -39 52q0 5 0.5 9t1.5 9l2 20q7 47 33 64t66 17q35 0 55 -13t20 -48v-10t-1 -10l-1 -14
q-5 -29 -17.5 -50t-40.5 -26q41 -6 41 -51v-7.5t-1 -8.5zM459 92q1 5 1 8.5v7.5q0 25 -13.5 33t-43.5 8q-35 0 -51 -11t-21 -46l-4 -30q-1 -3 -1 -13q0 -26 15.5 -36t41.5 -10q29 0 48 12.5t24 46.5zM479 248q1 5 1 8.5v7.5q0 26 -14 35t-40 9q-29 0 -48.5 -12.5
t-23.5 -47.5l-2 -19q-1 -5 -1.5 -9.5t-0.5 -8.5q0 -25 14 -33.5t42 -8.5q31 0 49 12.5t22 47.5z" />
    <glyph glyph-name="seveneighths" unicode="&#x215e;" horiz-adv-x="522" 
d="M179 343q7 45 20.5 90t30.5 85.5t37 75t40 58.5h-136l3 23h160l-3 -21q-21 -25 -41 -60t-36.5 -76t-29.5 -85.5t-20 -89.5h-25zM38 -20l496 704h30l-496 -704h-30zM490 62q-6 -45 -33.5 -63t-66.5 -18q-36 0 -58 14.5t-22 49.5v8.5t1 8.5l4 30q8 60 60 67q-39 6 -39 52
q0 5 0.5 9t1.5 9l2 20q7 47 33 64t66 17q35 0 55 -13t20 -48v-10t-1 -10l-1 -14q-5 -29 -17.5 -50t-40.5 -26q41 -6 41 -51v-7.5t-1 -8.5zM469 92q1 5 1 8.5v7.5q0 25 -13.5 33t-43.5 8q-35 0 -51 -11t-21 -46l-4 -30q-1 -3 -1 -13q0 -26 15.5 -36t41.5 -10q29 0 48 12.5
t24 46.5zM489 248q1 5 1 8.5v7.5q0 26 -14 35t-40 9q-29 0 -48.5 -12.5t-23.5 -47.5l-2 -19q-1 -5 -1.5 -9.5t-0.5 -8.5q0 -25 14 -33.5t42 -8.5q31 0 49 12.5t22 47.5z" />
    <glyph glyph-name="partialdiff" unicode="&#x2202;" horiz-adv-x="454" 
d="M279 675q12 2 23 3.5t22 1.5q32 0 60.5 -11.5t50 -36.5t34 -63t12.5 -92q0 -17 -1 -35t-4 -38q-12 -83 -32.5 -159t-53 -134t-78.5 -93t-108 -35q-80 0 -114 40t-34 112q0 70 17 125.5t47 94t70.5 59t87.5 20.5q28 0 52.5 -8.5t43 -27.5t29 -50.5t10.5 -76.5
q0 -9 -0.5 -18t-1.5 -19q10 27 17.5 57t13 61t8.5 60.5t3 55.5q0 88 -36 134.5t-100 46.5q-11 0 -21 -1t-21 -4zM395 190q3 28 3 53q0 86 -33.5 123t-89.5 37q-40 0 -74.5 -17.5t-60 -50.5t-40 -81.5t-14.5 -109.5q0 -63 28 -96.5t94 -33.5t111.5 47.5t75.5 128.5z" />
    <glyph glyph-name="product" unicode="&#x220f;" horiz-adv-x="450" 
d="M343 -233l122 870h-302l-122 -870h-32l126 897h365l-126 -897h-31z" />
    <glyph glyph-name="summation" unicode="&#x2211;" horiz-adv-x="419" 
d="M20 -182l3 24l268 399l-156 399l4 24h327l-4 -30h-288l151 -393l-262 -393h288l-4 -30h-327z" />
    <glyph glyph-name="minus" unicode="&#x2212;" horiz-adv-x="540" 
d="M94 332l4 27h442l-4 -27h-442z" />
    <glyph glyph-name="radical" unicode="&#x221a;" horiz-adv-x="522" 
d="M244 0l-74 342h-94l3 24h122l63 -319l305 617h33l-329 -664h-29z" />
    <glyph glyph-name="infinity" unicode="&#x221e;" horiz-adv-x="562" 
d="M324 309q-29 -72 -65.5 -103t-91.5 -31q-48 0 -80 32t-32 96q0 49 14 87t36.5 63.5t50.5 38.5t57 13q55 0 82.5 -31t37.5 -103q28 72 63.5 103t92.5 31q48 0 79.5 -32t31.5 -95q0 -50 -13.5 -88t-35.5 -63.5t-50.5 -38.5t-57.5 -13q-57 0 -84.5 31t-34.5 103zM340 339
q5 -76 29 -106.5t75 -30.5q25 0 48.5 10.5t41.5 32t29 53.5t11 74q0 52 -25.5 78.5t-65.5 26.5q-25 0 -45 -7t-37.5 -23.5t-32 -42.5t-28.5 -65zM318 339q-10 75 -34.5 106.5t-69.5 31.5q-26 0 -50 -11t-42.5 -32.5t-29.5 -53t-11 -73.5q0 -54 26 -79.5t68 -25.5q46 0 80 32
t63 105z" />
    <glyph glyph-name="integral" unicode="&#x222b;" horiz-adv-x="397" 
d="M-22 -233l4 31h22q30 0 58 7.5t50.5 24.5t38 46t21.5 71l77 544q7 49 25.5 83.5t45.5 56.5t62 31.5t76 9.5h23l-4 -31h-23q-31 0 -59 -7.5t-50.5 -25.5t-38 -46.5t-21.5 -70.5l-77 -544q-7 -50 -25.5 -84t-46 -55.5t-62.5 -31t-74 -9.5h-22z" />
    <glyph glyph-name="approxequal" unicode="&#x2248;" horiz-adv-x="567" 
d="M551 233q-34 -35 -68.5 -51t-79.5 -16q-29 0 -52 11t-45.5 23.5t-46 23.5t-53.5 11q-39 0 -71.5 -19t-63.5 -54l5 33q24 25 57 46t76 21q31 0 56.5 -10.5t48.5 -23.5t45.5 -23.5t48.5 -10.5q40 0 75.5 16t72.5 55zM578 432q-34 -35 -68.5 -51t-79.5 -16q-29 0 -52 11
t-45.5 23.5t-46 23.5t-53.5 11q-39 0 -71.5 -19t-63.5 -54l5 33q24 25 57 46t76 21q31 0 56.5 -10.5t48.5 -23.5t45.5 -23.5t48.5 -10.5q40 0 75.5 16t72.5 55z" />
    <glyph glyph-name="notequal" unicode="&#x2260;" horiz-adv-x="511" 
d="M231 228l-198 -248h-24l198 248h-136l3 28h154l140 175h-269l4 27h287l181 226h24l-181 -226h122l-4 -27h-140l-140 -175h255l-3 -28h-273z" />
    <glyph glyph-name="lessequal" unicode="&#x2264;" horiz-adv-x="540" 
d="M94 329l4 27l474 234l-4 -31l-441 -216l380 -216l-4 -31zM56 43l4 27h442l-4 -27h-442z" />
    <glyph glyph-name="greaterequal" unicode="&#x2265;" horiz-adv-x="540" 
d="M61 96l4 31l443 216l-382 216l4 31l410 -234l-4 -27zM56 43l4 27h442l-4 -27h-442z" />
    <glyph glyph-name="lozenge" unicode="&#x25ca;" horiz-adv-x="503" 
d="M239 0l-158 332l251 332h34l148 -332l-241 -332h-34zM478 332l-134 297l-227 -297l142 -297z" />
    <glyph glyph-name="uniF8FF" unicode="&#xf8ff;" horiz-adv-x="182" 
 />
    <glyph glyph-name="glyph398" horiz-adv-x="0" 
 />
    </font>
</defs>
</svg>
