<?xml version="1.0" standalone="no"?>
<!DOCTYPE svg PUBLIC "-//W3C//DTD SVG 1.1//EN" "http://www.w3.org/Graphics/SVG/1.1/DTD/svg11.dtd" >
<svg>
<metadata>
Created by FontForge 20120731 at Sun Aug 13 05:00:26 2023
 By www
Copyright (c) 2009 Typodermic Fonts. This font is not freely distributable. Visit typodermic.com for more information.
</metadata>
<defs>
<font id="MaquiW00-Heavy" horiz-adv-x="443" >
  <font-face 
    font-family="MaquiW00-Heavy"
    font-weight="900"
    font-stretch="normal"
    units-per-em="1000"
    panose-1="2 11 9 6 3 6 2 2 0 4"
    ascent="800"
    descent="-200"
    x-height="492"
    cap-height="664"
    bbox="-158 -246 1264 908"
    underline-thickness="50"
    underline-position="-125"
    unicode-range="U+0017-F8FF"
  />
<missing-glyph horiz-adv-x="678" 
d="M151 -241q-114 0 -114 99v799q0 100 114 100h374q116 0 116 -100v-799q0 -99 -116 -99h-374zM321 24l-187 50l-45 -167l188 -49zM336 130q4 16 13 25t20.5 15t25 9.5t26.5 7.5q29 9 50 21.5t37.5 34t29.5 54.5t27 83q8 29 12.5 55t4.5 49q0 49 -26 83t-64.5 55
t-83.5 30.5t-84 9.5q-54 0 -94 -28t-59 -97l-21 -77l175 -48l20 72q3 11 15 11t22.5 -6t10.5 -17l-24 -87q-4 -15 -12.5 -23.5t-21 -14t-27.5 -9.5t-33 -10q-48 -17 -70.5 -52t-35.5 -86l-12 -46l171 -44z" />
    <glyph glyph-name="copyright" unicode="&#x28;C&#x29;" horiz-adv-x="511" 
d="M479 145q0 -47 -18 -78t-49 -49.5t-72 -26.5t-86 -8q-47 0 -87.5 8t-70.5 26.5t-47 49.5t-17 78v373q0 46 17 77.5t47 50t70.5 26.5t87.5 8q45 0 86 -8t72 -26.5t49 -50t18 -77.5v-373zM411 518q0 27 -12.5 44.5t-34 28.5t-50 15.5t-60.5 4.5q-33 0 -61 -4.5t-49 -15.5
t-32.5 -28.5t-11.5 -44.5v-373q0 -27 11.5 -45.5t32.5 -29t49 -15t61 -4.5q32 0 60.5 4.5t50 15t34 29t12.5 45.5v373zM336 253q0 -43 -21 -58.5t-56 -15.5q-36 0 -60.5 15.5t-24.5 58.5v168q0 42 24.5 57.5t60.5 15.5q35 0 56 -15.5t21 -57.5v-60h-58v50q0 9 -4 14t-15 5
q-19 0 -19 -16v-156q0 -16 19 -16t19 16v53h58v-58z" />
    <glyph glyph-name="registered" unicode="&#x28;R&#x29;" horiz-adv-x="511" 
d="M479 145q0 -47 -18 -78t-48.5 -49.5t-71.5 -26.5t-86 -8q-48 0 -88.5 8t-70.5 26.5t-47 49.5t-17 78v373q0 46 17 77.5t47 50t70.5 26.5t88.5 8q45 0 86 -8t71.5 -26.5t48.5 -50t18 -77.5v-373zM411 518q0 27 -12.5 44.5t-34 28.5t-50 15.5t-59.5 4.5q-33 0 -61.5 -4.5
t-49.5 -15.5t-32.5 -28.5t-11.5 -44.5v-373q0 -27 11.5 -45t32.5 -29t49.5 -15.5t61.5 -4.5q31 0 59.5 4.5t50 15.5t34 29t12.5 45v373zM263 359q11 0 14.5 12.5t3.5 24.5q0 20 -3.5 28t-12.5 8h-24v-73h22zM278 187v105q0 5 -2.5 12t-13.5 7h-21v-124h-64v300h110
q17 0 28 -6.5t17 -16.5t8.5 -23t2.5 -26q0 -11 -1 -22.5t-4 -22t-9.5 -19t-18.5 -12.5q22 -5 27.5 -23.5t5.5 -37.5v-91h-65z" />
    <glyph glyph-name="uni2117" unicode="&#x28;P&#x29;" horiz-adv-x="511" 
d="M479 145q0 -47 -18 -78t-48.5 -49.5t-71.5 -26.5t-86 -8q-48 0 -88.5 8t-70.5 26.5t-47 49.5t-17 78v373q0 46 17 77.5t47 50t70.5 26.5t88.5 8q45 0 86 -8t71.5 -26.5t48.5 -50t18 -77.5v-373zM411 518q0 27 -12.5 44.5t-34 28.5t-50 15.5t-59.5 4.5q-33 0 -61.5 -4.5
t-49.5 -15.5t-32.5 -28.5t-11.5 -44.5v-373q0 -27 11.5 -45t32.5 -29t49.5 -15.5t61.5 -4.5q31 0 59.5 4.5t50 15.5t34 29t12.5 45v373zM177 187v300h100q42 0 55.5 -22t13.5 -73t-13.5 -73.5t-55.5 -22.5h-34v-109h-66zM265 348q11 0 14.5 12t3.5 31q0 23 -3.5 32t-14.5 9
h-22v-84h22z" />
    <glyph glyph-name=".notdef" horiz-adv-x="678" 
d="M151 -241q-114 0 -114 99v799q0 100 114 100h374q116 0 116 -100v-799q0 -99 -116 -99h-374zM321 24l-187 50l-45 -167l188 -49zM336 130q4 16 13 25t20.5 15t25 9.5t26.5 7.5q29 9 50 21.5t37.5 34t29.5 54.5t27 83q8 29 12.5 55t4.5 49q0 49 -26 83t-64.5 55
t-83.5 30.5t-84 9.5q-54 0 -94 -28t-59 -97l-21 -77l175 -48l20 72q3 11 15 11t22.5 -6t10.5 -17l-24 -87q-4 -15 -12.5 -23.5t-21 -14t-27.5 -9.5t-33 -10q-48 -17 -70.5 -52t-35.5 -86l-12 -46l171 -44z" />
    <glyph glyph-name=".null" horiz-adv-x="0" 
 />
    <glyph glyph-name="nonmarkingreturn" horiz-adv-x="333" 
 />
    <glyph glyph-name="glyph397" horiz-adv-x="0" 
 />
    <glyph glyph-name="glyph397" horiz-adv-x="0" 
 />
    <glyph glyph-name="uni0017" horiz-adv-x="196" 
 />
    <glyph glyph-name="space" unicode=" " horiz-adv-x="196" 
 />
    <glyph glyph-name="exclam" unicode="!" horiz-adv-x="249" 
d="M54 0v146h140v-146h-140zM88 198q-10 61 -17.5 113.5t-13 101.5t-8 97t-2.5 99q0 34 6 55h144q3 -11 4 -24.5t1 -30.5q0 -51 -2.5 -99t-8 -97t-13 -101.5t-17.5 -113.5h-73z" />
    <glyph glyph-name="quotedbl" unicode="&#x22;" horiz-adv-x="364" 
d="M39 414v250h103v-250h-103zM221 414v250h103v-250h-103z" />
    <glyph glyph-name="numbersign" unicode="#" horiz-adv-x="517" 
d="M309 388h-86l-18 -112h86zM250 0l29 188h-85l-27 -188h-88l27 188h-85l10 88h87l17 112h-87l10 88h89l29 188h86l-28 -188h86l27 188h90l-28 -188h86l-12 -88h-86l-17 -112h89l-10 -88h-91l-28 -188h-90z" />
    <glyph glyph-name="dollar" unicode="$" horiz-adv-x="424" 
d="M160 0v75q-25 3 -48 10t-41 21t-28.5 35t-10.5 53v57h128v-31q0 -23 13.5 -28t30.5 -5q20 0 31.5 7t11.5 30v16q0 23 -16 35t-40 20.5t-51.5 17t-51.5 24.5t-40 42.5t-16 71.5q0 36 10 61t27 41.5t40.5 25.5t50.5 12v73h106v-72q23 -2 44.5 -8t38 -18.5t26.5 -32.5
t10 -48v-48h-123v30q0 17 -14.5 20t-27.5 3q-17 0 -31.5 -4.5t-14.5 -27.5q0 -24 20 -37.5t48.5 -23.5t59 -21t52.5 -30q25 -23 31.5 -50t6.5 -58q0 -41 -8.5 -70t-25 -48t-40 -29.5t-52.5 -14.5v-76h-106z" />
    <glyph glyph-name="percent" unicode="%" horiz-adv-x="543" 
d="M224 415q0 -46 -28.5 -63.5t-67.5 -17.5q-21 0 -38.5 4t-30.5 13t-20.5 24.5t-7.5 39.5v187q0 46 27.5 63.5t69.5 17.5q39 0 67.5 -17.5t28.5 -63.5v-187zM138 593q0 7 -10 7q-11 0 -11 -7v-169q0 -7 11 -7q10 0 10 7v169zM35 -20l380 704h87l-382 -704h-85zM512 62
q0 -46 -28.5 -63.5t-67.5 -17.5q-21 0 -38.5 4t-30.5 13t-20.5 24.5t-7.5 39.5v187q0 46 27.5 63.5t69.5 17.5q39 0 67.5 -17.5t28.5 -63.5v-187zM426 240q0 7 -10 7q-11 0 -11 -7v-169q0 -7 11 -7q10 0 10 7v169z" />
    <glyph glyph-name="ampersand" unicode="&#x26;" horiz-adv-x="508" 
d="M368 0l-31 39q-23 -29 -59 -42.5t-94 -13.5q-29 0 -56.5 8t-49 27t-35 49.5t-13.5 75.5v41q0 45 17.5 87.5t59.5 64.5q-14 18 -24.5 34t-18 34t-11.5 39t-4 48v27q0 46 9 77t29 50t51 27t76 8t75 -8t48.5 -27t26.5 -50.5t8 -77.5v-27q0 -34 -5 -59.5t-17.5 -46.5
t-34.5 -38t-56 -34l58 -71l42 79h140l-101 -181l111 -139h-141zM255 493q0 15 -0.5 25.5t-4 17.5t-11 10.5t-22.5 3.5q-29 0 -34.5 -14t-5.5 -43v-38q0 -25 5.5 -40t24.5 -34q31 16 39.5 29t8.5 32v51zM179 242q-15 -23 -15 -60v-21q0 -28 10 -39.5t34 -11.5q18 0 29.5 7
t21.5 22z" />
    <glyph glyph-name="quotesingle" unicode="'" horiz-adv-x="182" 
d="M39 414v250h103v-250h-103z" />
    <glyph glyph-name="parenleft" unicode="(" horiz-adv-x="318" 
d="M234 -143q-85 94 -126.5 208.5t-41.5 235.5q0 115 40 224t128 203h98q-129 -206 -129 -429q0 -114 31.5 -224t97.5 -218h-98z" />
    <glyph glyph-name="parenright" unicode=")" horiz-adv-x="318" 
d="M-14 -143q66 108 97 218t31 224q0 112 -31 218t-97 211h98q88 -94 128 -203t40 -224q0 -121 -41.5 -235.5t-126.5 -208.5h-98z" />
    <glyph glyph-name="asterisk" unicode="*" horiz-adv-x="415" 
d="M284 322l-78 105l-76 -105l-58 41l77 108l-118 38l20 64l117 -37v133h75v-133l117 37l23 -64l-119 -38l77 -108z" />
    <glyph glyph-name="plus" unicode="+" horiz-adv-x="561" 
d="M231 105v190h-188v97h188v188h97v-188h189v-97h-189v-190h-97z" />
    <glyph glyph-name="comma" unicode="," horiz-adv-x="313" 
d="M86 151h143v-113q0 -38 -10.5 -71t-29.5 -57.5t-45.5 -39.5t-57.5 -16v297z" />
    <glyph glyph-name="hyphen" unicode="-" horiz-adv-x="332" 
d="M41 256v104h250v-104h-250z" />
    <glyph glyph-name="period" unicode="." horiz-adv-x="265" 
d="M61 0v151h143v-151h-143z" />
    <glyph glyph-name="slash" unicode="/" horiz-adv-x="300" 
d="M0 0l187 664h113l-189 -664h-111z" />
    <glyph glyph-name="zero" unicode="0" 
d="M411 145q0 -47 -15.5 -78t-41.5 -49.5t-60.5 -26.5t-72.5 -8q-40 0 -74.5 8t-60 26.5t-40 49.5t-14.5 78v373q0 46 14.5 77.5t40 50t60 26.5t74.5 8q38 0 72.5 -8t60.5 -26.5t41.5 -50t15.5 -77.5v-373zM266 506q0 23 -10 30.5t-35 7.5q-23 0 -34 -8t-11 -30v-350
q0 -21 10.5 -29t34.5 -8q25 0 35 8t10 29v350z" />
    <glyph glyph-name="one" unicode="1" horiz-adv-x="271" 
d="M91 0v498q0 20 -11.5 28.5t-33.5 8.5q-14 0 -22 -4v139q6 1 12 1.5t13 0.5q38 0 72 -7.5t59.5 -26.5t40.5 -50t15 -77v-511h-145z" />
    <glyph glyph-name="two" unicode="2" horiz-adv-x="424" 
d="M35 0v184q0 64 13.5 108t59.5 67q24 12 42.5 19t44.5 18q20 8 31 16t16.5 20t6.5 30.5t1 48.5q0 31 -8 41t-34 10q-24 0 -33.5 -6t-9.5 -23v-62h-123v67q0 42 12.5 69.5t35 43.5t52.5 22.5t66 6.5q54 0 89 -10.5t55.5 -32.5t28 -57t7.5 -84q0 -45 -5.5 -77t-19 -55.5
t-37 -40t-58.5 -30.5q-21 -8 -37.5 -15t-27.5 -16.5t-17 -23t-6 -35.5v-78h204v-125h-349z" />
    <glyph glyph-name="three" unicode="3" horiz-adv-x="417" 
d="M387 145q0 -46 -14 -77t-38.5 -50t-59 -27t-76.5 -8q-40 0 -72 8t-54 26.5t-34 49.5t-12 78v60h129v-50q0 -23 9.5 -31t33.5 -8t34 8t10 29v77q0 29 -9 44t-35 15h-45v100h45q25 0 34 15.5t9 42.5v63q0 23 -9.5 31t-33.5 8t-33.5 -8t-9.5 -33v-48h-129v58q0 46 12 77.5
t34 50t54 26.5t72 8q42 0 75.5 -8t57.5 -26.5t37 -50t13 -77.5v-36q0 -22 -3.5 -44t-12.5 -41.5t-23.5 -35t-36.5 -23.5q22 -7 37 -21.5t25 -33t14.5 -40t4.5 -42.5v-56z" />
    <glyph glyph-name="four" unicode="4" horiz-adv-x="435" 
d="M263 0v119h-241v135l178 410h138l-171 -420h99v123h131v-367h-134z" />
    <glyph glyph-name="five" unicode="5" horiz-adv-x="429" 
d="M393 145q0 -47 -13.5 -78t-38.5 -49.5t-59 -26.5t-75 -8q-39 0 -71 8t-54.5 26.5t-35 49.5t-12.5 78v60h128v-49q0 -22 9.5 -31t34.5 -9q31 0 37 16t6 45v70q0 29 -9 39t-35 10q-15 0 -21 -2t-9 -7h-131l22 377h308v-124h-177l-9 -152q18 8 35.5 12t39.5 4q69 0 99.5 -39
t30.5 -117v-103z" />
    <glyph glyph-name="six" unicode="6" 
d="M412 139q0 -45 -15 -75t-40.5 -48t-59.5 -25.5t-73 -7.5q-40 0 -75 7.5t-61 25.5t-41 48t-15 75v378q0 47 14 78.5t39.5 50t60.5 26.5t76 8q40 0 73 -8t57 -26.5t37 -50t13 -78.5v-39h-137v33q0 23 -9.5 30.5t-33.5 7.5t-34.5 -7.5t-10.5 -30.5v-114q10 8 28 14.5t49 6.5
q28 0 56.5 -6t51 -23.5t36.5 -48t14 -79.5v-122zM267 265q0 22 -10 32.5t-35 10.5q-33 0 -45 -25v-134q0 -19 10 -26.5t34 -7.5q23 0 34.5 7.5t11.5 26.5v116z" />
    <glyph glyph-name="seven" unicode="7" horiz-adv-x="386" 
d="M89 0q1 81 11.5 160.5t28 151t41 130t50.5 97.5h-201v125h342v-104q-60 -97 -93.5 -241t-38.5 -319h-140z" />
    <glyph glyph-name="eight" unicode="8" horiz-adv-x="439" 
d="M409 145q0 -46 -14 -77t-39.5 -50t-60 -27t-76.5 -8q-41 0 -76 8t-60 27t-39 50t-14 77v56q0 21 4.5 42.5t14 40t25 33t37.5 21.5q-22 8 -36.5 23.5t-23.5 35t-12.5 41.5t-3.5 44v36q0 46 13.5 77.5t37.5 50t58 26.5t75 8q42 0 76 -8t58 -26.5t37.5 -50t13.5 -77.5v-36
q0 -22 -4 -44t-13 -41.5t-23.5 -35t-35.5 -23.5q21 -7 36.5 -21.5t25.5 -33t14.5 -40t4.5 -42.5v-56zM264 232q0 28 -9.5 42.5t-35.5 14.5t-35 -14.5t-9 -42.5v-77q0 -21 10.5 -29t33.5 -8q24 0 34.5 8t10.5 29v77zM264 508q0 23 -10.5 31t-34.5 8q-23 0 -33.5 -8t-10.5 -31
v-65q0 -25 9 -39.5t35 -14.5t35.5 14.5t9.5 39.5v65z" />
    <glyph glyph-name="nine" unicode="9" horiz-adv-x="440" 
d="M263 275q-10 -8 -28.5 -15t-49.5 -7q-28 0 -56 6.5t-50.5 23.5t-36.5 48t-14 80v113q0 45 15 75t40.5 48t59.5 25.5t72 7.5q40 0 75 -7.5t61 -25.5t41.5 -48t15.5 -75v-379q0 -47 -14 -78t-39.5 -50t-60.5 -26.5t-76 -7.5q-40 0 -73 7.5t-57 26.5t-37.5 50t-13.5 78v49
h138v-40q0 -21 9.5 -29t33.5 -8t34.5 8t10.5 29v121zM263 513q0 20 -10 28t-35 8q-22 0 -33.5 -8t-11.5 -28v-106q0 -23 10 -33t34 -10q34 0 46 25v124z" />
    <glyph glyph-name="colon" unicode=":" horiz-adv-x="309" 
d="M82 0v151h143v-151h-143zM82 339v150h143v-150h-143z" />
    <glyph glyph-name="semicolon" unicode=";" horiz-adv-x="312" 
d="M87 339v150h143v-150h-143zM87 151h143v-113q0 -38 -10.5 -71t-29 -57.5t-45 -39.5t-58.5 -16v297z" />
    <glyph glyph-name="less" unicode="&#x3c;" horiz-adv-x="561" 
d="M43 294v98l474 198v-108l-364 -139l364 -140v-107z" />
    <glyph glyph-name="equal" unicode="=" horiz-adv-x="561" 
d="M43 393v98h474v-98h-474zM43 194v98h474v-98h-474z" />
    <glyph glyph-name="greater" unicode="&#x3e;" horiz-adv-x="561" 
d="M43 96v107l364 140l-364 139v108l474 -198v-98z" />
    <glyph glyph-name="question" unicode="?" horiz-adv-x="391" 
d="M101 0v146h140v-146h-140zM105 209v37q0 27 2.5 46t9.5 34.5t19 28t32 26.5q17 11 29.5 19t21 16.5t13 19t4.5 26.5v41q0 29 -6 44t-37 15t-37 -15t-6 -44v-37h-130v62q0 44 12 73.5t34.5 47t55 24.5t73.5 7q54 0 88 -11t54 -33.5t27.5 -57.5t7.5 -83q0 -41 -4.5 -68.5
t-12.5 -47t-21 -32t-29 -22.5q-37 -23 -55 -42.5t-18 -46.5v-27h-127z" />
    <glyph glyph-name="at" unicode="@" horiz-adv-x="535" 
d="M178 -102q-30 0 -56.5 6t-46.5 20.5t-31.5 38.5t-11.5 60v461q0 36 11.5 60t31.5 38.5t46.5 20.5t56.5 6h178q30 0 56.5 -6t47 -20.5t32 -38.5t11.5 -60v-374q-23 -8 -57.5 -15.5t-92.5 -7.5q-31 0 -57.5 6.5t-45.5 21.5t-30 40.5t-11 63.5v76q0 42 10.5 67.5t27.5 40
t38.5 19.5t44.5 5t36.5 -4t24.5 -9v58q0 16 -9.5 22.5t-25.5 6.5h-178q-34 0 -34 -29v-438q0 -16 9 -22t25 -6h324v-108h-324zM391 304q-14 9 -36 9q-17 0 -26 -6.5t-9 -24.5v-51q0 -17 9 -23.5t26 -6.5q24 0 36 5v98z" />
    <glyph glyph-name="A" unicode="A" 
d="M265 0v220h-91v-220h-142v426q0 55 15.5 95t42 69t60.5 50.5t71 39.5q36 -18 70 -39.5t61 -50.5t43 -69t16 -95v-426h-146zM265 430q0 20 -4 33.5t-10.5 23t-14.5 15.5t-16 11q-9 -5 -17 -11t-14.5 -15.5t-10.5 -23t-4 -33.5v-90h91v90z" />
    <glyph glyph-name="B" unicode="B" horiz-adv-x="442" 
d="M38 0v664h239q39 0 63.5 -14t38 -36.5t18.5 -51t5 -57.5q0 -24 -2 -50t-9.5 -49t-21 -41t-37.5 -27q25 -9 41.5 -27.5t25.5 -42.5t12.5 -51t3.5 -52q0 -30 -6.5 -59.5t-22 -53t-41.5 -38t-66 -14.5h-241zM228 120q27 0 35 19t8 64q0 17 -1.5 32.5t-6.5 27.5t-13.5 19
t-22.5 7h-49v-169h50zM227 389q26 0 34 24t8 54q0 42 -7.5 60t-33.5 18h-50v-156h49z" />
    <glyph glyph-name="C" unicode="C" horiz-adv-x="421" 
d="M391 145q0 -47 -12.5 -78t-35 -49.5t-54 -26.5t-69.5 -8q-40 0 -74 8t-59.5 26.5t-40 49.5t-14.5 78v373q0 46 14.5 77.5t40 50t59.5 26.5t74 8q38 0 69.5 -8t54 -26.5t35 -50t12.5 -77.5v-136h-128v127q0 19 -9 28.5t-34 9.5q-24 0 -34 -9t-10 -29v-346q0 -23 8 -34.5
t36 -11.5q25 0 34 9t9 28v121h128v-130z" />
    <glyph glyph-name="D" unicode="D" horiz-adv-x="449" 
d="M38 0v664h190q38 0 72.5 -8t60.5 -30t41 -62t15 -103v-272q0 -52 -15 -88t-41 -58.5t-60.5 -32.5t-72.5 -10h-190zM273 493q0 26 -11 37t-34 11h-46v-416h46q23 0 34 11t11 39v318z" />
    <glyph glyph-name="E" unicode="E" horiz-adv-x="335" 
d="M38 0v664h266v-123h-122v-133h109v-122h-109v-161h128v-125h-272z" />
    <glyph glyph-name="F" unicode="F" horiz-adv-x="345" 
d="M38 0v664h284v-123h-140v-141h135v-121h-135v-279h-144z" />
    <glyph glyph-name="G" unicode="G" horiz-adv-x="435" 
d="M266 340h134v-328q-26 -10 -68 -19.5t-114 -9.5q-38 0 -72 7.5t-59.5 26.5t-40 49.5t-14.5 77.5v374q0 46 14.5 77.5t40 50t59.5 26.5t74 8q39 0 70.5 -8t54 -26.5t34.5 -50t12 -77.5v-92h-128v84q0 20 -9 29.5t-34 9.5q-24 0 -33.5 -9.5t-9.5 -29.5v-355
q0 -20 11.5 -28.5t32.5 -8.5q15 0 25.5 2t19.5 6v214z" />
    <glyph glyph-name="H" unicode="H" horiz-adv-x="456" 
d="M273 0v276h-91v-276h-144v664h144v-268h91v268h144v-664h-144z" />
    <glyph glyph-name="I" unicode="I" horiz-adv-x="220" 
d="M38 0v664h144v-664h-144z" />
    <glyph glyph-name="J" unicode="J" horiz-adv-x="271" 
d="M24 118q8 -4 22 -4q45 0 45 37v513h145v-525q0 -47 -15 -77.5t-40.5 -49.5t-59.5 -26.5t-72 -7.5q-7 0 -13 0.5t-12 0.5v139z" />
    <glyph glyph-name="K" unicode="K" horiz-adv-x="457" 
d="M287 0l-108 330v-330h-141v664h141v-286l102 286h153l-123 -289l136 -375h-160z" />
    <glyph glyph-name="L" unicode="L" horiz-adv-x="329" 
d="M38 0v664h144v-539h126v-125h-270z" />
    <glyph glyph-name="M" unicode="M" horiz-adv-x="663" 
d="M483 0v507q0 38 -43 38q-24 0 -39 -9v-536h-137v529q-10 16 -41 16q-13 0 -23 -2t-18 -5v-538h-144v651q26 9 71.5 19t103.5 10q38 0 69.5 -10t48.5 -24q19 13 48 23.5t72 10.5q36 0 68 -8.5t56 -27.5t38 -50t14 -76v-518h-144z" />
    <glyph glyph-name="N" unicode="N" horiz-adv-x="452" 
d="M273 0v508q0 20 -12 28.5t-33 8.5q-15 0 -26.5 -2t-19.5 -5v-538h-144v651q26 9 73 19t120 10q38 0 72 -7.5t59.5 -26.5t40 -50t14.5 -77v-519h-144z" />
    <glyph glyph-name="O" unicode="O" 
d="M411 145q0 -47 -15.5 -78t-41.5 -49.5t-60.5 -26.5t-72.5 -8q-40 0 -74.5 8t-60 26.5t-40 49.5t-14.5 78v373q0 46 14.5 77.5t40 50t60 26.5t74.5 8q38 0 72.5 -8t60.5 -26.5t41.5 -50t15.5 -77.5v-373zM266 506q0 23 -10 30.5t-35 7.5q-23 0 -34 -8t-11 -30v-350
q0 -21 10.5 -29t34.5 -8q25 0 35 8t10 29v350z" />
    <glyph glyph-name="P" unicode="P" horiz-adv-x="433" 
d="M38 0v664h220q47 0 77 -12t47 -37.5t23.5 -65.5t6.5 -96t-6.5 -96t-23.5 -65.5t-47 -37.5t-77 -12h-76v-242h-144zM230 356q28 0 36 26.5t8 68.5q0 53 -8 73.5t-36 20.5h-48v-189h48z" />
    <glyph glyph-name="Q" unicode="Q" 
d="M236 -102l-28 105q-37 1 -69 10t-56 27.5t-37.5 49t-13.5 75.5v353q0 46 14.5 77.5t40 50t60 26.5t74.5 8q38 0 72.5 -8t60.5 -26.5t41.5 -50t15.5 -77.5v-353q0 -54 -20 -86.5t-52 -49.5l42 -131h-145zM266 506q0 23 -10 30.5t-35 7.5q-23 0 -34 -8t-11 -30v-330
q0 -21 10.5 -29t34.5 -8q25 0 35 8.5t10 28.5v330z" />
    <glyph glyph-name="R" unicode="R" horiz-adv-x="439" 
d="M230 381q12 0 19.5 7t12 18.5t6 26.5t1.5 31q0 42 -7.5 61.5t-33.5 19.5h-50v-164h52zM264 0v232q0 17 -7 31t-29 14h-50v-277h-140v664h241q39 0 64 -14t39 -36.5t19 -51t5 -57.5q0 -25 -2 -51.5t-9.5 -50t-22.5 -41.5t-40 -26q24 -6 38.5 -19.5t22.5 -31.5t10.5 -39.5
t2.5 -43.5v-202h-142z" />
    <glyph glyph-name="S" unicode="S" horiz-adv-x="410" 
d="M242 185q0 32 -2.5 51t-11.5 31t-27.5 20.5t-49.5 20.5q-67 25 -96 67t-29 114q0 46 8.5 81.5t30 60t57.5 37t92 12.5q36 0 66.5 -7t52.5 -23.5t34.5 -45t12.5 -71.5v-67h-123v52q0 26 -10.5 35t-30.5 9q-26 0 -35.5 -10t-9.5 -42v-17q0 -22 2 -35.5t10.5 -23t24 -17
t42.5 -16.5q48 -17 75.5 -37t41 -45.5t17 -56.5t3.5 -70q0 -50 -7.5 -89t-28.5 -65.5t-57.5 -40.5t-93.5 -14q-41 0 -73.5 8.5t-55 28t-34 50.5t-11.5 75v91h128v-85q0 -23 11 -31t33 -8q25 0 34.5 11t9.5 43v19z" />
    <glyph glyph-name="T" unicode="T" horiz-adv-x="371" 
d="M113 0v541h-101v123h347v-123h-102v-541h-144z" />
    <glyph glyph-name="U" unicode="U" horiz-adv-x="452" 
d="M270 664h144v-652q-26 -9 -73 -19t-119 -10q-39 0 -73 7.5t-59.5 26.5t-40 49.5t-14.5 77.5v520h145v-509q0 -20 11.5 -28.5t32.5 -8.5q27 0 46 8v538z" />
    <glyph glyph-name="V" unicode="V" 
d="M269 664h142v-426q0 -56 -16 -95.5t-42 -69t-60.5 -50.5t-71.5 -39q-36 18 -70 39t-60.5 50.5t-42.5 69t-16 95.5v426h146v-430q0 -38 14.5 -55.5t30.5 -27.5q9 5 17 11t14.5 15.5t10.5 23t4 33.5v430z" />
    <glyph glyph-name="W" unicode="W" horiz-adv-x="651" 
d="M477 664h142v-427q0 -55 -15 -95t-40 -69t-58 -50.5t-69 -39.5q-33 18 -62 42.5t-49 53.5q-19 -29 -49 -53.5t-64 -42.5q-35 18 -67.5 39t-58 50.5t-40.5 69t-15 95.5v427h146v-428q0 -38 11.5 -56.5t28.5 -29.5q17 11 29 29.5t12 56.5v428h137v-428q0 -38 11.5 -56.5
t28.5 -29.5q18 11 29.5 29.5t11.5 56.5v428z" />
    <glyph glyph-name="X" unicode="X" horiz-adv-x="451" 
d="M289 0l-63 261l-68 -261h-148l105 348l-98 316h150l59 -250l59 250h147l-97 -309l106 -355h-152z" />
    <glyph glyph-name="Y" unicode="Y" horiz-adv-x="431" 
d="M144 0v232q-25 16 -46.5 36t-37.5 46t-25.5 58.5t-9.5 73.5v218h147v-221q0 -39 15 -57t29 -28q17 10 31.5 28t14.5 57v221h142v-218q0 -81 -33 -131.5t-83 -82.5v-232h-144z" />
    <glyph glyph-name="Z" unicode="Z" horiz-adv-x="399" 
d="M23 0v139l191 402h-181v123h336v-103l-183 -436h183v-125h-346z" />
    <glyph glyph-name="bracketleft" unicode="[" horiz-adv-x="332" 
d="M85 -130v849h236v-95h-116v-660h116v-94h-236z" />
    <glyph glyph-name="backslash" unicode="\" horiz-adv-x="300" 
d="M189 0l-189 664h113l187 -664h-111z" />
    <glyph glyph-name="bracketright" unicode="]" horiz-adv-x="328" 
d="M11 -130v94h118v660h-118v95h237v-849h-237z" />
    <glyph glyph-name="asciicircum" unicode="^" horiz-adv-x="341" 
d="M215 473l-45 96l-48 -96h-96l110 191h66l111 -191h-98z" />
    <glyph glyph-name="underscore" unicode="_" horiz-adv-x="364" 
d="M-1 -126v59h367v-59h-367z" />
    <glyph glyph-name="grave" unicode="`" horiz-adv-x="307" 
d="M38 610v100l231 -108v-68z" />
    <glyph glyph-name="a" unicode="a" horiz-adv-x="414" 
d="M379 11q-24 -12 -61 -20t-105 -8q-43 0 -78 7.5t-60 24t-38.5 44t-13.5 66.5v43q0 41 13.5 66t35 39t48 18.5t53.5 4.5q26 0 44.5 -3.5t29.5 -8.5v49q0 43 -49 43q-43 0 -77 -6t-72 -20v130q26 11 62.5 18t93.5 7q37 0 69 -7.5t55 -25.5t36.5 -48t13.5 -75v-338zM247 204
q-17 11 -43 11q-21 0 -31 -7.5t-10 -26.5v-38q0 -18 10 -26.5t33 -8.5q15 0 24.5 2t16.5 6v88z" />
    <glyph glyph-name="b" unicode="b" horiz-adv-x="407" 
d="M378 139q0 -45 -13.5 -75t-36.5 -48t-55 -25.5t-68 -7.5q-39 0 -71 7.5t-55 25.5t-36 48t-13 75v533h132v-182q11 6 28 10.5t44 4.5t52.5 -6t46 -23t33 -47.5t12.5 -79.5v-210zM246 336q0 21 -10 29t-30 8q-30 0 -44 -11v-213q0 -19 11 -26.5t31 -7.5t31 7.5t11 26.5v187
z" />
    <glyph glyph-name="c" unicode="c" horiz-adv-x="400" 
d="M373 139q0 -45 -13 -75t-35.5 -48t-53.5 -25.5t-68 -7.5q-38 0 -70 7.5t-55 25.5t-35.5 48t-12.5 75v210q0 45 12.5 75t35.5 48t55 25.5t70 7.5q37 0 68 -7.5t53.5 -25.5t35.5 -48t13 -75v-63h-128v52q0 20 -11 27.5t-31 7.5t-30.5 -7.5t-10.5 -27.5v-189
q0 -19 10.5 -26.5t30.5 -7.5t31 7.5t11 26.5v57h128v-67z" />
    <glyph glyph-name="d" unicode="d" horiz-adv-x="416" 
d="M30 349q0 49 12.5 79.5t33 47.5t46 23t52.5 6q26 0 43 -4.5t29 -10.5v182h132v-661q-26 -9 -67.5 -18.5t-109.5 -9.5q-37 0 -68.5 7.5t-54 25.5t-35.5 48t-13 75v210zM246 362q-8 5 -18.5 8t-26.5 3q-20 0 -29.5 -8t-9.5 -29v-185q0 -20 10 -28t30 -8q16 0 26 2t18 5v240
z" />
    <glyph glyph-name="e" unicode="e" horiz-adv-x="408" 
d="M372 8q-26 -10 -69 -17.5t-100 -7.5q-37 0 -68.5 7.5t-55 25.5t-36.5 48t-13 75v210q0 45 12.5 75t35.5 48t55 25.5t70 7.5q37 0 68.5 -7.5t55 -25.5t37 -48t13.5 -75v-142h-215v-55q0 -23 13 -29t37 -6q58 0 94 6t66 18v-133zM245 335q0 20 -7.5 32t-34.5 12
q-16 0 -24.5 -4t-12 -11.5t-4 -17.5t-0.5 -21v-43h83v53z" />
    <glyph glyph-name="f" unicode="f" horiz-adv-x="275" 
d="M61 0v397h-43v95h43v49q0 40 13.5 67t36 43t53 22.5t63.5 6.5q6 0 11.5 -0.5t10.5 -1.5v-121q-9 3 -21 3q-34 0 -34 -32v-36h60v-95h-60v-397h-133z" />
    <glyph glyph-name="g" unicode="g" horiz-adv-x="410" 
d="M246 10q-12 -6 -29 -10.5t-43 -4.5q-27 0 -52.5 6t-46 23t-33 47.5t-12.5 79.5v198q0 45 13 75t36.5 48t55 25.5t68.5 7.5q38 0 70 -7.5t55.5 -25.5t36.5 -48t13 -75v-444q0 -43 -13.5 -72t-36.5 -46.5t-55 -25t-69 -7.5q-35 0 -65 7.5t-52 25t-34 46.5t-12 72v39h124
v-33q0 -32 39 -32q42 0 42 32v99zM246 338q0 20 -11 27.5t-31 7.5t-31 -7.5t-11 -27.5v-174q0 -20 9.5 -28t29.5 -8q28 0 45 11v199z" />
    <glyph glyph-name="h" unicode="h" horiz-adv-x="420" 
d="M254 0v336q0 21 -10 29t-30 8q-30 0 -44 -11v-362h-132v672h132v-182q11 6 28 10.5t44 4.5t52.5 -6t46 -23t33 -47.5t12.5 -79.5v-349h-132z" />
    <glyph glyph-name="i" unicode="i" horiz-adv-x="214" 
d="M40 0v492h133v-492h-133zM40 551v121h133v-121h-133z" />
    <glyph glyph-name="j" unicode="j" horiz-adv-x="230" 
d="M4 -110q9 -3 20 -3q35 0 35 31v574h130v-586q0 -41 -13 -67.5t-35 -42.5t-52 -22.5t-63 -6.5q-7 0 -12 0.5t-10 0.5v122zM58 551v121h131v-121h-131z" />
    <glyph glyph-name="k" unicode="k" horiz-adv-x="430" 
d="M267 0l-97 248v-248h-132v672h132v-384l87 204h147l-107 -209l122 -283h-152z" />
    <glyph glyph-name="l" unicode="l" horiz-adv-x="208" 
d="M38 0v672h132v-672h-132z" />
    <glyph glyph-name="m" unicode="m" horiz-adv-x="607" 
d="M440 0v342q0 31 -36 31q-25 0 -35 -9v-364h-127v356q-6 17 -36 17q-21 0 -36 -7v-366h-132v478q25 8 63 17.5t95 9.5q32 0 58.5 -6.5t38.5 -18.5q35 25 113 25q36 0 66.5 -7.5t53 -25.5t35 -47t12.5 -71v-354h-133z" />
    <glyph glyph-name="n" unicode="n" horiz-adv-x="420" 
d="M254 0v336q0 20 -10.5 28.5t-30.5 8.5q-15 0 -25 -2t-18 -6v-365h-132v477q26 9 67 18.5t110 9.5q37 0 68 -7.5t54 -25.5t36 -48t13 -75v-349h-132z" />
    <glyph glyph-name="o" unicode="o" horiz-adv-x="408" 
d="M378 139q0 -45 -13.5 -75t-37 -48t-55.5 -25.5t-68 -7.5q-39 0 -71 7.5t-55 25.5t-35.5 48t-12.5 75v210q0 45 12.5 75t35.5 48t55 25.5t71 7.5q36 0 68 -7.5t55.5 -25.5t37 -48t13.5 -75v-210zM246 338q0 20 -11 27.5t-31 7.5t-31 -7.5t-11 -27.5v-189q0 -19 11 -26.5
t31 -7.5t31 7.5t11 26.5v189z" />
    <glyph glyph-name="p" unicode="p" horiz-adv-x="410" 
d="M30 -233v710q26 9 67 18.5t110 9.5q37 0 68 -7.5t54 -25.5t36 -48t13 -75v-210q0 -49 -12.5 -79.5t-33 -47.5t-46 -23t-52.5 -6t-44 4t-28 10v-230h-132zM246 336q0 20 -10.5 28.5t-30.5 8.5q-29 0 -43 -8v-239q14 -11 44 -11q20 0 30 8t10 28v185z" />
    <glyph glyph-name="q" unicode="q" horiz-adv-x="424" 
d="M246 -233v230q-12 -6 -29 -10t-43 -4q-27 0 -52.5 6t-46 23t-33 47.5t-12.5 79.5v210q0 45 13 75t36.5 48t55 25.5t68.5 7.5q38 0 70 -7.5t55.5 -25.5t36.5 -48t13 -75v-582h-132zM246 338q0 20 -11 27.5t-31 7.5t-31 -7.5t-11 -27.5v-187q0 -20 9.5 -28t29.5 -8
q16 0 26.5 3t18.5 8v212z" />
    <glyph glyph-name="r" unicode="r" horiz-adv-x="391" 
d="M38 0v477q24 9 63 18.5t103 9.5q35 0 65 -6.5t52.5 -22t35 -41.5t12.5 -65v-63h-118v33q0 18 -10 25.5t-30 7.5q-27 0 -41 -8v-365h-132z" />
    <glyph glyph-name="s" unicode="s" horiz-adv-x="407" 
d="M237 150q0 23 -16 35t-40 20.5t-51.5 17t-51.5 24.5t-40 42.5t-16 71.5q0 46 15.5 74t41 43.5t59 21t69.5 5.5q28 0 57.5 -3.5t54 -15t40.5 -33t16 -58.5v-48h-123v30q0 17 -14.5 20t-27.5 3q-17 0 -31.5 -4.5t-14.5 -27.5q0 -24 20 -37.5t48.5 -23.5t59 -21t52.5 -30
q25 -23 31.5 -50t6.5 -58q0 -50 -13 -82t-37 -50.5t-57.5 -25.5t-75.5 -7q-30 0 -61.5 4t-57 17t-42 37t-16.5 63v57h128v-31q0 -23 13.5 -28t30.5 -5q20 0 31.5 7t11.5 30v16z" />
    <glyph glyph-name="t" unicode="t" horiz-adv-x="275" 
d="M69 0v397h-51v95h51v112h133v-112h54v-95h-54v-397h-133z" />
    <glyph glyph-name="u" unicode="u" horiz-adv-x="422" 
d="M250 492h132v-481q-26 -9 -67.5 -18.5t-109.5 -9.5q-37 0 -68 7.5t-54 25.5t-36 48t-13 75v353h132v-341q0 -20 10 -28t30 -8q15 0 25.5 2t18.5 5v370z" />
    <glyph glyph-name="v" unicode="v" horiz-adv-x="409" 
d="M247 492h132v-267q0 -55 -14 -94.5t-38 -69t-56 -50.5t-67 -39q-34 18 -65.5 39t-55.5 50.5t-38.5 69t-14.5 94.5v267h132v-288q0 -43 13 -61t29 -26q17 8 30 26t13 60v289z" />
    <glyph glyph-name="w" unicode="w" horiz-adv-x="601" 
d="M439 492h132v-272q0 -54 -13 -93t-35.5 -67.5t-53 -49.5t-64.5 -38q-33 15 -59 37t-46 46q-20 -24 -46 -46t-59 -37q-33 17 -62.5 37.5t-52.5 49.5t-36.5 68t-13.5 93v272h132v-295q0 -37 11 -53.5t25 -26.5q14 9 25.5 25.5t11.5 54.5v295h131v-295q0 -38 11 -54t25 -26
q14 9 25.5 25.5t11.5 54.5v295z" />
    <glyph glyph-name="x" unicode="x" horiz-adv-x="403" 
d="M254 0l-54 194l-58 -194h-132l89 258l-83 234h135l50 -187l51 187h133l-82 -229l89 -263h-138z" />
    <glyph glyph-name="y" unicode="y" horiz-adv-x="410" 
d="M245 10q-11 -6 -28 -10t-43 -4q-27 0 -53 6t-46 23t-32.5 47t-12.5 79v341h132v-329q0 -20 9.5 -28t29.5 -8q30 0 44 11v354h132v-587q0 -43 -13 -72t-36.5 -46.5t-55.5 -25t-69 -7.5q-35 0 -64.5 7.5t-51.5 25t-34 46.5t-12 72v39h123v-32q0 -33 39 -33q42 0 42 33v98z
" />
    <glyph glyph-name="z" unicode="z" horiz-adv-x="377" 
d="M22 0v111l168 274h-152v107h310v-94l-164 -288h171v-110h-333z" />
    <glyph glyph-name="braceleft" unicode="{" horiz-adv-x="345" 
d="M286 -131q-55 0 -88.5 9.5t-52 29t-24.5 49t-6 70.5q0 9 1 26t1.5 35t1.5 34t1 24q0 58 -17.5 81t-64.5 23v90q47 0 64.5 23.5t17.5 81.5q0 7 -1 23t-1.5 34t-1.5 34.5t-1 25.5q0 40 6 70t24.5 49.5t52 29t88.5 9.5h38v-85h-23q-42 0 -57 -13t-15 -46q0 -48 3 -91t3 -89
q0 -21 -9 -38.5t-24.5 -30.5t-35 -21t-40.5 -11q21 -2 40.5 -10.5t35 -22t24.5 -31t9 -38.5q0 -46 -3 -90t-3 -90q0 -35 15 -47t57 -12h23v-85h-38z" />
    <glyph glyph-name="bar" unicode="|" horiz-adv-x="258" 
d="M76 -125v861h106v-861h-106z" />
    <glyph glyph-name="braceright" unicode="}" horiz-adv-x="347" 
d="M21 -131v85h22q42 0 57.5 12t15.5 47q0 46 -3 90t-3 90q0 21 9 38.5t24 31t34.5 22t40.5 10.5q-21 3 -40.5 11t-34.5 21t-24 30.5t-9 38.5q0 46 3 89t3 91q0 33 -15.5 46t-57.5 13h-22v85h38q55 0 88.5 -9.5t52 -29t24.5 -49.5t6 -70q0 -9 -1 -25.5t-1.5 -34.5t-1.5 -34
t-1 -23q0 -58 17.5 -81.5t64.5 -23.5v-90q-47 0 -64.5 -23t-17.5 -81q0 -8 1 -24t1.5 -34t1.5 -35t1 -26q0 -41 -6 -70.5t-24.5 -49t-52 -29t-88.5 -9.5h-38z" />
    <glyph glyph-name="asciitilde" unicode="~" horiz-adv-x="591" 
d="M546 304q-32 -35 -66.5 -51t-82.5 -16q-30 0 -58 9t-54.5 19.5t-52.5 19.5t-52 9q-42 0 -74 -19t-63 -58v105q22 26 53.5 46.5t79.5 20.5q36 0 67 -9t58.5 -19.5t52.5 -19t50 -8.5q42 0 76.5 16.5t65.5 58.5v-104z" />
    <glyph glyph-name="uni00A0" unicode="&#xa0;" horiz-adv-x="196" 
 />
    <glyph glyph-name="exclamdown" unicode="&#xa1;" horiz-adv-x="249" 
d="M195.003 664v-145.991h-139.991v145.991h139.991zM161.006 466.012q9.99902 -60.9961 17.498 -113.493q7.5 -52.4961 13 -101.493q5.49902 -48.9971 7.99902 -96.9941t2.5 -98.9941q0 -33.998 -6 -54.9961h-143.991q-3 10.999 -3.99902 24.498q-1 13.499 -1 30.498
q0 50.9971 2.49902 98.9941q2.5 47.9971 8 96.9941t12.999 101.493q7.5 52.4971 17.499 113.493h72.9961z" />
    <glyph glyph-name="cent" unicode="&#xa2;" horiz-adv-x="407" 
d="M151 0v78q-55 9 -87 43.5t-32 108.5v210q0 72 32 106.5t87 44.5v73h106v-73q52 -9 84.5 -44t32.5 -107v-63h-128v52q0 19 -10.5 26.5t-30.5 7.5q-41 0 -41 -34v-189q0 -19 10.5 -26.5t30.5 -7.5q41 0 41 34v57h128v-67q0 -74 -32.5 -108.5t-84.5 -44.5v-77h-106z" />
    <glyph glyph-name="sterling" unicode="&#xa3;" horiz-adv-x="438" 
d="M413 26q-25 -43 -77 -43q-20 0 -36.5 6t-32.5 14.5t-32.5 16t-36.5 10.5q-38 -47 -102 -47q-35 0 -64 17v106q8 -1 17 -1.5t17 -0.5q37 1 57 18t20 62q0 20 -6.5 39.5t-14.5 36.5h-87v81h48q-26 32 -35 69t-9 82q0 46 8.5 81t29 59t54 36t83.5 12q36 0 68 -6.5t56 -23
t38.5 -45t14.5 -71.5v-68h-130v37q0 31 -8 45t-34 14q-30 0 -36.5 -17t-6.5 -42q0 -30 1.5 -52.5t6 -41.5t13 -35.5t21.5 -32.5h149v-81h-119q8 -18 12 -35.5t4 -43.5q-2 -17 -6 -33.5t-12 -32.5q30 -3 55 -12t51 -9q37 0 61 31v-99z" />
    <glyph glyph-name="currency" unicode="&#xa4;" horiz-adv-x="566" 
d="M396 165q-50 -32 -112 -32q-63 0 -113 32l-63 -68l-70 71l68 63q-16 25 -24.5 52.5t-8.5 59.5q0 60 33 113l-67 62l69 69l61 -66q25 16 54 25t61 9q31 0 59.5 -9t53.5 -25l61 66l69 -69l-66 -62q34 -50 34 -113q0 -64 -34 -113l67 -62l-69 -71zM433 343q0 31 -11.5 58
t-32 47.5t-47.5 32t-58 11.5t-58 -11.5t-47 -32t-31.5 -47.5t-11.5 -58t11.5 -58t31.5 -47t47 -31.5t58 -11.5t58 11.5t47.5 31.5t32 47t11.5 58z" />
    <glyph glyph-name="yen" unicode="&#xa5;" 
d="M295 77v-77h-144v77h-119v79h119v57h-119v77h119v27q-26 16 -47.5 36.5t-37.5 46.5t-25 58.5t-9 73.5v132h146v-130q0 -39 14.5 -60t30.5 -30q9 6 17 12.5t14.5 16.5t10.5 24.5t4 36.5v130h142v-132q0 -41 -9 -73.5t-24.5 -58.5t-37 -46t-45.5 -36v-28h116v-77h-116v-57
h116v-79h-116z" />
    <glyph glyph-name="brokenbar" unicode="&#xa6;" horiz-adv-x="385" 
d="M139 -125v372h106v-372h-106zM139 397v339h106v-339h-106z" />
    <glyph glyph-name="section" unicode="&#xa7;" horiz-adv-x="442" 
d="M163 38q0 -23 13 -28.5t31 -5.5q32 0 38 15.5t6 40.5q0 32 -8 49t-22.5 26.5t-34.5 14.5t-43 12q-57 17 -82 50.5t-25 84.5q0 52 23.5 80.5t61.5 40.5q-32 15 -51.5 43.5t-19.5 73.5q0 41 13 69t37 45t58.5 24t77.5 7q32 0 62 -5t53.5 -18t37.5 -36t14 -59v-53h-124v42
q0 17 -12.5 20.5t-26.5 3.5q-9 0 -17.5 -0.5t-15.5 -4t-11.5 -10t-4.5 -18.5q0 -18 2.5 -31t14 -24t36 -21.5t68.5 -23.5q31 -9 50.5 -24t30.5 -33.5t14.5 -41t3.5 -47.5q0 -46 -16 -80.5t-49 -48.5q31 -19 40 -49.5t9 -70.5q0 -84 -44.5 -120t-140.5 -36q-36 0 -68 6
t-55.5 21t-37.5 40t-14 63v68h128v-51zM270 295q0 22 -11 27.5t-36 5.5q-29 0 -39.5 -5.5t-10.5 -27.5t10.5 -29.5t39.5 -7.5q28 0 37.5 7.5t9.5 29.5z" />
    <glyph glyph-name="dieresis" unicode="&#xa8;" horiz-adv-x="451" 
d="M64 554v133h126v-133h-126zM259 554v133h128v-133h-128z" />
    <glyph glyph-name="ordfeminine" unicode="&#xaa;" horiz-adv-x="258" 
d="M225 299q-15 -8 -36.5 -13t-57.5 -5q-51 0 -79.5 18.5t-28.5 63.5v23q0 24 7.5 38.5t20 22.5t28 11t30.5 3q14 0 21 -1t13 -3v17q0 18 -20 18q-22 0 -41.5 -4t-44.5 -13v82q16 7 37.5 11.5t52.5 4.5q21 0 38.5 -4t31 -14.5t21 -28t7.5 -43.5v-184zM143 402q-3 1 -8 2
t-9 1q-16 0 -16 -12v-20q0 -14 17 -14q6 0 16 2v41z" />
    <glyph glyph-name="guillemotleft" unicode="&#xab;" horiz-adv-x="490" 
d="M20 317l142 174l62 -67l-94 -107l94 -107l-62 -65zM265 317l142 174l62 -67l-94 -107l94 -107l-62 -65z" />
    <glyph glyph-name="logicalnot" unicode="&#xac;" horiz-adv-x="627" 
d="M458 0v369h-413v123h535v-492h-122z" />
    <glyph glyph-name="macron" unicode="&#xaf;" horiz-adv-x="414" 
d="M45 584v89h323v-89h-323z" />
    <glyph glyph-name="degree" unicode="&#xb0;" horiz-adv-x="400" 
d="M199 355q-40 0 -68 12.5t-46 34t-26.5 50.5t-8.5 62t8.5 62t26.5 50.5t46 33.5t68 12t68 -12t46 -33.5t26.5 -50.5t8.5 -62t-8.5 -62t-26.5 -50.5t-46 -34t-68 -12.5zM199 416q44 0 63 29t19 69q0 20 -4.5 38t-14.5 31.5t-25.5 21t-37.5 7.5t-37.5 -7.5t-25.5 -21
t-14.5 -31.5t-4.5 -38q0 -40 19 -69t63 -29z" />
    <glyph glyph-name="plusminus" unicode="&#xb1;" horiz-adv-x="561" 
d="M231 105v190h-188v97h188v188h97v-188h189v-97h-189v-190h-97zM43 -24v97h474v-97h-474z" />
    <glyph glyph-name="uni00B2" unicode="&#xb2;" horiz-adv-x="244" 
d="M32 343v96q0 28 7.5 53t37.5 39q20 9 36 16t16 21v37q0 9 -11 9q-10 0 -10 -7v-31h-73v34q0 43 24 58t61 15q55 0 73.5 -22t18.5 -72q0 -46 -12.5 -68t-42.5 -36q-14 -7 -26.5 -12.5t-12.5 -22.5v-33h91v-74h-177z" />
    <glyph glyph-name="uni00B3" unicode="&#xb3;" horiz-adv-x="241" 
d="M211 415q0 -47 -27.5 -64t-68.5 -17q-39 0 -63 17t-24 64v30h76v-24q0 -7 11 -7q10 0 10 7v41q0 8 -2 15t-10 7h-20v57h20q8 0 10 6.5t2 14.5v35q0 7 -10 7q-11 0 -11 -7v-24h-76v29q0 47 24 64t63 17q42 0 68 -17.5t26 -63.5v-14q0 -22 -8 -44.5t-28 -31.5
q21 -8 29.5 -29.5t8.5 -42.5v-25z" />
    <glyph glyph-name="acute" unicode="&#xb4;" horiz-adv-x="307" 
d="M38 534v68l231 108v-100z" />
    <glyph glyph-name="mu" unicode="&#xb5;" horiz-adv-x="424" 
d="M38 -233v725h132v-339q0 -38 40 -38q15 0 25.5 2t18.5 5v370h132v-481q-26 -9 -66 -18.5t-97 -9.5q-23 0 -35 3t-18 8v-227h-132z" />
    <glyph glyph-name="mu" unicode="&#x3bc;" horiz-adv-x="424" 
d="M38 -233v725h132v-339q0 -38 40 -38q15 0 25.5 2t18.5 5v370h132v-481q-26 -9 -66 -18.5t-97 -9.5q-23 0 -35 3t-18 8v-227h-132z" />
    <glyph glyph-name="paragraph" unicode="&#xb6;" horiz-adv-x="515" 
d="M336 -100v669h-84v-669h-100v491q-25 2 -44.5 9.5t-33 23t-20.5 41.5t-7 65q0 66 29 100t86 34h317v-95h-44v-669h-99z" />
    <glyph glyph-name="periodcentered" unicode="&#xb7;" horiz-adv-x="265" 
d="M61 250v151h143v-151h-143z" />
    <glyph glyph-name="cedilla" unicode="&#xb8;" horiz-adv-x="240" 
d="M55 -34h130v-40q0 -35 -9.5 -65.5t-26.5 -53t-41 -36t-53 -14.5v209z" />
    <glyph glyph-name="uni00B9" unicode="&#xb9;" horiz-adv-x="166" 
d="M48 343v247q0 7 -10 7q-3 0 -11 -2v83q3 0 6 0.5t6 0.5q39 0 67 -17.5t28 -63.5v-255h-86z" />
    <glyph glyph-name="ordmasculine" unicode="&#xba;" horiz-adv-x="254" 
d="M225 370q0 -51 -28.5 -70t-70.5 -19q-45 0 -72.5 19t-27.5 70v113q0 52 27.5 71t72.5 19q42 0 70.5 -19.5t28.5 -70.5v-113zM142 477q0 13 -16 13q-17 0 -17 -13v-101q0 -13 17 -13q16 0 16 13v101z" />
    <glyph glyph-name="guillemotright" unicode="&#xbb;" horiz-adv-x="490" 
d="M20 210l95 107l-95 107l61 67l143 -174l-143 -172zM265 210l95 107l-95 107l61 67l143 -174l-143 -172z" />
    <glyph glyph-name="onequarter" unicode="&#xbc;" horiz-adv-x="540" 
d="M95 343v247q0 7 -10 7q-3 0 -11 -2v83q3 0 6 0.5t6 0.5q39 0 67 -17.5t28 -63.5v-255h-86zM30 -20l380 704h87l-382 -704h-85zM419 -10v56h-116v80l82 196h82l-78 -202h32v53h78v-183h-80z" />
    <glyph glyph-name="onehalf" unicode="&#xbd;" horiz-adv-x="540" 
d="M95 343v247q0 7 -10 7q-3 0 -11 -2v83q3 0 6 0.5t6 0.5q39 0 67 -17.5t28 -63.5v-255h-86zM31 -20l380 704h87l-382 -704h-85zM329 -10v96q0 28 7.5 53t37.5 39q20 9 36 16t16 21v37q0 9 -11 9q-10 0 -10 -7v-31h-73v34q0 43 24 58t61 15q55 0 73.5 -22t18.5 -72
q0 -46 -12.5 -68t-42.5 -36q-14 -7 -26.5 -12.5t-12.5 -22.5v-33h91v-74h-177z" />
    <glyph glyph-name="threequarters" unicode="&#xbe;" horiz-adv-x="541" 
d="M214 415q0 -47 -27.5 -64t-68.5 -17q-39 0 -63 17t-24 64v30h76v-24q0 -7 11 -7q10 0 10 7v41q0 8 -2 15t-10 7h-20v57h20q8 0 10 6.5t2 14.5v35q0 7 -10 7q-11 0 -11 -7v-24h-76v29q0 47 24 64t63 17q42 0 68 -17.5t26 -63.5v-14q0 -22 -8 -44.5t-28 -31.5
q21 -8 29.5 -29.5t8.5 -42.5v-25zM34 -20l380 704h87l-382 -704h-85zM410 -10v56h-116v80l82 196h82l-78 -202h32v53h78v-183h-80z" />
    <glyph glyph-name="questiondown" unicode="&#xbf;" horiz-adv-x="391" 
d="M289.006 664v-145.991h-139.991v145.991h139.991zM285.007 455.013v-36.998q0 -26.998 -2.5 -45.9971t-9.5 -34.498q-6.99902 -15.499 -18.999 -27.998q-11.999 -12.499 -31.998 -26.498q-16.998 -11 -29.498 -18.999q-12.499 -7.99902 -20.998 -16.499
q-8.5 -8.49902 -13 -18.999q-4.49902 -10.499 -4.49902 -26.498v-40.998q0 -28.998 5.99902 -43.9971q6 -14.999 36.998 -14.999t36.998 14.999q5.99902 14.999 5.99902 43.9971v36.998h129.992v-61.9961q0 -43.9971 -11.999 -73.4951q-11.999 -29.499 -34.498 -46.998
q-22.498 -17.498 -54.9961 -24.498t-73.4961 -7q-53.9961 0 -87.9941 11q-33.998 10.999 -53.9971 33.498q-19.999 22.498 -27.498 57.4961q-7.5 34.998 -7.5 82.9951q0 40.9971 4.5 68.4961q4.5 27.498 12.499 46.9971q8 19.498 20.999 31.998q12.999 12.499 28.998 22.498
q36.998 22.999 54.9971 42.498q17.998 19.498 17.998 46.4971v26.998h126.993z" />
    <glyph glyph-name="Agrave" unicode="&#xc0;" 
d="M265 0v220h-91v-220h-142v426q0 55 15.5 95t42 69t60.5 50.5t71 39.5q36 -18 70 -39.5t61 -50.5t43 -69t16 -95v-426h-146zM265 430q0 20 -4 33.5t-10.5 23t-14.5 15.5t-16 11q-9 -5 -17 -11t-14.5 -15.5t-10.5 -23t-4 -33.5v-90h91v90zM86 782v100l231 -108v-68z" />
    <glyph glyph-name="Aacute" unicode="&#xc1;" 
d="M265 0v220h-91v-220h-142v426q0 55 15.5 95t42 69t60.5 50.5t71 39.5q36 -18 70 -39.5t61 -50.5t43 -69t16 -95v-426h-146zM265 430q0 20 -4 33.5t-10.5 23t-14.5 15.5t-16 11q-9 -5 -17 -11t-14.5 -15.5t-10.5 -23t-4 -33.5v-90h91v90zM126 706v68l231 108v-100z" />
    <glyph glyph-name="Acircumflex" unicode="&#xc2;" 
d="M265 0v220h-91v-220h-142v426q0 55 15.5 95t42 69t60.5 50.5t71 39.5q36 -18 70 -39.5t61 -50.5t43 -69t16 -95v-426h-146zM265 430q0 20 -4 33.5t-10.5 23t-14.5 15.5t-16 11q-9 -5 -17 -11t-14.5 -15.5t-10.5 -23t-4 -33.5v-90h91v90zM223 842l-136 -119l-45 50
l129 135h103l129 -135l-45 -50z" />
    <glyph glyph-name="Atilde" unicode="&#xc3;" 
d="M265 0v220h-91v-220h-142v426q0 55 15.5 95t42 69t60.5 50.5t71 39.5q36 -18 70 -39.5t61 -50.5t43 -69t16 -95v-426h-146zM265 430q0 20 -4 33.5t-10.5 23t-14.5 15.5t-16 11q-9 -5 -17 -11t-14.5 -15.5t-10.5 -23t-4 -33.5v-90h91v90zM60 756v89h323v-89h-323z" />
    <glyph glyph-name="Adieresis" unicode="&#xc4;" 
d="M265 0v220h-91v-220h-142v426q0 55 15.5 95t42 69t60.5 50.5t71 39.5q36 -18 70 -39.5t61 -50.5t43 -69t16 -95v-426h-146zM265 430q0 20 -4 33.5t-10.5 23t-14.5 15.5t-16 11q-9 -5 -17 -11t-14.5 -15.5t-10.5 -23t-4 -33.5v-90h91v90zM61 726v133h126v-133h-126z
M256 726v133h128v-133h-128z" />
    <glyph glyph-name="Aring" unicode="&#xc5;" 
d="M265 0v220h-91v-220h-142v426q0 55 15.5 95t42 69t60.5 50.5t71 39.5q36 -18 70 -39.5t61 -50.5t43 -69t16 -95v-426h-146zM265 430q0 20 -4 33.5t-10.5 23t-14.5 15.5t-16 11q-9 -5 -17 -11t-14.5 -15.5t-10.5 -23t-4 -33.5v-90h91v90zM325 792q0 -48 -23.5 -72
t-80.5 -24q-103 0 -103 96q0 46 24.5 71t78.5 25q57 0 80.5 -25t23.5 -71zM275 792q0 51 -54 51q-50 0 -50 -51q0 -50 50 -50q54 0 54 50z" />
    <glyph glyph-name="AE" unicode="&#xc6;" horiz-adv-x="539" 
d="M247 0v220h-72v-220h-143v426q0 58 16 102.5t44 74.5t66.5 45.5t83.5 15.5h266v-124h-121v-133h107v-121h-107v-161h127v-125h-267zM247 540h-5q-17 0 -29.5 -9.5t-20.5 -25t-12.5 -36.5t-4.5 -43v-87h72v201z" />
    <glyph glyph-name="Ccedilla" unicode="&#xc7;" horiz-adv-x="421" 
d="M391 145q0 -47 -12.5 -78t-35 -49.5t-54 -26.5t-69.5 -8q-40 0 -74 8t-59.5 26.5t-40 49.5t-14.5 78v373q0 46 14.5 77.5t40 50t59.5 26.5t74 8q38 0 69.5 -8t54 -26.5t35 -50t12.5 -77.5v-136h-128v127q0 19 -9 28.5t-34 9.5q-24 0 -34 -9t-10 -29v-346q0 -23 8 -34.5
t36 -11.5q25 0 34 9t9 28v121h128v-130zM151 -34h130v-40q0 -35 -9.5 -65.5t-26.5 -53t-41 -36t-53 -14.5v209z" />
    <glyph glyph-name="Egrave" unicode="&#xc8;" horiz-adv-x="335" 
d="M38 0v664h266v-123h-122v-133h109v-122h-109v-161h128v-125h-272zM33 782v100l231 -108v-68z" />
    <glyph glyph-name="Eacute" unicode="&#xc9;" horiz-adv-x="335" 
d="M38 0v664h266v-123h-122v-133h109v-122h-109v-161h128v-125h-272zM72 706v68l231 108v-100z" />
    <glyph glyph-name="Ecircumflex" unicode="&#xca;" horiz-adv-x="335" 
d="M38 0v664h266v-123h-122v-133h109v-122h-109v-161h128v-125h-272zM169 842l-136 -119l-45 50l129 135h103l129 -135l-45 -50z" />
    <glyph glyph-name="Edieresis" unicode="&#xcb;" horiz-adv-x="335" 
d="M38 0v664h266v-123h-122v-133h109v-122h-109v-161h128v-125h-272zM10 726v133h126v-133h-126zM205 726v133h128v-133h-128z" />
    <glyph glyph-name="Igrave" unicode="&#xcc;" horiz-adv-x="220" 
d="M38 0v664h144v-664h-144zM-24 782v100l231 -108v-68z" />
    <glyph glyph-name="Iacute" unicode="&#xcd;" horiz-adv-x="220" 
d="M38 0v664h144v-664h-144zM16 706v68l231 108v-100z" />
    <glyph glyph-name="Icircumflex" unicode="&#xce;" horiz-adv-x="220" 
d="M38 0v664h144v-664h-144zM112 842l-136 -119l-45 50l129 135h103l129 -135l-45 -50z" />
    <glyph glyph-name="Idieresis" unicode="&#xcf;" horiz-adv-x="220" 
d="M38 0v664h144v-664h-144zM-50 726v133h126v-133h-126zM145 726v133h128v-133h-128z" />
    <glyph glyph-name="Eth" unicode="&#xd0;" horiz-adv-x="451" 
d="M40 0v286h-27v122h27v256h190q38 0 72.5 -8t60.5 -30t41 -62t15 -103v-272q0 -52 -15 -88t-41 -58.5t-60.5 -32.5t-72.5 -10h-190zM275 493q0 26 -11 37t-34 11h-46v-133h45v-122h-45v-161h46q23 0 34 11t11 39v318z" />
    <glyph glyph-name="Ntilde" unicode="&#xd1;" horiz-adv-x="452" 
d="M273 0v508q0 20 -12 28.5t-33 8.5q-15 0 -26.5 -2t-19.5 -5v-538h-144v651q26 9 73 19t120 10q38 0 72 -7.5t59.5 -26.5t40 -50t14.5 -77v-519h-144zM64 756v89h323v-89h-323z" />
    <glyph glyph-name="Ograve" unicode="&#xd2;" 
d="M411 145q0 -47 -15.5 -78t-41.5 -49.5t-60.5 -26.5t-72.5 -8q-40 0 -74.5 8t-60 26.5t-40 49.5t-14.5 78v373q0 46 14.5 77.5t40 50t60 26.5t74.5 8q38 0 72.5 -8t60.5 -26.5t41.5 -50t15.5 -77.5v-373zM266 506q0 23 -10 30.5t-35 7.5q-23 0 -34 -8t-11 -30v-350
q0 -21 10.5 -29t34.5 -8q25 0 35 8t10 29v350zM86 782v100l231 -108v-68z" />
    <glyph glyph-name="Oacute" unicode="&#xd3;" 
d="M411 145q0 -47 -15.5 -78t-41.5 -49.5t-60.5 -26.5t-72.5 -8q-40 0 -74.5 8t-60 26.5t-40 49.5t-14.5 78v373q0 46 14.5 77.5t40 50t60 26.5t74.5 8q38 0 72.5 -8t60.5 -26.5t41.5 -50t15.5 -77.5v-373zM266 506q0 23 -10 30.5t-35 7.5q-23 0 -34 -8t-11 -30v-350
q0 -21 10.5 -29t34.5 -8q25 0 35 8t10 29v350zM126 706v68l231 108v-100z" />
    <glyph glyph-name="Ocircumflex" unicode="&#xd4;" 
d="M411 145q0 -47 -15.5 -78t-41.5 -49.5t-60.5 -26.5t-72.5 -8q-40 0 -74.5 8t-60 26.5t-40 49.5t-14.5 78v373q0 46 14.5 77.5t40 50t60 26.5t74.5 8q38 0 72.5 -8t60.5 -26.5t41.5 -50t15.5 -77.5v-373zM266 506q0 23 -10 30.5t-35 7.5q-23 0 -34 -8t-11 -30v-350
q0 -21 10.5 -29t34.5 -8q25 0 35 8t10 29v350zM223 842l-136 -119l-45 50l129 135h103l129 -135l-45 -50z" />
    <glyph glyph-name="Otilde" unicode="&#xd5;" 
d="M411 145q0 -47 -15.5 -78t-41.5 -49.5t-60.5 -26.5t-72.5 -8q-40 0 -74.5 8t-60 26.5t-40 49.5t-14.5 78v373q0 46 14.5 77.5t40 50t60 26.5t74.5 8q38 0 72.5 -8t60.5 -26.5t41.5 -50t15.5 -77.5v-373zM266 506q0 23 -10 30.5t-35 7.5q-23 0 -34 -8t-11 -30v-350
q0 -21 10.5 -29t34.5 -8q25 0 35 8t10 29v350zM60 756v89h323v-89h-323z" />
    <glyph glyph-name="Odieresis" unicode="&#xd6;" 
d="M411 145q0 -47 -15.5 -78t-41.5 -49.5t-60.5 -26.5t-72.5 -8q-40 0 -74.5 8t-60 26.5t-40 49.5t-14.5 78v373q0 46 14.5 77.5t40 50t60 26.5t74.5 8q38 0 72.5 -8t60.5 -26.5t41.5 -50t15.5 -77.5v-373zM266 506q0 23 -10 30.5t-35 7.5q-23 0 -34 -8t-11 -30v-350
q0 -21 10.5 -29t34.5 -8q25 0 35 8t10 29v350zM61 726v133h126v-133h-126zM256 726v133h128v-133h-128z" />
    <glyph glyph-name="multiply" unicode="&#xd7;" horiz-adv-x="585" 
d="M424 140l-133 133l-133 -132l-69 69l133 133l-133 132l69 69l133 -132l133 133l69 -69l-133 -133l134 -134z" />
    <glyph glyph-name="Oslash" unicode="&#xd8;" 
d="M32 -22l28 66q-28 37 -28 101v373q0 46 14.5 77.5t40 50t60 26.5t74.5 8q61 0 106 -19l27 61l57 -25l-33 -74q16 -19 24.5 -44.5t8.5 -60.5v-373q0 -47 -15.5 -78t-41.5 -49.5t-60.5 -26.5t-72.5 -8q-69 0 -114 22l-23 -54zM266 366l-90 -205v-5q0 -21 10.5 -29t34.5 -8
q25 0 35 8t10 29v210zM265 517q-2 16 -12.5 21.5t-31.5 5.5q-23 0 -34 -8t-11 -30v-195z" />
    <glyph glyph-name="Ugrave" unicode="&#xd9;" horiz-adv-x="452" 
d="M270 664h144v-652q-26 -9 -73 -19t-119 -10q-39 0 -73 7.5t-59.5 26.5t-40 49.5t-14.5 77.5v520h145v-509q0 -20 11.5 -28.5t32.5 -8.5q27 0 46 8v538zM90 782v100l231 -108v-68z" />
    <glyph glyph-name="Uacute" unicode="&#xda;" horiz-adv-x="452" 
d="M270 664h144v-652q-26 -9 -73 -19t-119 -10q-39 0 -73 7.5t-59.5 26.5t-40 49.5t-14.5 77.5v520h145v-509q0 -20 11.5 -28.5t32.5 -8.5q27 0 46 8v538zM130 706v68l231 108v-100z" />
    <glyph glyph-name="Ucircumflex" unicode="&#xdb;" horiz-adv-x="452" 
d="M270 664h144v-652q-26 -9 -73 -19t-119 -10q-39 0 -73 7.5t-59.5 26.5t-40 49.5t-14.5 77.5v520h145v-509q0 -20 11.5 -28.5t32.5 -8.5q27 0 46 8v538zM228 842l-136 -119l-45 50l129 135h103l129 -135l-45 -50z" />
    <glyph glyph-name="Udieresis" unicode="&#xdc;" horiz-adv-x="452" 
d="M270 664h144v-652q-26 -9 -73 -19t-119 -10q-39 0 -73 7.5t-59.5 26.5t-40 49.5t-14.5 77.5v520h145v-509q0 -20 11.5 -28.5t32.5 -8.5q27 0 46 8v538zM64 726v133h126v-133h-126zM259 726v133h128v-133h-128z" />
    <glyph glyph-name="Yacute" unicode="&#xdd;" horiz-adv-x="431" 
d="M144 0v232q-25 16 -46.5 36t-37.5 46t-25.5 58.5t-9.5 73.5v218h147v-221q0 -39 15 -57t29 -28q17 10 31.5 28t14.5 57v221h142v-218q0 -81 -33 -131.5t-83 -82.5v-232h-144zM120 706v68l231 108v-100z" />
    <glyph glyph-name="Thorn" unicode="&#xde;" horiz-adv-x="431" 
d="M38 0v664h144v-113h78q46 0 76 -13t46.5 -39.5t23 -66t6.5 -92.5t-6.5 -93t-23 -66t-46.5 -39t-76 -13h-78v-129h-144zM237 243q23 0 30 24.5t7 72.5t-7 72.5t-30 24.5h-55v-194h55z" />
    <glyph glyph-name="germandbls" unicode="&#xdf;" horiz-adv-x="556" 
d="M534 136q0 -79 -33.5 -116t-117.5 -37t-120 27.5t-36 93.5v57h112v-34q0 -16 9 -22t29 -6q18 0 27.5 7t9.5 27v42q0 17 -5.5 28t-15 18.5t-23.5 12.5t-30 11q-29 10 -47 23.5t-28 31t-13.5 40t-3.5 49.5v124q0 20 -9 28t-31 8q-26 0 -33.5 -8t-7.5 -28v-513h-132v524
q0 45 12.5 75t35.5 48t55 25.5t70 7.5q36 0 67.5 -7.5t54.5 -25.5t36.5 -48t13.5 -75v-132q0 -18 6 -30.5t16.5 -21.5t23.5 -15t28 -11q25 -9 41 -23.5t24.5 -32.5t11.5 -39t3 -42v-41z" />
    <glyph glyph-name="agrave" unicode="&#xe0;" horiz-adv-x="414" 
d="M379 11q-24 -12 -61 -20t-105 -8q-43 0 -78 7.5t-60 24t-38.5 44t-13.5 66.5v43q0 41 13.5 66t35 39t48 18.5t53.5 4.5q26 0 44.5 -3.5t29.5 -8.5v49q0 43 -49 43q-43 0 -77 -6t-72 -20v130q26 11 62.5 18t93.5 7q37 0 69 -7.5t55 -25.5t36.5 -48t13.5 -75v-338zM247 204
q-17 11 -43 11q-21 0 -31 -7.5t-10 -26.5v-38q0 -18 10 -26.5t33 -8.5q15 0 24.5 2t16.5 6v88zM71 610v100l231 -108v-68z" />
    <glyph glyph-name="aacute" unicode="&#xe1;" horiz-adv-x="414" 
d="M379 11q-24 -12 -61 -20t-105 -8q-43 0 -78 7.5t-60 24t-38.5 44t-13.5 66.5v43q0 41 13.5 66t35 39t48 18.5t53.5 4.5q26 0 44.5 -3.5t29.5 -8.5v49q0 43 -49 43q-43 0 -77 -6t-72 -20v130q26 11 62.5 18t93.5 7q37 0 69 -7.5t55 -25.5t36.5 -48t13.5 -75v-338zM247 204
q-17 11 -43 11q-21 0 -31 -7.5t-10 -26.5v-38q0 -18 10 -26.5t33 -8.5q15 0 24.5 2t16.5 6v88zM111 534v68l231 108v-100z" />
    <glyph glyph-name="acircumflex" unicode="&#xe2;" horiz-adv-x="414" 
d="M379 11q-24 -12 -61 -20t-105 -8q-43 0 -78 7.5t-60 24t-38.5 44t-13.5 66.5v43q0 41 13.5 66t35 39t48 18.5t53.5 4.5q26 0 44.5 -3.5t29.5 -8.5v49q0 43 -49 43q-43 0 -77 -6t-72 -20v130q26 11 62.5 18t93.5 7q37 0 69 -7.5t55 -25.5t36.5 -48t13.5 -75v-338zM247 204
q-17 11 -43 11q-21 0 -31 -7.5t-10 -26.5v-38q0 -18 10 -26.5t33 -8.5q15 0 24.5 2t16.5 6v88zM209 670l-136 -119l-45 50l129 135h103l129 -135l-45 -50z" />
    <glyph glyph-name="atilde" unicode="&#xe3;" horiz-adv-x="414" 
d="M379 11q-24 -12 -61 -20t-105 -8q-43 0 -78 7.5t-60 24t-38.5 44t-13.5 66.5v43q0 41 13.5 66t35 39t48 18.5t53.5 4.5q26 0 44.5 -3.5t29.5 -8.5v49q0 43 -49 43q-43 0 -77 -6t-72 -20v130q26 11 62.5 18t93.5 7q37 0 69 -7.5t55 -25.5t36.5 -48t13.5 -75v-338zM247 204
q-17 11 -43 11q-21 0 -31 -7.5t-10 -26.5v-38q0 -18 10 -26.5t33 -8.5q15 0 24.5 2t16.5 6v88zM45 584v89h323v-89h-323z" />
    <glyph glyph-name="adieresis" unicode="&#xe4;" horiz-adv-x="414" 
d="M379 11q-24 -12 -61 -20t-105 -8q-43 0 -78 7.5t-60 24t-38.5 44t-13.5 66.5v43q0 41 13.5 66t35 39t48 18.5t53.5 4.5q26 0 44.5 -3.5t29.5 -8.5v49q0 43 -49 43q-43 0 -77 -6t-72 -20v130q26 11 62.5 18t93.5 7q37 0 69 -7.5t55 -25.5t36.5 -48t13.5 -75v-338zM247 204
q-17 11 -43 11q-21 0 -31 -7.5t-10 -26.5v-38q0 -18 10 -26.5t33 -8.5q15 0 24.5 2t16.5 6v88zM47 554v133h126v-133h-126zM242 554v133h128v-133h-128z" />
    <glyph glyph-name="aring" unicode="&#xe5;" horiz-adv-x="414" 
d="M379 11q-24 -12 -61 -20t-105 -8q-43 0 -78 7.5t-60 24t-38.5 44t-13.5 66.5v43q0 41 13.5 66t35 39t48 18.5t53.5 4.5q26 0 44.5 -3.5t29.5 -8.5v49q0 43 -49 43q-43 0 -77 -6t-72 -20v130q26 11 62.5 18t93.5 7q37 0 69 -7.5t55 -25.5t36.5 -48t13.5 -75v-338zM247 204
q-17 11 -43 11q-21 0 -31 -7.5t-10 -26.5v-38q0 -18 10 -26.5t33 -8.5q15 0 24.5 2t16.5 6v88zM310 620q0 -48 -23.5 -72t-80.5 -24q-103 0 -103 96q0 46 24.5 71t78.5 25q57 0 80.5 -25t23.5 -71zM260 620q0 51 -54 51q-50 0 -50 -51q0 -50 50 -50q54 0 54 50z" />
    <glyph glyph-name="ae" unicode="&#xe6;" horiz-adv-x="625" 
d="M590 8q-25 -9 -65 -17t-94 -8q-26 0 -50.5 3.5t-44.5 9.5q-21 -5 -51 -9t-72 -4q-39 0 -73.5 7.5t-60.5 24.5t-41 45.5t-15 69.5v38q0 41 13.5 66t35 39t48 18.5t53.5 4.5q26 0 44.5 -4t29.5 -9v50q0 43 -50 43q-43 0 -76.5 -6t-71.5 -21v131q26 11 62.5 18t93.5 7
q65 0 108 -25q40 25 108 25q36 0 68 -7.5t55.5 -25.5t37 -48t13.5 -75v-142h-216v-56q0 -12 6 -18.5t16.5 -10t23.5 -4.5t28 -1q25 0 44 1.5t34.5 4.5t29.5 7.5t29 10.5v-133zM247 204q-17 11 -44 11q-23 0 -32 -9.5t-9 -32.5v-23q0 -20 8.5 -31t34.5 -11q16 0 25.5 2
t16.5 5v89zM463 341q0 18 -9.5 28t-32.5 10q-24 0 -33 -10t-9 -28v-59h84v59z" />
    <glyph glyph-name="ccedilla" unicode="&#xe7;" horiz-adv-x="400" 
d="M373 139q0 -45 -13 -75t-35.5 -48t-53.5 -25.5t-68 -7.5q-38 0 -70 7.5t-55 25.5t-35.5 48t-12.5 75v210q0 45 12.5 75t35.5 48t55 25.5t70 7.5q37 0 68 -7.5t53.5 -25.5t35.5 -48t13 -75v-63h-128v52q0 20 -11 27.5t-31 7.5t-30.5 -7.5t-10.5 -27.5v-189
q0 -19 10.5 -26.5t30.5 -7.5t31 7.5t11 26.5v57h128v-67zM138 -34h130v-40q0 -35 -9.5 -65.5t-26.5 -53t-41 -36t-53 -14.5v209z" />
    <glyph glyph-name="egrave" unicode="&#xe8;" horiz-adv-x="408" 
d="M372 8q-26 -10 -69 -17.5t-100 -7.5q-37 0 -68.5 7.5t-55 25.5t-36.5 48t-13 75v210q0 45 12.5 75t35.5 48t55 25.5t70 7.5q37 0 68.5 -7.5t55 -25.5t37 -48t13.5 -75v-142h-215v-55q0 -23 13 -29t37 -6q58 0 94 6t66 18v-133zM245 335q0 20 -7.5 32t-34.5 12
q-16 0 -24.5 -4t-12 -11.5t-4 -17.5t-0.5 -21v-43h83v53zM68 610v100l231 -108v-68z" />
    <glyph glyph-name="eacute" unicode="&#xe9;" horiz-adv-x="408" 
d="M372 8q-26 -10 -69 -17.5t-100 -7.5q-37 0 -68.5 7.5t-55 25.5t-36.5 48t-13 75v210q0 45 12.5 75t35.5 48t55 25.5t70 7.5q37 0 68.5 -7.5t55 -25.5t37 -48t13.5 -75v-142h-215v-55q0 -23 13 -29t37 -6q58 0 94 6t66 18v-133zM245 335q0 20 -7.5 32t-34.5 12
q-16 0 -24.5 -4t-12 -11.5t-4 -17.5t-0.5 -21v-43h83v53zM108 534v68l231 108v-100z" />
    <glyph glyph-name="ecircumflex" unicode="&#xea;" horiz-adv-x="408" 
d="M372 8q-26 -10 -69 -17.5t-100 -7.5q-37 0 -68.5 7.5t-55 25.5t-36.5 48t-13 75v210q0 45 12.5 75t35.5 48t55 25.5t70 7.5q37 0 68.5 -7.5t55 -25.5t37 -48t13.5 -75v-142h-215v-55q0 -23 13 -29t37 -6q58 0 94 6t66 18v-133zM245 335q0 20 -7.5 32t-34.5 12
q-16 0 -24.5 -4t-12 -11.5t-4 -17.5t-0.5 -21v-43h83v53zM206 670l-136 -119l-45 50l129 135h103l129 -135l-45 -50z" />
    <glyph glyph-name="edieresis" unicode="&#xeb;" horiz-adv-x="408" 
d="M372 8q-26 -10 -69 -17.5t-100 -7.5q-37 0 -68.5 7.5t-55 25.5t-36.5 48t-13 75v210q0 45 12.5 75t35.5 48t55 25.5t70 7.5q37 0 68.5 -7.5t55 -25.5t37 -48t13.5 -75v-142h-215v-55q0 -23 13 -29t37 -6q58 0 94 6t66 18v-133zM245 335q0 20 -7.5 32t-34.5 12
q-16 0 -24.5 -4t-12 -11.5t-4 -17.5t-0.5 -21v-43h83v53zM44 554v133h126v-133h-126zM239 554v133h128v-133h-128z" />
    <glyph glyph-name="igrave" unicode="&#xec;" horiz-adv-x="214" 
d="M40 0v492h133v-492h-133zM-27 610v100l231 -108v-68z" />
    <glyph glyph-name="iacute" unicode="&#xed;" horiz-adv-x="214" 
d="M40 0v492h133v-492h-133zM13 534v68l231 108v-100z" />
    <glyph glyph-name="icircumflex" unicode="&#xee;" horiz-adv-x="214" 
d="M40 0v492h133v-492h-133zM109 670l-136 -119l-45 50l129 135h103l129 -135l-45 -50z" />
    <glyph glyph-name="idieresis" unicode="&#xef;" horiz-adv-x="214" 
d="M40 0v492h133v-492h-133zM-53 554v133h126v-133h-126zM142 554v133h128v-133h-128z" />
    <glyph glyph-name="eth" unicode="&#xf0;" horiz-adv-x="421" 
d="M385 139q0 -45 -13 -75t-36.5 -48t-55.5 -25.5t-70 -7.5q-36 0 -68.5 7.5t-57 25.5t-38.5 48t-14 75v160q0 49 13.5 79.5t35 47.5t48 23t52.5 6q23 0 37 -5t25 -13q-3 45 -26 90l-113 -31l-17 63l94 26q-20 26 -44.5 48.5t-51.5 38.5h129q52 -20 85 -55l71 19l18 -62
l-47 -13q22 -38 33 -81.5t11 -88.5v-252zM253 303q-17 17 -44 17q-20 0 -30 -8t-10 -28v-129q0 -39 42 -39q20 0 31 8t11 28v151z" />
    <glyph glyph-name="ntilde" unicode="&#xf1;" horiz-adv-x="420" 
d="M254 0v336q0 20 -10.5 28.5t-30.5 8.5q-15 0 -25 -2t-18 -6v-365h-132v477q26 9 67 18.5t110 9.5q37 0 68 -7.5t54 -25.5t36 -48t13 -75v-349h-132zM48 584v89h323v-89h-323z" />
    <glyph glyph-name="ograve" unicode="&#xf2;" horiz-adv-x="408" 
d="M378 139q0 -45 -13.5 -75t-37 -48t-55.5 -25.5t-68 -7.5q-39 0 -71 7.5t-55 25.5t-35.5 48t-12.5 75v210q0 45 12.5 75t35.5 48t55 25.5t71 7.5q36 0 68 -7.5t55.5 -25.5t37 -48t13.5 -75v-210zM246 338q0 20 -11 27.5t-31 7.5t-31 -7.5t-11 -27.5v-189q0 -19 11 -26.5
t31 -7.5t31 7.5t11 26.5v189zM68 610v100l231 -108v-68z" />
    <glyph glyph-name="oacute" unicode="&#xf3;" horiz-adv-x="408" 
d="M378 139q0 -45 -13.5 -75t-37 -48t-55.5 -25.5t-68 -7.5q-39 0 -71 7.5t-55 25.5t-35.5 48t-12.5 75v210q0 45 12.5 75t35.5 48t55 25.5t71 7.5q36 0 68 -7.5t55.5 -25.5t37 -48t13.5 -75v-210zM246 338q0 20 -11 27.5t-31 7.5t-31 -7.5t-11 -27.5v-189q0 -19 11 -26.5
t31 -7.5t31 7.5t11 26.5v189zM108 534v68l231 108v-100z" />
    <glyph glyph-name="ocircumflex" unicode="&#xf4;" horiz-adv-x="408" 
d="M378 139q0 -45 -13.5 -75t-37 -48t-55.5 -25.5t-68 -7.5q-39 0 -71 7.5t-55 25.5t-35.5 48t-12.5 75v210q0 45 12.5 75t35.5 48t55 25.5t71 7.5q36 0 68 -7.5t55.5 -25.5t37 -48t13.5 -75v-210zM246 338q0 20 -11 27.5t-31 7.5t-31 -7.5t-11 -27.5v-189q0 -19 11 -26.5
t31 -7.5t31 7.5t11 26.5v189zM206 670l-136 -119l-45 50l129 135h103l129 -135l-45 -50z" />
    <glyph glyph-name="otilde" unicode="&#xf5;" horiz-adv-x="408" 
d="M378 139q0 -45 -13.5 -75t-37 -48t-55.5 -25.5t-68 -7.5q-39 0 -71 7.5t-55 25.5t-35.5 48t-12.5 75v210q0 45 12.5 75t35.5 48t55 25.5t71 7.5q36 0 68 -7.5t55.5 -25.5t37 -48t13.5 -75v-210zM246 338q0 20 -11 27.5t-31 7.5t-31 -7.5t-11 -27.5v-189q0 -19 11 -26.5
t31 -7.5t31 7.5t11 26.5v189zM44 584v89h323v-89h-323z" />
    <glyph glyph-name="odieresis" unicode="&#xf6;" horiz-adv-x="408" 
d="M378 139q0 -45 -13.5 -75t-37 -48t-55.5 -25.5t-68 -7.5q-39 0 -71 7.5t-55 25.5t-35.5 48t-12.5 75v210q0 45 12.5 75t35.5 48t55 25.5t71 7.5q36 0 68 -7.5t55.5 -25.5t37 -48t13.5 -75v-210zM246 338q0 20 -11 27.5t-31 7.5t-31 -7.5t-11 -27.5v-189q0 -19 11 -26.5
t31 -7.5t31 7.5t11 26.5v189zM44 554v133h126v-133h-126zM239 554v133h128v-133h-128z" />
    <glyph glyph-name="divide" unicode="&#xf7;" horiz-adv-x="561" 
d="M43 295v97h474v-97h-474zM209 462v151h143v-151h-143zM209 74v151h143v-151h-143z" />
    <glyph glyph-name="oslash" unicode="&#xf8;" horiz-adv-x="408" 
d="M30 -23l30 58q-14 18 -22 43.5t-8 60.5v210q0 45 12.5 75t35.5 48t55 25.5t71 7.5q50 0 91 -15l26 50l57 -25l-32 -62q15 -18 23.5 -43.5t8.5 -60.5v-210q0 -45 -13.5 -75t-37 -48t-55.5 -25.5t-68 -7.5q-28 0 -52.5 4t-44.5 13l-25 -49zM246 263l-74 -140q10 -8 32 -8
q20 0 31 7.5t11 26.5v114zM231 367q-11 6 -27 6q-20 0 -31 -7.5t-11 -27.5v-106z" />
    <glyph glyph-name="ugrave" unicode="&#xf9;" horiz-adv-x="422" 
d="M250 492h132v-481q-26 -9 -67.5 -18.5t-109.5 -9.5q-37 0 -68 7.5t-54 25.5t-36 48t-13 75v353h132v-341q0 -20 10 -28t30 -8q15 0 25.5 2t18.5 5v370zM75 610v100l231 -108v-68z" />
    <glyph glyph-name="uacute" unicode="&#xfa;" horiz-adv-x="422" 
d="M250 492h132v-481q-26 -9 -67.5 -18.5t-109.5 -9.5q-37 0 -68 7.5t-54 25.5t-36 48t-13 75v353h132v-341q0 -20 10 -28t30 -8q15 0 25.5 2t18.5 5v370zM115 534v68l231 108v-100z" />
    <glyph glyph-name="ucircumflex" unicode="&#xfb;" horiz-adv-x="422" 
d="M250 492h132v-481q-26 -9 -67.5 -18.5t-109.5 -9.5q-37 0 -68 7.5t-54 25.5t-36 48t-13 75v353h132v-341q0 -20 10 -28t30 -8q15 0 25.5 2t18.5 5v370zM213 670l-136 -119l-45 50l129 135h103l129 -135l-45 -50z" />
    <glyph glyph-name="udieresis" unicode="&#xfc;" horiz-adv-x="422" 
d="M250 492h132v-481q-26 -9 -67.5 -18.5t-109.5 -9.5q-37 0 -68 7.5t-54 25.5t-36 48t-13 75v353h132v-341q0 -20 10 -28t30 -8q15 0 25.5 2t18.5 5v370zM51 554v133h126v-133h-126zM246 554v133h128v-133h-128z" />
    <glyph glyph-name="yacute" unicode="&#xfd;" horiz-adv-x="410" 
d="M245 10q-11 -6 -28 -10t-43 -4q-27 0 -53 6t-46 23t-32.5 47t-12.5 79v341h132v-329q0 -20 9.5 -28t29.5 -8q30 0 44 11v354h132v-587q0 -43 -13 -72t-36.5 -46.5t-55.5 -25t-69 -7.5q-35 0 -64.5 7.5t-51.5 25t-34 46.5t-12 72v39h123v-32q0 -33 39 -33q42 0 42 33v98z
M109 534v68l231 108v-100z" />
    <glyph glyph-name="thorn" unicode="&#xfe;" horiz-adv-x="416" 
d="M38 -233v905h132v-182q11 6 28 10.5t44 4.5t52.5 -6t46 -23t33 -47.5t12.5 -79.5v-210q0 -49 -12.5 -79.5t-33 -47.5t-46 -23t-52.5 -6t-44 4t-28 10v-230h-132zM254 334q0 21 -10 29t-30 8q-30 0 -44 -11v-232q14 -11 44 -11q20 0 30 8t10 28v181z" />
    <glyph glyph-name="ydieresis" unicode="&#xff;" horiz-adv-x="410" 
d="M245 10q-11 -6 -28 -10t-43 -4q-27 0 -53 6t-46 23t-32.5 47t-12.5 79v341h132v-329q0 -20 9.5 -28t29.5 -8q30 0 44 11v354h132v-587q0 -43 -13 -72t-36.5 -46.5t-55.5 -25t-69 -7.5q-35 0 -64.5 7.5t-51.5 25t-34 46.5t-12 72v39h123v-32q0 -33 39 -33q42 0 42 33v98z
M45 554v133h126v-133h-126zM240 554v133h128v-133h-128z" />
    <glyph glyph-name="Amacron" unicode="&#x100;" 
d="M265 0v220h-91v-220h-142v426q0 55 15.5 95t42 69t60.5 50.5t71 39.5q36 -18 70 -39.5t61 -50.5t43 -69t16 -95v-426h-146zM265 430q0 20 -4 33.5t-10.5 23t-14.5 15.5t-16 11q-9 -5 -17 -11t-14.5 -15.5t-10.5 -23t-4 -33.5v-90h91v90zM60 756v89h323v-89h-323z" />
    <glyph glyph-name="amacron" unicode="&#x101;" horiz-adv-x="414" 
d="M379 11q-24 -12 -61 -20t-105 -8q-43 0 -78 7.5t-60 24t-38.5 44t-13.5 66.5v43q0 41 13.5 66t35 39t48 18.5t53.5 4.5q26 0 44.5 -3.5t29.5 -8.5v49q0 43 -49 43q-43 0 -77 -6t-72 -20v130q26 11 62.5 18t93.5 7q37 0 69 -7.5t55 -25.5t36.5 -48t13.5 -75v-338zM247 204
q-17 11 -43 11q-21 0 -31 -7.5t-10 -26.5v-38q0 -18 10 -26.5t33 -8.5q15 0 24.5 2t16.5 6v88zM45 584v89h323v-89h-323z" />
    <glyph glyph-name="Abreve" unicode="&#x102;" 
d="M265 0v220h-91v-220h-142v426q0 55 15.5 95t42 69t60.5 50.5t71 39.5q36 -18 70 -39.5t61 -50.5t43 -69t16 -95v-426h-146zM265 430q0 20 -4 33.5t-10.5 23t-14.5 15.5t-16 11q-9 -5 -17 -11t-14.5 -15.5t-10.5 -23t-4 -33.5v-90h91v90zM384 888q0 -42 -13.5 -73
t-36 -51.5t-52 -31t-60.5 -10.5t-60 10.5t-51.5 31t-36 51.5t-13.5 73h80q2 -43 22.5 -66t58.5 -23q78 0 81 89h81z" />
    <glyph glyph-name="abreve" unicode="&#x103;" horiz-adv-x="414" 
d="M379 11q-24 -12 -61 -20t-105 -8q-43 0 -78 7.5t-60 24t-38.5 44t-13.5 66.5v43q0 41 13.5 66t35 39t48 18.5t53.5 4.5q26 0 44.5 -3.5t29.5 -8.5v49q0 43 -49 43q-43 0 -77 -6t-72 -20v130q26 11 62.5 18t93.5 7q37 0 69 -7.5t55 -25.5t36.5 -48t13.5 -75v-338zM247 204
q-17 11 -43 11q-21 0 -31 -7.5t-10 -26.5v-38q0 -18 10 -26.5t33 -8.5q15 0 24.5 2t16.5 6v88zM370 716q0 -42 -13.5 -73t-36 -51.5t-52 -31t-60.5 -10.5t-60 10.5t-51.5 31t-36 51.5t-13.5 73h80q2 -43 22.5 -66t58.5 -23q78 0 81 89h81z" />
    <glyph glyph-name="Aogonek" unicode="&#x104;" 
d="M411 -229q-5 -2 -17 -3t-35 -1q-41 0 -66.5 8.5t-39.5 22.5t-19 32.5t-5 38.5q0 43 20.5 67.5t62.5 42.5l49 21h-96v220h-91v-220h-142v426q0 55 15.5 95t42 69t60.5 50.5t71 39.5q36 -18 70 -39.5t61 -50.5t43 -69t16 -95v-426l-48 -28q-23 -14 -29.5 -24.5t-5.5 -28.5
q0 -34 44 -34q19 0 39 5v-119zM265 430q0 20 -4 33.5t-10.5 23t-14.5 15.5t-16 11q-9 -5 -17 -11t-14.5 -15.5t-10.5 -23t-4 -33.5v-90h91v90z" />
    <glyph glyph-name="aogonek" unicode="&#x105;" horiz-adv-x="414" 
d="M349 -229q-5 -2 -17 -3t-35 -1q-41 0 -66.5 8.5t-39.5 22.5t-19 32.5t-5 38.5q0 42 20.5 67.5t62.5 42.5l12 6q-11 -1 -23 -1.5t-26 -0.5q-43 0 -78 7.5t-60 24t-38.5 44t-13.5 66.5v43q0 41 13.5 66t35 39t48 18.5t53.5 4.5q26 0 44.5 -3.5t29.5 -8.5v49q0 43 -49 43
q-43 0 -77 -6t-72 -20v130q26 11 62.5 18t93.5 7q37 0 69 -7.5t55 -25.5t36.5 -48t13.5 -75v-338l-78 -39q-24 -12 -29.5 -24t-5.5 -29q0 -34 44 -34q19 0 39 5v-119zM247 204q-17 11 -43 11q-21 0 -31 -7.5t-10 -26.5v-38q0 -18 10 -26.5t33 -8.5q15 0 24.5 2t16.5 6v88z
" />
    <glyph glyph-name="Cacute" unicode="&#x106;" horiz-adv-x="421" 
d="M391 145q0 -47 -12.5 -78t-35 -49.5t-54 -26.5t-69.5 -8q-40 0 -74 8t-59.5 26.5t-40 49.5t-14.5 78v373q0 46 14.5 77.5t40 50t59.5 26.5t74 8q38 0 69.5 -8t54 -26.5t35 -50t12.5 -77.5v-136h-128v127q0 19 -9 28.5t-34 9.5q-24 0 -34 -9t-10 -29v-346q0 -23 8 -34.5
t36 -11.5q25 0 34 9t9 28v121h128v-130zM115 706v68l231 108v-100z" />
    <glyph glyph-name="cacute" unicode="&#x107;" horiz-adv-x="400" 
d="M373 139q0 -45 -13 -75t-35.5 -48t-53.5 -25.5t-68 -7.5q-38 0 -70 7.5t-55 25.5t-35.5 48t-12.5 75v210q0 45 12.5 75t35.5 48t55 25.5t70 7.5q37 0 68 -7.5t53.5 -25.5t35.5 -48t13 -75v-63h-128v52q0 20 -11 27.5t-31 7.5t-30.5 -7.5t-10.5 -27.5v-189
q0 -19 10.5 -26.5t30.5 -7.5t31 7.5t11 26.5v57h128v-67zM104 534v68l231 108v-100z" />
    <glyph glyph-name="Ccircumflex" unicode="&#x108;" horiz-adv-x="421" 
d="M391 145q0 -47 -12.5 -78t-35 -49.5t-54 -26.5t-69.5 -8q-40 0 -74 8t-59.5 26.5t-40 49.5t-14.5 78v373q0 46 14.5 77.5t40 50t59.5 26.5t74 8q38 0 69.5 -8t54 -26.5t35 -50t12.5 -77.5v-136h-128v127q0 19 -9 28.5t-34 9.5q-24 0 -34 -9t-10 -29v-346q0 -23 8 -34.5
t36 -11.5q25 0 34 9t9 28v121h128v-130zM212 842l-136 -119l-45 50l129 135h103l129 -135l-45 -50z" />
    <glyph glyph-name="ccircumflex" unicode="&#x109;" horiz-adv-x="400" 
d="M373 139q0 -45 -13 -75t-35.5 -48t-53.5 -25.5t-68 -7.5q-38 0 -70 7.5t-55 25.5t-35.5 48t-12.5 75v210q0 45 12.5 75t35.5 48t55 25.5t70 7.5q37 0 68 -7.5t53.5 -25.5t35.5 -48t13 -75v-63h-128v52q0 20 -11 27.5t-31 7.5t-30.5 -7.5t-10.5 -27.5v-189
q0 -19 10.5 -26.5t30.5 -7.5t31 7.5t11 26.5v57h128v-67zM202 670l-136 -119l-45 50l129 135h103l129 -135l-45 -50z" />
    <glyph glyph-name="Cdotaccent" unicode="&#x10a;" horiz-adv-x="421" 
d="M391 145q0 -47 -12.5 -78t-35 -49.5t-54 -26.5t-69.5 -8q-40 0 -74 8t-59.5 26.5t-40 49.5t-14.5 78v373q0 46 14.5 77.5t40 50t59.5 26.5t74 8q38 0 69.5 -8t54 -26.5t35 -50t12.5 -77.5v-136h-128v127q0 19 -9 28.5t-34 9.5q-24 0 -34 -9t-10 -29v-346q0 -23 8 -34.5
t36 -11.5q25 0 34 9t9 28v121h128v-130zM147 726v133h126v-133h-126z" />
    <glyph glyph-name="cdotaccent" unicode="&#x10b;" horiz-adv-x="400" 
d="M373 139q0 -45 -13 -75t-35.5 -48t-53.5 -25.5t-68 -7.5q-38 0 -70 7.5t-55 25.5t-35.5 48t-12.5 75v210q0 45 12.5 75t35.5 48t55 25.5t70 7.5q37 0 68 -7.5t53.5 -25.5t35.5 -48t13 -75v-63h-128v52q0 20 -11 27.5t-31 7.5t-30.5 -7.5t-10.5 -27.5v-189
q0 -19 10.5 -26.5t30.5 -7.5t31 7.5t11 26.5v57h128v-67zM137 554v133h126v-133h-126z" />
    <glyph glyph-name="Ccaron" unicode="&#x10c;" horiz-adv-x="421" 
d="M391 145q0 -47 -12.5 -78t-35 -49.5t-54 -26.5t-69.5 -8q-40 0 -74 8t-59.5 26.5t-40 49.5t-14.5 78v373q0 46 14.5 77.5t40 50t59.5 26.5t74 8q38 0 69.5 -8t54 -26.5t35 -50t12.5 -77.5v-136h-128v127q0 19 -9 28.5t-34 9.5q-24 0 -34 -9t-10 -29v-346q0 -23 8 -34.5
t36 -11.5q25 0 34 9t9 28v121h128v-130zM211 703l-180 144l41 51l139 -102l141 102l40 -51z" />
    <glyph glyph-name="ccaron" unicode="&#x10d;" horiz-adv-x="400" 
d="M373 139q0 -45 -13 -75t-35.5 -48t-53.5 -25.5t-68 -7.5q-38 0 -70 7.5t-55 25.5t-35.5 48t-12.5 75v210q0 45 12.5 75t35.5 48t55 25.5t70 7.5q37 0 68 -7.5t53.5 -25.5t35.5 -48t13 -75v-63h-128v52q0 20 -11 27.5t-31 7.5t-30.5 -7.5t-10.5 -27.5v-189
q0 -19 10.5 -26.5t30.5 -7.5t31 7.5t11 26.5v57h128v-67zM201 531l-180 144l41 51l139 -102l141 102l40 -51z" />
    <glyph glyph-name="Dcaron" unicode="&#x10e;" horiz-adv-x="449" 
d="M38 0v664h190q38 0 72.5 -8t60.5 -30t41 -62t15 -103v-272q0 -52 -15 -88t-41 -58.5t-60.5 -32.5t-72.5 -10h-190zM273 493q0 26 -11 37t-34 11h-46v-416h46q23 0 34 11t11 39v318zM215 703l-180 144l41 51l139 -102l141 102l40 -51z" />
    <glyph glyph-name="dcaron" unicode="&#x10f;" horiz-adv-x="580" 
d="M30 349q0 49 12.5 79.5t33 47.5t46 23t52.5 6q26 0 43 -4.5t29 -10.5v182h132v-661q-26 -9 -67.5 -18.5t-109.5 -9.5q-37 0 -68.5 7.5t-54 25.5t-35.5 48t-13 75v210zM246 362q-8 5 -18.5 8t-26.5 3q-20 0 -29.5 -8t-9.5 -29v-185q0 -20 10 -28t30 -8q16 0 26 2t18 5v240
zM422 672h143v-113q0 -38 -10.5 -71t-29.5 -57.5t-45.5 -39.5t-57.5 -16v297z" />
    <glyph glyph-name="Dcroat" unicode="&#x110;" horiz-adv-x="451" 
d="M40 0v286h-27v122h27v256h190q38 0 72.5 -8t60.5 -30t41 -62t15 -103v-272q0 -52 -15 -88t-41 -58.5t-60.5 -32.5t-72.5 -10h-190zM275 493q0 26 -11 37t-34 11h-46v-133h45v-122h-45v-161h46q23 0 34 11t11 39v318z" />
    <glyph glyph-name="dcroat" unicode="&#x111;" horiz-adv-x="416" 
d="M378 534v-523q-26 -9 -67.5 -18.5t-109.5 -9.5q-37 0 -68.5 7.5t-54 25.5t-35.5 48t-13 75v210q0 49 12.5 79.5t33 47.5t46 23t52.5 6q26 0 43 -4.5t29 -10.5v44h-153v89h153v49h132v-49h38v-89h-38zM246 362q-8 5 -18.5 8t-26.5 3q-20 0 -29.5 -8t-9.5 -29v-185
q0 -20 10 -28t30 -8q16 0 26 2t18 5v240z" />
    <glyph glyph-name="Emacron" unicode="&#x112;" horiz-adv-x="335" 
d="M38 0v664h266v-123h-122v-133h109v-122h-109v-161h128v-125h-272zM7 756v89h323v-89h-323z" />
    <glyph glyph-name="emacron" unicode="&#x113;" horiz-adv-x="408" 
d="M372 8q-26 -10 -69 -17.5t-100 -7.5q-37 0 -68.5 7.5t-55 25.5t-36.5 48t-13 75v210q0 45 12.5 75t35.5 48t55 25.5t70 7.5q37 0 68.5 -7.5t55 -25.5t37 -48t13.5 -75v-142h-215v-55q0 -23 13 -29t37 -6q58 0 94 6t66 18v-133zM245 335q0 20 -7.5 32t-34.5 12
q-16 0 -24.5 -4t-12 -11.5t-4 -17.5t-0.5 -21v-43h83v53zM44 584v89h323v-89h-323z" />
    <glyph glyph-name="Ebreve" unicode="&#x114;" horiz-adv-x="335" 
d="M38 0v664h266v-123h-122v-133h109v-122h-109v-161h128v-125h-272zM330 888q0 -42 -13.5 -73t-36 -51.5t-52 -31t-60.5 -10.5t-60 10.5t-51.5 31t-36 51.5t-13.5 73h80q2 -43 22.5 -66t58.5 -23q78 0 81 89h81z" />
    <glyph glyph-name="ebreve" unicode="&#x115;" horiz-adv-x="408" 
d="M372 8q-26 -10 -69 -17.5t-100 -7.5q-37 0 -68.5 7.5t-55 25.5t-36.5 48t-13 75v210q0 45 12.5 75t35.5 48t55 25.5t70 7.5q37 0 68.5 -7.5t55 -25.5t37 -48t13.5 -75v-142h-215v-55q0 -23 13 -29t37 -6q58 0 94 6t66 18v-133zM245 335q0 20 -7.5 32t-34.5 12
q-16 0 -24.5 -4t-12 -11.5t-4 -17.5t-0.5 -21v-43h83v53zM367 716q0 -42 -13.5 -73t-36 -51.5t-52 -31t-60.5 -10.5t-60 10.5t-51.5 31t-36 51.5t-13.5 73h80q2 -43 22.5 -66t58.5 -23q78 0 81 89h81z" />
    <glyph glyph-name="Edotaccent" unicode="&#x116;" horiz-adv-x="335" 
d="M38 0v664h266v-123h-122v-133h109v-122h-109v-161h128v-125h-272zM104 726v133h126v-133h-126z" />
    <glyph glyph-name="edotaccent" unicode="&#x117;" horiz-adv-x="408" 
d="M372 8q-26 -10 -69 -17.5t-100 -7.5q-37 0 -68.5 7.5t-55 25.5t-36.5 48t-13 75v210q0 45 12.5 75t35.5 48t55 25.5t70 7.5q37 0 68.5 -7.5t55 -25.5t37 -48t13.5 -75v-142h-215v-55q0 -23 13 -29t37 -6q58 0 94 6t66 18v-133zM245 335q0 20 -7.5 32t-34.5 12
q-16 0 -24.5 -4t-12 -11.5t-4 -17.5t-0.5 -21v-43h83v53zM141 554v133h126v-133h-126z" />
    <glyph glyph-name="Eogonek" unicode="&#x118;" horiz-adv-x="335" 
d="M310 -229q-5 -2 -17 -3t-35 -1q-41 0 -66.5 8.5t-39.5 22.5t-19 32.5t-5 38.5q0 43 20.5 67.5t62.5 42.5l49 21h-222v664h266v-123h-122v-133h109v-122h-109v-161h128v-125l-48 -28q-23 -14 -29.5 -24.5t-5.5 -28.5q0 -34 44 -34q19 0 39 5v-119z" />
    <glyph glyph-name="eogonek" unicode="&#x119;" horiz-adv-x="408" 
d="M346 -229q-5 -2 -17 -3t-35 -1q-41 0 -66.5 8.5t-39.5 22.5t-19 32.5t-5 38.5q0 42 20.5 67.5t62.5 42.5l15 7q-27 -3 -59 -3q-37 0 -68.5 7.5t-55 25.5t-36.5 48t-13 75v210q0 45 12.5 75t35.5 48t55 25.5t70 7.5q37 0 68.5 -7.5t55 -25.5t37 -48t13.5 -75v-142h-215
v-55q0 -23 13 -29t37 -6q58 0 94 6t66 18v-133q-3 -1 -7 -2.5t-11.5 -5.5t-21 -10.5t-34.5 -17.5q-23 -13 -29 -24.5t-6 -28.5q0 -34 44 -34q19 0 39 5v-119zM245 335q0 20 -7.5 32t-34.5 12q-16 0 -24.5 -4t-12 -11.5t-4 -17.5t-0.5 -21v-43h83v53z" />
    <glyph glyph-name="Ecaron" unicode="&#x11a;" horiz-adv-x="335" 
d="M38 0v664h266v-123h-122v-133h109v-122h-109v-161h128v-125h-272zM168 703l-180 144l41 51l139 -102l141 102l40 -51z" />
    <glyph glyph-name="ecaron" unicode="&#x11b;" horiz-adv-x="408" 
d="M372 8q-26 -10 -69 -17.5t-100 -7.5q-37 0 -68.5 7.5t-55 25.5t-36.5 48t-13 75v210q0 45 12.5 75t35.5 48t55 25.5t70 7.5q37 0 68.5 -7.5t55 -25.5t37 -48t13.5 -75v-142h-215v-55q0 -23 13 -29t37 -6q58 0 94 6t66 18v-133zM245 335q0 20 -7.5 32t-34.5 12
q-16 0 -24.5 -4t-12 -11.5t-4 -17.5t-0.5 -21v-43h83v53zM205 531l-180 144l41 51l139 -102l141 102l40 -51z" />
    <glyph glyph-name="Gcircumflex" unicode="&#x11c;" horiz-adv-x="435" 
d="M266 340h134v-328q-26 -10 -68 -19.5t-114 -9.5q-38 0 -72 7.5t-59.5 26.5t-40 49.5t-14.5 77.5v374q0 46 14.5 77.5t40 50t59.5 26.5t74 8q39 0 70.5 -8t54 -26.5t34.5 -50t12 -77.5v-92h-128v84q0 20 -9 29.5t-34 9.5q-24 0 -33.5 -9.5t-9.5 -29.5v-355
q0 -20 11.5 -28.5t32.5 -8.5q15 0 25.5 2t19.5 6v214zM219 842l-136 -119l-45 50l129 135h103l129 -135l-45 -50z" />
    <glyph glyph-name="gcircumflex" unicode="&#x11d;" horiz-adv-x="410" 
d="M246 10q-12 -6 -29 -10.5t-43 -4.5q-27 0 -52.5 6t-46 23t-33 47.5t-12.5 79.5v198q0 45 13 75t36.5 48t55 25.5t68.5 7.5q38 0 70 -7.5t55.5 -25.5t36.5 -48t13 -75v-444q0 -43 -13.5 -72t-36.5 -46.5t-55 -25t-69 -7.5q-35 0 -65 7.5t-52 25t-34 46.5t-12 72v39h124
v-33q0 -32 39 -32q42 0 42 32v99zM246 338q0 20 -11 27.5t-31 7.5t-31 -7.5t-11 -27.5v-174q0 -20 9.5 -28t29.5 -8q28 0 45 11v199zM207 670l-136 -119l-45 50l129 135h103l129 -135l-45 -50z" />
    <glyph glyph-name="Gbreve" unicode="&#x11e;" horiz-adv-x="435" 
d="M266 340h134v-328q-26 -10 -68 -19.5t-114 -9.5q-38 0 -72 7.5t-59.5 26.5t-40 49.5t-14.5 77.5v374q0 46 14.5 77.5t40 50t59.5 26.5t74 8q39 0 70.5 -8t54 -26.5t34.5 -50t12 -77.5v-92h-128v84q0 20 -9 29.5t-34 9.5q-24 0 -33.5 -9.5t-9.5 -29.5v-355
q0 -20 11.5 -28.5t32.5 -8.5q15 0 25.5 2t19.5 6v214zM380 888q0 -42 -13.5 -73t-36 -51.5t-52 -31t-60.5 -10.5t-60 10.5t-51.5 31t-36 51.5t-13.5 73h80q2 -43 22.5 -66t58.5 -23q78 0 81 89h81z" />
    <glyph glyph-name="gbreve" unicode="&#x11f;" horiz-adv-x="410" 
d="M246 10q-12 -6 -29 -10.5t-43 -4.5q-27 0 -52.5 6t-46 23t-33 47.5t-12.5 79.5v198q0 45 13 75t36.5 48t55 25.5t68.5 7.5q38 0 70 -7.5t55.5 -25.5t36.5 -48t13 -75v-444q0 -43 -13.5 -72t-36.5 -46.5t-55 -25t-69 -7.5q-35 0 -65 7.5t-52 25t-34 46.5t-12 72v39h124
v-33q0 -32 39 -32q42 0 42 32v99zM246 338q0 20 -11 27.5t-31 7.5t-31 -7.5t-11 -27.5v-174q0 -20 9.5 -28t29.5 -8q28 0 45 11v199zM368 716q0 -42 -13.5 -73t-36 -51.5t-52 -31t-60.5 -10.5t-60 10.5t-51.5 31t-36 51.5t-13.5 73h80q2 -43 22.5 -66t58.5 -23q78 0 81 89
h81z" />
    <glyph glyph-name="Gdotaccent" unicode="&#x120;" horiz-adv-x="435" 
d="M266 340h134v-328q-26 -10 -68 -19.5t-114 -9.5q-38 0 -72 7.5t-59.5 26.5t-40 49.5t-14.5 77.5v374q0 46 14.5 77.5t40 50t59.5 26.5t74 8q39 0 70.5 -8t54 -26.5t34.5 -50t12 -77.5v-92h-128v84q0 20 -9 29.5t-34 9.5q-24 0 -33.5 -9.5t-9.5 -29.5v-355
q0 -20 11.5 -28.5t32.5 -8.5q15 0 25.5 2t19.5 6v214zM154 726v133h126v-133h-126z" />
    <glyph glyph-name="gdotaccent" unicode="&#x121;" horiz-adv-x="410" 
d="M246 10q-12 -6 -29 -10.5t-43 -4.5q-27 0 -52.5 6t-46 23t-33 47.5t-12.5 79.5v198q0 45 13 75t36.5 48t55 25.5t68.5 7.5q38 0 70 -7.5t55.5 -25.5t36.5 -48t13 -75v-444q0 -43 -13.5 -72t-36.5 -46.5t-55 -25t-69 -7.5q-35 0 -65 7.5t-52 25t-34 46.5t-12 72v39h124
v-33q0 -32 39 -32q42 0 42 32v99zM246 338q0 20 -11 27.5t-31 7.5t-31 -7.5t-11 -27.5v-174q0 -20 9.5 -28t29.5 -8q28 0 45 11v199zM142 554v133h126v-133h-126z" />
    <glyph glyph-name="uni0122" unicode="&#x122;" horiz-adv-x="435" 
d="M266 340h134v-328q-26 -10 -68 -19.5t-114 -9.5q-38 0 -72 7.5t-59.5 26.5t-40 49.5t-14.5 77.5v374q0 46 14.5 77.5t40 50t59.5 26.5t74 8q39 0 70.5 -8t54 -26.5t34.5 -50t12 -77.5v-92h-128v84q0 20 -9 29.5t-34 9.5q-24 0 -33.5 -9.5t-9.5 -29.5v-355
q0 -20 11.5 -28.5t32.5 -8.5q15 0 25.5 2t19.5 6v214zM158 -34h130v-40q0 -35 -9.5 -65.5t-26.5 -53t-41 -36t-53 -14.5v209z" />
    <glyph glyph-name="uni0123" unicode="&#x123;" horiz-adv-x="410" 
d="M246 10q-12 -6 -29 -10.5t-43 -4.5q-27 0 -52.5 6t-46 23t-33 47.5t-12.5 79.5v198q0 45 13 75t36.5 48t55 25.5t68.5 7.5q38 0 70 -7.5t55.5 -25.5t36.5 -48t13 -75v-444q0 -43 -13.5 -72t-36.5 -46.5t-55 -25t-69 -7.5q-35 0 -65 7.5t-52 25t-34 46.5t-12 72v39h124
v-33q0 -32 39 -32q42 0 42 32v99zM246 338q0 20 -11 27.5t-31 7.5t-31 -7.5t-11 -27.5v-174q0 -20 9.5 -28t29.5 -8q28 0 45 11v199zM269.003 538.998h-129.991v39.9971q0 34.998 9.49902 65.4961t26.498 52.9971t40.998 35.998q23.998 13.499 52.9961 14.499v-208.987z" />
    <glyph glyph-name="Hcircumflex" unicode="&#x124;" horiz-adv-x="456" 
d="M273 0v276h-91v-276h-144v664h144v-268h91v268h144v-664h-144zM230 842l-136 -119l-45 50l129 135h103l129 -135l-45 -50z" />
    <glyph glyph-name="hcircumflex" unicode="&#x125;" horiz-adv-x="420" 
d="M254 0v336q0 21 -10 29t-30 8q-30 0 -44 -11v-362h-132v672h132v-182q11 6 28 10.5t44 4.5t52.5 -6t46 -23t33 -47.5t12.5 -79.5v-349h-132zM220 842l-136 -119l-45 50l129 135h103l129 -135l-45 -50z" />
    <glyph glyph-name="Hbar" unicode="&#x126;" horiz-adv-x="456" 
d="M273 0v276h-91v-276h-144v664h144v-99h91v99h144v-664h-144zM273 396v80h-91v-80h91z" />
    <glyph glyph-name="hbar" unicode="&#x127;" horiz-adv-x="420" 
d="M170 535v-45q11 6 28 10.5t44 4.5t52.5 -6t46 -23t33 -47.5t12.5 -79.5v-349h-132v336q0 21 -10 29t-30 8q-30 0 -44 -11v-362h-132v535h-38v89h38v48h132v-48h153v-89h-153z" />
    <glyph glyph-name="Itilde" unicode="&#x128;" horiz-adv-x="220" 
d="M38 0v664h144v-664h-144zM-50 756v89h323v-89h-323z" />
    <glyph glyph-name="itilde" unicode="&#x129;" horiz-adv-x="214" 
d="M40 0v492h133v-492h-133zM-53 584v89h323v-89h-323z" />
    <glyph glyph-name="Imacron" unicode="&#x12a;" horiz-adv-x="220" 
d="M38 0v664h144v-664h-144zM-50 756v89h323v-89h-323z" />
    <glyph glyph-name="imacron" unicode="&#x12b;" horiz-adv-x="214" 
d="M40 0v492h133v-492h-133zM-53 584v89h323v-89h-323z" />
    <glyph glyph-name="Ibreve" unicode="&#x12c;" horiz-adv-x="220" 
d="M38 0v664h144v-664h-144zM273 888q0 -42 -13.5 -73t-36 -51.5t-52 -31t-60.5 -10.5t-60 10.5t-51.5 31t-36 51.5t-13.5 73h80q2 -43 22.5 -66t58.5 -23q78 0 81 89h81z" />
    <glyph glyph-name="ibreve" unicode="&#x12d;" horiz-adv-x="214" 
d="M40 0v492h133v-492h-133zM270 716q0 -42 -13.5 -73t-36 -51.5t-52 -31t-60.5 -10.5t-60 10.5t-51.5 31t-36 51.5t-13.5 73h80q2 -43 22.5 -66t58.5 -23q78 0 81 89h81z" />
    <glyph glyph-name="Iogonek" unicode="&#x12e;" horiz-adv-x="220" 
d="M182 -229q-5 -2 -17 -3t-35 -1q-41 0 -66.5 8.5t-39.5 22.5t-19 32.5t-5 38.5q0 43 20.5 67.5t62.5 42.5l49 21h-94v664h144v-664l-48 -28q-23 -14 -29.5 -24.5t-5.5 -28.5q0 -34 44 -34q19 0 39 5v-119z" />
    <glyph glyph-name="iogonek" unicode="&#x12f;" horiz-adv-x="214" 
d="M173 -229q-5 -2 -17 -3t-35 -1q-41 0 -66.5 8.5t-39.5 22.5t-19 32.5t-5 38.5q0 43 20.5 67.5t62.5 42.5l49 21h-83v492h133v-492l-48 -28q-23 -14 -29.5 -24.5t-5.5 -28.5q0 -34 44 -34q19 0 39 5v-119zM40 551v121h133v-121h-133z" />
    <glyph glyph-name="Idotaccent" unicode="&#x130;" horiz-adv-x="220" 
d="M38 0v664h144v-664h-144zM48 726v133h126v-133h-126z" />
    <glyph glyph-name="dotlessi" unicode="&#x131;" horiz-adv-x="214" 
d="M40 0v492h133v-492h-133z" />
    <glyph glyph-name="IJ" unicode="&#x132;" horiz-adv-x="491" 
d="M38 0v664h144v-664h-144zM244 118q8 -4 22 -4q45 0 45 37v513h145v-525q0 -47 -15 -77.5t-40.5 -49.5t-59.5 -26.5t-72 -7.5q-7 0 -13 0.5t-12 0.5v139z" />
    <glyph glyph-name="ij" unicode="&#x133;" horiz-adv-x="444" 
d="M40 0v492h133v-492h-133zM40 551v121h133v-121h-133zM218 -110q9 -3 20 -3q35 0 35 31v574h130v-586q0 -41 -13 -67.5t-35 -42.5t-52 -22.5t-63 -6.5q-7 0 -12 0.5t-10 0.5v122zM272 551v121h131v-121h-131z" />
    <glyph glyph-name="Jcircumflex" unicode="&#x134;" horiz-adv-x="271" 
d="M24 118q8 -4 22 -4q45 0 45 37v513h145v-525q0 -47 -15 -77.5t-40.5 -49.5t-59.5 -26.5t-72 -7.5q-7 0 -13 0.5t-12 0.5v139zM127 842l-136 -119l-45 50l129 135h103l129 -135l-45 -50z" />
    <glyph glyph-name="jcircumflex" unicode="&#x135;" horiz-adv-x="230" 
d="M4 -110q9 -3 20 -3q35 0 35 31v574h130v-586q0 -41 -13 -67.5t-35 -42.5t-52 -22.5t-63 -6.5q-7 0 -12 0.5t-10 0.5v122zM97 670l-136 -119l-45 50l129 135h103l129 -135l-45 -50z" />
    <glyph glyph-name="uni0136" unicode="&#x136;" horiz-adv-x="457" 
d="M287 0l-108 330v-330h-141v664h141v-286l102 286h153l-123 -289l136 -375h-160zM169 -34h130v-40q0 -35 -9.5 -65.5t-26.5 -53t-41 -36t-53 -14.5v209z" />
    <glyph glyph-name="uni0137" unicode="&#x137;" horiz-adv-x="430" 
d="M267 0l-97 248v-248h-132v672h132v-384l87 204h147l-107 -209l122 -283h-152zM150 -34h130v-40q0 -35 -9.5 -65.5t-26.5 -53t-41 -36t-53 -14.5v209z" />
    <glyph glyph-name="Lacute" unicode="&#x139;" horiz-adv-x="329" 
d="M38 0v664h144v-539h126v-125h-270zM20 706v68l231 108v-100z" />
    <glyph glyph-name="lacute" unicode="&#x13a;" horiz-adv-x="208" 
d="M38 0v672h132v-672h-132zM10 706v68l231 108v-100z" />
    <glyph glyph-name="uni013B" unicode="&#x13b;" horiz-adv-x="329" 
d="M38 0v664h144v-539h126v-125h-270zM100 -34h130v-40q0 -35 -9.5 -65.5t-26.5 -53t-41 -36t-53 -14.5v209z" />
    <glyph glyph-name="uni013C" unicode="&#x13c;" horiz-adv-x="208" 
d="M38 0v672h132v-672h-132zM41 -34h130v-40q0 -35 -9.5 -65.5t-26.5 -53t-41 -36t-53 -14.5v209z" />
    <glyph glyph-name="Lcaron" unicode="&#x13d;" horiz-adv-x="364" 
d="M38 0v664h144v-539h126v-125h-270zM221 810h143v-113q0 -38 -10.5 -71t-29.5 -57.5t-45.5 -39.5t-57.5 -16v297z" />
    <glyph glyph-name="lcaron" unicode="&#x13e;" horiz-adv-x="358" 
d="M38 0v672h132v-672h-132zM215 673h143v-113q0 -38 -10.5 -71t-29.5 -57.5t-45.5 -39.5t-57.5 -16v297z" />
    <glyph glyph-name="Ldot" unicode="&#x13f;" horiz-adv-x="340" 
d="M38 0v664h144v-539h126v-125h-270zM214 315v133h126v-133h-126z" />
    <glyph glyph-name="ldot" unicode="&#x140;" horiz-adv-x="335" 
d="M38 0v672h132v-672h-132zM209 285v133h126v-133h-126z" />
    <glyph glyph-name="Lslash" unicode="&#x141;" horiz-adv-x="329" 
d="M38 0v664h144v-281l100 50v-92l-100 -51v-165h126v-125h-270z" />
    <glyph glyph-name="lslash" unicode="&#x142;" horiz-adv-x="222" 
d="M44 0v259l-49 -23v91l49 25v320h133v-255l50 26v-94l-50 -25v-324h-133z" />
    <glyph glyph-name="Nacute" unicode="&#x143;" horiz-adv-x="452" 
d="M273 0v508q0 20 -12 28.5t-33 8.5q-15 0 -26.5 -2t-19.5 -5v-538h-144v651q26 9 73 19t120 10q38 0 72 -7.5t59.5 -26.5t40 -50t14.5 -77v-519h-144zM130 706v68l231 108v-100z" />
    <glyph glyph-name="nacute" unicode="&#x144;" horiz-adv-x="420" 
d="M254 0v336q0 20 -10.5 28.5t-30.5 8.5q-15 0 -25 -2t-18 -6v-365h-132v477q26 9 67 18.5t110 9.5q37 0 68 -7.5t54 -25.5t36 -48t13 -75v-349h-132zM114 534v68l231 108v-100z" />
    <glyph glyph-name="uni0145" unicode="&#x145;" horiz-adv-x="452" 
d="M273 0v508q0 20 -12 28.5t-33 8.5q-15 0 -26.5 -2t-19.5 -5v-538h-144v651q26 9 73 19t120 10q38 0 72 -7.5t59.5 -26.5t40 -50t14.5 -77v-519h-144zM161 -34h130v-40q0 -35 -9.5 -65.5t-26.5 -53t-41 -36t-53 -14.5v209z" />
    <glyph glyph-name="uni0146" unicode="&#x146;" horiz-adv-x="420" 
d="M254 0v336q0 20 -10.5 28.5t-30.5 8.5q-15 0 -25 -2t-18 -6v-365h-132v477q26 9 67 18.5t110 9.5q37 0 68 -7.5t54 -25.5t36 -48t13 -75v-349h-132zM145 -34h130v-40q0 -35 -9.5 -65.5t-26.5 -53t-41 -36t-53 -14.5v209z" />
    <glyph glyph-name="Ncaron" unicode="&#x147;" horiz-adv-x="452" 
d="M273 0v508q0 20 -12 28.5t-33 8.5q-15 0 -26.5 -2t-19.5 -5v-538h-144v651q26 9 73 19t120 10q38 0 72 -7.5t59.5 -26.5t40 -50t14.5 -77v-519h-144zM227 703l-180 144l41 51l139 -102l141 102l40 -51z" />
    <glyph glyph-name="ncaron" unicode="&#x148;" horiz-adv-x="420" 
d="M254 0v336q0 20 -10.5 28.5t-30.5 8.5q-15 0 -25 -2t-18 -6v-365h-132v477q26 9 67 18.5t110 9.5q37 0 68 -7.5t54 -25.5t36 -48t13 -75v-349h-132zM211 531l-180 144l41 51l139 -102l141 102l40 -51z" />
    <glyph glyph-name="Eng" unicode="&#x14a;" horiz-adv-x="452" 
d="M218 -120q9 -3 20 -3q35 0 35 31v600q0 20 -12 28.5t-33 8.5q-15 0 -26.5 -2t-19.5 -5v-538h-144v651q26 9 73 19t120 10q38 0 72 -7.5t59.5 -26.5t40 -50t14.5 -77v-623q0 -41 -15 -67.5t-40 -42.5t-57 -22.5t-65 -6.5q-7 0 -12 0.5t-10 0.5v122z" />
    <glyph glyph-name="eng" unicode="&#x14b;" horiz-adv-x="420" 
d="M201 -120q9 -3 20 -3q33 0 33 31v428q0 20 -10.5 28.5t-30.5 8.5q-15 0 -25 -2t-18 -6v-365h-132v477q26 9 67 18.5t110 9.5q37 0 68 -7.5t54 -25.5t36 -48t13 -75v-453q0 -41 -13 -67.5t-35 -42.5t-52 -22.5t-63 -6.5q-7 0 -12 0.5t-10 0.5v122z" />
    <glyph glyph-name="Omacron" unicode="&#x14c;" 
d="M411 145q0 -47 -15.5 -78t-41.5 -49.5t-60.5 -26.5t-72.5 -8q-40 0 -74.5 8t-60 26.5t-40 49.5t-14.5 78v373q0 46 14.5 77.5t40 50t60 26.5t74.5 8q38 0 72.5 -8t60.5 -26.5t41.5 -50t15.5 -77.5v-373zM266 506q0 23 -10 30.5t-35 7.5q-23 0 -34 -8t-11 -30v-350
q0 -21 10.5 -29t34.5 -8q25 0 35 8t10 29v350zM60 756v89h323v-89h-323z" />
    <glyph glyph-name="omacron" unicode="&#x14d;" horiz-adv-x="408" 
d="M378 139q0 -45 -13.5 -75t-37 -48t-55.5 -25.5t-68 -7.5q-39 0 -71 7.5t-55 25.5t-35.5 48t-12.5 75v210q0 45 12.5 75t35.5 48t55 25.5t71 7.5q36 0 68 -7.5t55.5 -25.5t37 -48t13.5 -75v-210zM246 338q0 20 -11 27.5t-31 7.5t-31 -7.5t-11 -27.5v-189q0 -19 11 -26.5
t31 -7.5t31 7.5t11 26.5v189zM44 584v89h323v-89h-323z" />
    <glyph glyph-name="Obreve" unicode="&#x14e;" 
d="M411 145q0 -47 -15.5 -78t-41.5 -49.5t-60.5 -26.5t-72.5 -8q-40 0 -74.5 8t-60 26.5t-40 49.5t-14.5 78v373q0 46 14.5 77.5t40 50t60 26.5t74.5 8q38 0 72.5 -8t60.5 -26.5t41.5 -50t15.5 -77.5v-373zM266 506q0 23 -10 30.5t-35 7.5q-23 0 -34 -8t-11 -30v-350
q0 -21 10.5 -29t34.5 -8q25 0 35 8t10 29v350zM384 888q0 -42 -13.5 -73t-36 -51.5t-52 -31t-60.5 -10.5t-60 10.5t-51.5 31t-36 51.5t-13.5 73h80q2 -43 22.5 -66t58.5 -23q78 0 81 89h81z" />
    <glyph glyph-name="obreve" unicode="&#x14f;" horiz-adv-x="408" 
d="M378 139q0 -45 -13.5 -75t-37 -48t-55.5 -25.5t-68 -7.5q-39 0 -71 7.5t-55 25.5t-35.5 48t-12.5 75v210q0 45 12.5 75t35.5 48t55 25.5t71 7.5q36 0 68 -7.5t55.5 -25.5t37 -48t13.5 -75v-210zM246 338q0 20 -11 27.5t-31 7.5t-31 -7.5t-11 -27.5v-189q0 -19 11 -26.5
t31 -7.5t31 7.5t11 26.5v189zM367 716q0 -42 -13.5 -73t-36 -51.5t-52 -31t-60.5 -10.5t-60 10.5t-51.5 31t-36 51.5t-13.5 73h80q2 -43 22.5 -66t58.5 -23q78 0 81 89h81z" />
    <glyph glyph-name="Ohungarumlaut" unicode="&#x150;" 
d="M411 145q0 -47 -15.5 -78t-41.5 -49.5t-60.5 -26.5t-72.5 -8q-40 0 -74.5 8t-60 26.5t-40 49.5t-14.5 78v373q0 46 14.5 77.5t40 50t60 26.5t74.5 8q38 0 72.5 -8t60.5 -26.5t41.5 -50t15.5 -77.5v-373zM266 506q0 23 -10 30.5t-35 7.5q-23 0 -34 -8t-11 -30v-350
q0 -21 10.5 -29t34.5 -8q25 0 35 8t10 29v350zM79 744l119 147l43 -37l-126 -143zM235 744l125 144l44 -36l-133 -141z" />
    <glyph glyph-name="ohungarumlaut" unicode="&#x151;" horiz-adv-x="408" 
d="M378 139q0 -45 -13.5 -75t-37 -48t-55.5 -25.5t-68 -7.5q-39 0 -71 7.5t-55 25.5t-35.5 48t-12.5 75v210q0 45 12.5 75t35.5 48t55 25.5t71 7.5q36 0 68 -7.5t55.5 -25.5t37 -48t13.5 -75v-210zM246 338q0 20 -11 27.5t-31 7.5t-31 -7.5t-11 -27.5v-189q0 -19 11 -26.5
t31 -7.5t31 7.5t11 26.5v189zM63 572l119 147l43 -37l-126 -143zM219 572l125 144l44 -36l-133 -141z" />
    <glyph glyph-name="OE" unicode="&#x152;" horiz-adv-x="560" 
d="M321 0q-22 -9 -47 -13t-53 -4q-40 0 -74.5 8t-60 26.5t-40 49.5t-14.5 78v373q0 46 14.5 77.5t40 50t60 26.5t74.5 8q58 0 97 -16h211v-123h-122v-133h109v-122h-109v-161h128v-125h-214zM266 506q0 23 -10 31t-35 8q-24 0 -34 -8t-10 -31v-350q0 -21 10 -29t34 -8
q23 0 34 7.5t11 27.5v352z" />
    <glyph glyph-name="oe" unicode="&#x153;" horiz-adv-x="629" 
d="M588 8q-24 -9 -65 -16.5t-95 -7.5q-34 0 -64 5.5t-54 17.5q-44 -24 -107 -24q-38 0 -70 7.5t-55 25.5t-35.5 48t-12.5 75v210q0 43 12 72.5t34 48t52.5 26.5t66.5 8q33 0 62.5 -5.5t52.5 -18.5q43 25 109 25q37 0 68.5 -7.5t55 -25.5t37 -48t13.5 -75v-142h-216v-56
q0 -12 6.5 -18.5t17 -10t23.5 -4.5t27 -1q25 0 44 1.5t34.5 4.5t29.5 7.5t29 10.5v-133zM245 321q0 29 -7.5 40t-34.5 11q-26 0 -33.5 -11t-7.5 -40v-155q0 -29 7.5 -40t33.5 -11q20 0 31 7.5t11 26.5v172zM461 341q0 19 -9.5 28.5t-32.5 9.5t-32.5 -9.5t-9.5 -28.5v-59h84
v59z" />
    <glyph glyph-name="Racute" unicode="&#x154;" horiz-adv-x="439" 
d="M230 381q12 0 19.5 7t12 18.5t6 26.5t1.5 31q0 42 -7.5 61.5t-33.5 19.5h-50v-164h52zM264 0v232q0 17 -7 31t-29 14h-50v-277h-140v664h241q39 0 64 -14t39 -36.5t19 -51t5 -57.5q0 -25 -2 -51.5t-9.5 -50t-22.5 -41.5t-40 -26q24 -6 38.5 -19.5t22.5 -31.5t10.5 -39.5
t2.5 -43.5v-202h-142zM124 706v68l231 108v-100z" />
    <glyph glyph-name="racute" unicode="&#x155;" horiz-adv-x="391" 
d="M38 0v477q24 9 63 18.5t103 9.5q35 0 65 -6.5t52.5 -22t35 -41.5t12.5 -65v-63h-118v33q0 18 -10 25.5t-30 7.5q-27 0 -41 -8v-365h-132zM100 534v68l231 108v-100z" />
    <glyph glyph-name="uni0156" unicode="&#x156;" horiz-adv-x="439" 
d="M230 381q12 0 19.5 7t12 18.5t6 26.5t1.5 31q0 42 -7.5 61.5t-33.5 19.5h-50v-164h52zM264 0v232q0 17 -7 31t-29 14h-50v-277h-140v664h241q39 0 64 -14t39 -36.5t19 -51t5 -57.5q0 -25 -2 -51.5t-9.5 -50t-22.5 -41.5t-40 -26q24 -6 38.5 -19.5t22.5 -31.5t10.5 -39.5
t2.5 -43.5v-202h-142zM155 -34h130v-40q0 -35 -9.5 -65.5t-26.5 -53t-41 -36t-53 -14.5v209z" />
    <glyph glyph-name="uni0157" unicode="&#x157;" horiz-adv-x="391" 
d="M38 0v477q24 9 63 18.5t103 9.5q35 0 65 -6.5t52.5 -22t35 -41.5t12.5 -65v-63h-118v33q0 18 -10 25.5t-30 7.5q-27 0 -41 -8v-365h-132zM41 -34h130v-40q0 -35 -9.5 -65.5t-26.5 -53t-41 -36t-53 -14.5v209z" />
    <glyph glyph-name="Rcaron" unicode="&#x158;" horiz-adv-x="439" 
d="M230 381q12 0 19.5 7t12 18.5t6 26.5t1.5 31q0 42 -7.5 61.5t-33.5 19.5h-50v-164h52zM264 0v232q0 17 -7 31t-29 14h-50v-277h-140v664h241q39 0 64 -14t39 -36.5t19 -51t5 -57.5q0 -25 -2 -51.5t-9.5 -50t-22.5 -41.5t-40 -26q24 -6 38.5 -19.5t22.5 -31.5t10.5 -39.5
t2.5 -43.5v-202h-142zM220 703l-180 144l41 51l139 -102l141 102l40 -51z" />
    <glyph glyph-name="rcaron" unicode="&#x159;" horiz-adv-x="391" 
d="M38 0v477q24 9 63 18.5t103 9.5q35 0 65 -6.5t52.5 -22t35 -41.5t12.5 -65v-63h-118v33q0 18 -10 25.5t-30 7.5q-27 0 -41 -8v-365h-132zM196 531l-180 144l41 51l139 -102l141 102l40 -51z" />
    <glyph glyph-name="Sacute" unicode="&#x15a;" horiz-adv-x="410" 
d="M242 185q0 32 -2.5 51t-11.5 31t-27.5 20.5t-49.5 20.5q-67 25 -96 67t-29 114q0 46 8.5 81.5t30 60t57.5 37t92 12.5q36 0 66.5 -7t52.5 -23.5t34.5 -45t12.5 -71.5v-67h-123v52q0 26 -10.5 35t-30.5 9q-26 0 -35.5 -10t-9.5 -42v-17q0 -22 2 -35.5t10.5 -23t24 -17
t42.5 -16.5q48 -17 75.5 -37t41 -45.5t17 -56.5t3.5 -70q0 -50 -7.5 -89t-28.5 -65.5t-57.5 -40.5t-93.5 -14q-41 0 -73.5 8.5t-55 28t-34 50.5t-11.5 75v91h128v-85q0 -23 11 -31t33 -8q25 0 34.5 11t9.5 43v19zM109 706v68l231 108v-100z" />
    <glyph glyph-name="sacute" unicode="&#x15b;" horiz-adv-x="407" 
d="M237 150q0 23 -16 35t-40 20.5t-51.5 17t-51.5 24.5t-40 42.5t-16 71.5q0 46 15.5 74t41 43.5t59 21t69.5 5.5q28 0 57.5 -3.5t54 -15t40.5 -33t16 -58.5v-48h-123v30q0 17 -14.5 20t-27.5 3q-17 0 -31.5 -4.5t-14.5 -27.5q0 -24 20 -37.5t48.5 -23.5t59 -21t52.5 -30
q25 -23 31.5 -50t6.5 -58q0 -50 -13 -82t-37 -50.5t-57.5 -25.5t-75.5 -7q-30 0 -61.5 4t-57 17t-42 37t-16.5 63v57h128v-31q0 -23 13.5 -28t30.5 -5q20 0 31.5 7t11.5 30v16zM108 534v68l231 108v-100z" />
    <glyph glyph-name="Scircumflex" unicode="&#x15c;" horiz-adv-x="410" 
d="M242 185q0 32 -2.5 51t-11.5 31t-27.5 20.5t-49.5 20.5q-67 25 -96 67t-29 114q0 46 8.5 81.5t30 60t57.5 37t92 12.5q36 0 66.5 -7t52.5 -23.5t34.5 -45t12.5 -71.5v-67h-123v52q0 26 -10.5 35t-30.5 9q-26 0 -35.5 -10t-9.5 -42v-17q0 -22 2 -35.5t10.5 -23t24 -17
t42.5 -16.5q48 -17 75.5 -37t41 -45.5t17 -56.5t3.5 -70q0 -50 -7.5 -89t-28.5 -65.5t-57.5 -40.5t-93.5 -14q-41 0 -73.5 8.5t-55 28t-34 50.5t-11.5 75v91h128v-85q0 -23 11 -31t33 -8q25 0 34.5 11t9.5 43v19zM207 842l-136 -119l-45 50l129 135h103l129 -135l-45 -50z
" />
    <glyph glyph-name="scircumflex" unicode="&#x15d;" horiz-adv-x="407" 
d="M237 150q0 23 -16 35t-40 20.5t-51.5 17t-51.5 24.5t-40 42.5t-16 71.5q0 46 15.5 74t41 43.5t59 21t69.5 5.5q28 0 57.5 -3.5t54 -15t40.5 -33t16 -58.5v-48h-123v30q0 17 -14.5 20t-27.5 3q-17 0 -31.5 -4.5t-14.5 -27.5q0 -24 20 -37.5t48.5 -23.5t59 -21t52.5 -30
q25 -23 31.5 -50t6.5 -58q0 -50 -13 -82t-37 -50.5t-57.5 -25.5t-75.5 -7q-30 0 -61.5 4t-57 17t-42 37t-16.5 63v57h128v-31q0 -23 13.5 -28t30.5 -5q20 0 31.5 7t11.5 30v16zM205 670l-136 -119l-45 50l129 135h103l129 -135l-45 -50z" />
    <glyph glyph-name="Scedilla" unicode="&#x15e;" horiz-adv-x="410" 
d="M242 185q0 32 -2.5 51t-11.5 31t-27.5 20.5t-49.5 20.5q-67 25 -96 67t-29 114q0 46 8.5 81.5t30 60t57.5 37t92 12.5q36 0 66.5 -7t52.5 -23.5t34.5 -45t12.5 -71.5v-67h-123v52q0 26 -10.5 35t-30.5 9q-26 0 -35.5 -10t-9.5 -42v-17q0 -22 2 -35.5t10.5 -23t24 -17
t42.5 -16.5q48 -17 75.5 -37t41 -45.5t17 -56.5t3.5 -70q0 -50 -7.5 -89t-28.5 -65.5t-57.5 -40.5t-93.5 -14q-41 0 -73.5 8.5t-55 28t-34 50.5t-11.5 75v91h128v-85q0 -23 11 -31t33 -8q25 0 34.5 11t9.5 43v19zM140 -34h130v-40q0 -35 -9.5 -65.5t-26.5 -53t-41 -36
t-53 -14.5v209z" />
    <glyph glyph-name="scedilla" unicode="&#x15f;" horiz-adv-x="407" 
d="M237 150q0 23 -16 35t-40 20.5t-51.5 17t-51.5 24.5t-40 42.5t-16 71.5q0 46 15.5 74t41 43.5t59 21t69.5 5.5q28 0 57.5 -3.5t54 -15t40.5 -33t16 -58.5v-48h-123v30q0 17 -14.5 20t-27.5 3q-17 0 -31.5 -4.5t-14.5 -27.5q0 -24 20 -37.5t48.5 -23.5t59 -21t52.5 -30
q25 -23 31.5 -50t6.5 -58q0 -50 -13 -82t-37 -50.5t-57.5 -25.5t-75.5 -7q-30 0 -61.5 4t-57 17t-42 37t-16.5 63v57h128v-31q0 -23 13.5 -28t30.5 -5q20 0 31.5 7t11.5 30v16zM133 -34h130v-40q0 -35 -9.5 -65.5t-26.5 -53t-41 -36t-53 -14.5v209z" />
    <glyph glyph-name="Scaron" unicode="&#x160;" horiz-adv-x="410" 
d="M242 185q0 32 -2.5 51t-11.5 31t-27.5 20.5t-49.5 20.5q-67 25 -96 67t-29 114q0 46 8.5 81.5t30 60t57.5 37t92 12.5q36 0 66.5 -7t52.5 -23.5t34.5 -45t12.5 -71.5v-67h-123v52q0 26 -10.5 35t-30.5 9q-26 0 -35.5 -10t-9.5 -42v-17q0 -22 2 -35.5t10.5 -23t24 -17
t42.5 -16.5q48 -17 75.5 -37t41 -45.5t17 -56.5t3.5 -70q0 -50 -7.5 -89t-28.5 -65.5t-57.5 -40.5t-93.5 -14q-41 0 -73.5 8.5t-55 28t-34 50.5t-11.5 75v91h128v-85q0 -23 11 -31t33 -8q25 0 34.5 11t9.5 43v19zM209 703l-180 144l41 51l139 -102l141 102l40 -51z" />
    <glyph glyph-name="scaron" unicode="&#x161;" horiz-adv-x="407" 
d="M237 150q0 23 -16 35t-40 20.5t-51.5 17t-51.5 24.5t-40 42.5t-16 71.5q0 46 15.5 74t41 43.5t59 21t69.5 5.5q28 0 57.5 -3.5t54 -15t40.5 -33t16 -58.5v-48h-123v30q0 17 -14.5 20t-27.5 3q-17 0 -31.5 -4.5t-14.5 -27.5q0 -24 20 -37.5t48.5 -23.5t59 -21t52.5 -30
q25 -23 31.5 -50t6.5 -58q0 -50 -13 -82t-37 -50.5t-57.5 -25.5t-75.5 -7q-30 0 -61.5 4t-57 17t-42 37t-16.5 63v57h128v-31q0 -23 13.5 -28t30.5 -5q20 0 31.5 7t11.5 30v16zM204 531l-180 144l41 51l139 -102l141 102l40 -51z" />
    <glyph glyph-name="uni0162" unicode="&#x162;" horiz-adv-x="371" 
d="M113 0v541h-101v123h347v-123h-102v-541h-144zM121 -34h130v-40q0 -35 -9.5 -65.5t-26.5 -53t-41 -36t-53 -14.5v209z" />
    <glyph glyph-name="uni0163" unicode="&#x163;" horiz-adv-x="275" 
d="M69 0v397h-51v95h51v112h133v-112h54v-95h-54v-397h-133zM73 -34h130v-40q0 -35 -9.5 -65.5t-26.5 -53t-41 -36t-53 -14.5v209z" />
    <glyph glyph-name="Tcaron" unicode="&#x164;" horiz-adv-x="371" 
d="M113 0v541h-101v123h347v-123h-102v-541h-144zM186 703l-180 144l41 51l139 -102l141 102l40 -51z" />
    <glyph glyph-name="tcaron" unicode="&#x165;" horiz-adv-x="418" 
d="M69 0v397h-51v95h51v112h133v-112h54v-95h-54v-397h-133zM275 672h143v-113q0 -38 -10.5 -71t-29.5 -57.5t-45.5 -39.5t-57.5 -16v297z" />
    <glyph glyph-name="Tbar" unicode="&#x166;" horiz-adv-x="371" 
d="M113 0v239h-53v104h53v198h-101v123h347v-123h-102v-198h53v-104h-53v-239h-144z" />
    <glyph glyph-name="tbar" unicode="&#x167;" horiz-adv-x="275" 
d="M69 0v166h-37v104h37v127h-51v95h51v112h133v-112h54v-95h-54v-127h41v-104h-41v-166h-133z" />
    <glyph glyph-name="Utilde" unicode="&#x168;" horiz-adv-x="452" 
d="M270 664h144v-652q-26 -9 -73 -19t-119 -10q-39 0 -73 7.5t-59.5 26.5t-40 49.5t-14.5 77.5v520h145v-509q0 -20 11.5 -28.5t32.5 -8.5q27 0 46 8v538zM64 756v89h323v-89h-323z" />
    <glyph glyph-name="utilde" unicode="&#x169;" horiz-adv-x="422" 
d="M250 492h132v-481q-26 -9 -67.5 -18.5t-109.5 -9.5q-37 0 -68 7.5t-54 25.5t-36 48t-13 75v353h132v-341q0 -20 10 -28t30 -8q15 0 25.5 2t18.5 5v370zM49 584v89h323v-89h-323z" />
    <glyph glyph-name="Umacron" unicode="&#x16a;" horiz-adv-x="452" 
d="M270 664h144v-652q-26 -9 -73 -19t-119 -10q-39 0 -73 7.5t-59.5 26.5t-40 49.5t-14.5 77.5v520h145v-509q0 -20 11.5 -28.5t32.5 -8.5q27 0 46 8v538zM64 756v89h323v-89h-323z" />
    <glyph glyph-name="umacron" unicode="&#x16b;" horiz-adv-x="422" 
d="M250 492h132v-481q-26 -9 -67.5 -18.5t-109.5 -9.5q-37 0 -68 7.5t-54 25.5t-36 48t-13 75v353h132v-341q0 -20 10 -28t30 -8q15 0 25.5 2t18.5 5v370zM49 584v89h323v-89h-323z" />
    <glyph glyph-name="Ubreve" unicode="&#x16c;" horiz-adv-x="452" 
d="M270 664h144v-652q-26 -9 -73 -19t-119 -10q-39 0 -73 7.5t-59.5 26.5t-40 49.5t-14.5 77.5v520h145v-509q0 -20 11.5 -28.5t32.5 -8.5q27 0 46 8v538zM387 888q0 -42 -13.5 -73t-36 -51.5t-52 -31t-60.5 -10.5t-60 10.5t-51.5 31t-36 51.5t-13.5 73h80q2 -43 22.5 -66
t58.5 -23q78 0 81 89h81z" />
    <glyph glyph-name="ubreve" unicode="&#x16d;" horiz-adv-x="422" 
d="M250 492h132v-481q-26 -9 -67.5 -18.5t-109.5 -9.5q-37 0 -68 7.5t-54 25.5t-36 48t-13 75v353h132v-341q0 -20 10 -28t30 -8q15 0 25.5 2t18.5 5v370zM374 716q0 -42 -13.5 -73t-36 -51.5t-52 -31t-60.5 -10.5t-60 10.5t-51.5 31t-36 51.5t-13.5 73h80q2 -43 22.5 -66
t58.5 -23q78 0 81 89h81z" />
    <glyph glyph-name="Uring" unicode="&#x16e;" horiz-adv-x="452" 
d="M270 664h144v-652q-26 -9 -73 -19t-119 -10q-39 0 -73 7.5t-59.5 26.5t-40 49.5t-14.5 77.5v520h145v-509q0 -20 11.5 -28.5t32.5 -8.5q27 0 46 8v538zM329 792q0 -48 -23.5 -72t-80.5 -24q-103 0 -103 96q0 46 24.5 71t78.5 25q57 0 80.5 -25t23.5 -71zM279 792
q0 51 -54 51q-50 0 -50 -51q0 -50 50 -50q54 0 54 50z" />
    <glyph glyph-name="uring" unicode="&#x16f;" horiz-adv-x="422" 
d="M250 492h132v-481q-26 -9 -67.5 -18.5t-109.5 -9.5q-37 0 -68 7.5t-54 25.5t-36 48t-13 75v353h132v-341q0 -20 10 -28t30 -8q15 0 25.5 2t18.5 5v370zM314 620q0 -48 -23.5 -72t-80.5 -24q-103 0 -103 96q0 46 24.5 71t78.5 25q57 0 80.5 -25t23.5 -71zM264 620
q0 51 -54 51q-50 0 -50 -51q0 -50 50 -50q54 0 54 50z" />
    <glyph glyph-name="Uhungarumlaut" unicode="&#x170;" horiz-adv-x="452" 
d="M270 664h144v-652q-26 -9 -73 -19t-119 -10q-39 0 -73 7.5t-59.5 26.5t-40 49.5t-14.5 77.5v520h145v-509q0 -20 11.5 -28.5t32.5 -8.5q27 0 46 8v538zM83 744l119 147l43 -37l-126 -143zM239 744l125 144l44 -36l-133 -141z" />
    <glyph glyph-name="uhungarumlaut" unicode="&#x171;" horiz-adv-x="422" 
d="M250 492h132v-481q-26 -9 -67.5 -18.5t-109.5 -9.5q-37 0 -68 7.5t-54 25.5t-36 48t-13 75v353h132v-341q0 -20 10 -28t30 -8q15 0 25.5 2t18.5 5v370zM68 572l119 147l43 -37l-126 -143zM224 572l125 144l44 -36l-133 -141z" />
    <glyph glyph-name="Uogonek" unicode="&#x172;" horiz-adv-x="452" 
d="M368 -229q-5 -2 -17 -3t-35 -1q-41 0 -66.5 8.5t-39.5 22.5t-19 32.5t-5 38.5q0 43 20.5 67t62.5 43l16 7q-14 -1 -30 -2t-33 -1q-39 0 -73 7.5t-59.5 26.5t-40 49.5t-14.5 77.5v520h145v-509q0 -20 11.5 -28.5t32.5 -8.5q27 0 46 8v538h144v-652q-5 -2 -11 -4.5
t-16.5 -6.5t-26.5 -11t-40 -18q-23 -13 -29 -24.5t-6 -28.5q0 -34 44 -34q19 0 39 5v-119z" />
    <glyph glyph-name="uogonek" unicode="&#x173;" horiz-adv-x="422" 
d="M342 -229q-5 -2 -17 -3t-35 -1q-41 0 -66.5 8.5t-39.5 22.5t-19 32.5t-5 38.5q0 44 20.5 67t62.5 43l13 6q-11 -1 -24 -1.5t-27 -0.5q-37 0 -68 7.5t-54 25.5t-36 48t-13 75v353h132v-341q0 -20 10 -28t30 -8q15 0 25.5 2t18.5 5v370h132v-481q-5 -2 -10.5 -4t-15.5 -6
t-24.5 -10.5t-37.5 -18.5t-29 -24t-6 -29q0 -34 44 -34q19 0 39 5v-119z" />
    <glyph glyph-name="Wcircumflex" unicode="&#x174;" horiz-adv-x="651" 
d="M477 664h142v-427q0 -55 -15 -95t-40 -69t-58 -50.5t-69 -39.5q-33 18 -62 42.5t-49 53.5q-19 -29 -49 -53.5t-64 -42.5q-35 18 -67.5 39t-58 50.5t-40.5 69t-15 95.5v427h146v-428q0 -38 11.5 -56.5t28.5 -29.5q17 11 29 29.5t12 56.5v428h137v-428q0 -38 11.5 -56.5
t28.5 -29.5q18 11 29.5 29.5t11.5 56.5v428zM326 842l-136 -119l-45 50l129 135h103l129 -135l-45 -50z" />
    <glyph glyph-name="wcircumflex" unicode="&#x175;" horiz-adv-x="601" 
d="M439 492h132v-272q0 -54 -13 -93t-35.5 -67.5t-53 -49.5t-64.5 -38q-33 15 -59 37t-46 46q-20 -24 -46 -46t-59 -37q-33 17 -62.5 37.5t-52.5 49.5t-36.5 68t-13.5 93v272h132v-295q0 -37 11 -53.5t25 -26.5q14 9 25.5 25.5t11.5 54.5v295h131v-295q0 -38 11 -54t25 -26
q14 9 25.5 25.5t11.5 54.5v295zM301 670l-136 -119l-45 50l129 135h103l129 -135l-45 -50z" />
    <glyph glyph-name="Ycircumflex" unicode="&#x176;" horiz-adv-x="431" 
d="M144 0v232q-25 16 -46.5 36t-37.5 46t-25.5 58.5t-9.5 73.5v218h147v-221q0 -39 15 -57t29 -28q17 10 31.5 28t14.5 57v221h142v-218q0 -81 -33 -131.5t-83 -82.5v-232h-144zM217 842l-136 -119l-45 50l129 135h103l129 -135l-45 -50z" />
    <glyph glyph-name="ycircumflex" unicode="&#x177;" horiz-adv-x="410" 
d="M245 10q-11 -6 -28 -10t-43 -4q-27 0 -53 6t-46 23t-32.5 47t-12.5 79v341h132v-329q0 -20 9.5 -28t29.5 -8q30 0 44 11v354h132v-587q0 -43 -13 -72t-36.5 -46.5t-55.5 -25t-69 -7.5q-35 0 -64.5 7.5t-51.5 25t-34 46.5t-12 72v39h123v-32q0 -33 39 -33q42 0 42 33v98z
M207 670l-136 -119l-45 50l129 135h103l129 -135l-45 -50z" />
    <glyph glyph-name="Ydieresis" unicode="&#x178;" horiz-adv-x="431" 
d="M144 0v232q-25 16 -46.5 36t-37.5 46t-25.5 58.5t-9.5 73.5v218h147v-221q0 -39 15 -57t29 -28q17 10 31.5 28t14.5 57v221h142v-218q0 -81 -33 -131.5t-83 -82.5v-232h-144zM55 726v133h126v-133h-126zM250 726v133h128v-133h-128z" />
    <glyph glyph-name="Zacute" unicode="&#x179;" horiz-adv-x="399" 
d="M23 0v139l191 402h-181v123h336v-103l-183 -436h183v-125h-346zM104 706v68l231 108v-100z" />
    <glyph glyph-name="zacute" unicode="&#x17a;" horiz-adv-x="377" 
d="M22 0v111l168 274h-152v107h310v-94l-164 -288h171v-110h-333zM93 534v68l231 108v-100z" />
    <glyph glyph-name="Zdotaccent" unicode="&#x17b;" horiz-adv-x="399" 
d="M23 0v139l191 402h-181v123h336v-103l-183 -436h183v-125h-346zM136 726v133h126v-133h-126z" />
    <glyph glyph-name="zdotaccent" unicode="&#x17c;" horiz-adv-x="377" 
d="M22 0v111l168 274h-152v107h310v-94l-164 -288h171v-110h-333zM125 554v133h126v-133h-126z" />
    <glyph glyph-name="Zcaron" unicode="&#x17d;" horiz-adv-x="399" 
d="M23 0v139l191 402h-181v123h336v-103l-183 -436h183v-125h-346zM200 703l-180 144l41 51l139 -102l141 102l40 -51z" />
    <glyph glyph-name="zcaron" unicode="&#x17e;" horiz-adv-x="377" 
d="M22 0v111l168 274h-152v107h310v-94l-164 -288h171v-110h-333zM189 531l-180 144l41 51l139 -102l141 102l40 -51z" />
    <glyph glyph-name="florin" unicode="&#x192;" horiz-adv-x="446" 
d="M-12 -173v118h22q42 0 61.5 15t26.5 59l50 343h-69v105h83l7 33q11 51 28 84t44 52.5t66 27.5t93 8h26v-117h-36q-65 0 -72 -57l-4 -31h86v-105h-101l-52 -357q-8 -54 -24.5 -88.5t-44 -54.5t-67.5 -27.5t-95 -7.5h-28z" />
    <glyph glyph-name="uni0218" unicode="&#x218;" horiz-adv-x="410" 
d="M242 185q0 32 -2.5 51t-11.5 31t-27.5 20.5t-49.5 20.5q-67 25 -96 67t-29 114q0 46 8.5 81.5t30 60t57.5 37t92 12.5q36 0 66.5 -7t52.5 -23.5t34.5 -45t12.5 -71.5v-67h-123v52q0 26 -10.5 35t-30.5 9q-26 0 -35.5 -10t-9.5 -42v-17q0 -22 2 -35.5t10.5 -23t24 -17
t42.5 -16.5q48 -17 75.5 -37t41 -45.5t17 -56.5t3.5 -70q0 -50 -7.5 -89t-28.5 -65.5t-57.5 -40.5t-93.5 -14q-41 0 -73.5 8.5t-55 28t-34 50.5t-11.5 75v91h128v-85q0 -23 11 -31t33 -8q25 0 34.5 11t9.5 43v19zM140 -34h130v-40q0 -35 -9.5 -65.5t-26.5 -53t-41 -36
t-53 -14.5v209z" />
    <glyph glyph-name="uni0219" unicode="&#x219;" horiz-adv-x="407" 
d="M237 150q0 23 -16 35t-40 20.5t-51.5 17t-51.5 24.5t-40 42.5t-16 71.5q0 46 15.5 74t41 43.5t59 21t69.5 5.5q28 0 57.5 -3.5t54 -15t40.5 -33t16 -58.5v-48h-123v30q0 17 -14.5 20t-27.5 3q-17 0 -31.5 -4.5t-14.5 -27.5q0 -24 20 -37.5t48.5 -23.5t59 -21t52.5 -30
q25 -23 31.5 -50t6.5 -58q0 -50 -13 -82t-37 -50.5t-57.5 -25.5t-75.5 -7q-30 0 -61.5 4t-57 17t-42 37t-16.5 63v57h128v-31q0 -23 13.5 -28t30.5 -5q20 0 31.5 7t11.5 30v16zM133 -34h130v-40q0 -35 -9.5 -65.5t-26.5 -53t-41 -36t-53 -14.5v209z" />
    <glyph glyph-name="uni021A" unicode="&#x21a;" horiz-adv-x="371" 
d="M113 0v541h-101v123h347v-123h-102v-541h-144zM121 -34h130v-40q0 -35 -9.5 -65.5t-26.5 -53t-41 -36t-53 -14.5v209z" />
    <glyph glyph-name="uni021B" unicode="&#x21b;" horiz-adv-x="275" 
d="M69 0v397h-51v95h51v112h133v-112h54v-95h-54v-397h-133zM73 -34h130v-40q0 -35 -9.5 -65.5t-26.5 -53t-41 -36t-53 -14.5v209z" />
    <glyph glyph-name="uni0237" unicode="&#x237;" horiz-adv-x="230" 
d="M4 -110q9 -3 20 -3q35 0 35 31v574h130v-586q0 -41 -13 -67.5t-35 -42.5t-52 -22.5t-63 -6.5q-7 0 -12 0.5t-10 0.5v122z" />
    <glyph glyph-name="circumflex" unicode="&#x2c6;" horiz-adv-x="490" 
d="M245 670l-136 -119l-45 50l129 135h103l129 -135l-45 -50z" />
    <glyph glyph-name="caron" unicode="&#x2c7;" horiz-adv-x="489" 
d="M244 531l-180 144l41 51l139 -102l141 102l40 -51z" />
    <glyph glyph-name="breve" unicode="&#x2d8;" horiz-adv-x="451" 
d="M387 716q0 -42 -13.5 -73t-36 -51.5t-52 -31t-60.5 -10.5t-60 10.5t-51.5 31t-36 51.5t-13.5 73h80q2 -43 22.5 -66t58.5 -23q78 0 81 89h81z" />
    <glyph glyph-name="dotaccent" unicode="&#x2d9;" horiz-adv-x="255" 
d="M64 554v133h126v-133h-126z" />
    <glyph glyph-name="ring" unicode="&#x2da;" horiz-adv-x="335" 
d="M271 620q0 -48 -23.5 -72t-80.5 -24q-103 0 -103 96q0 46 24.5 71t78.5 25q57 0 80.5 -25t23.5 -71zM221 620q0 51 -54 51q-50 0 -50 -51q0 -50 50 -50q54 0 54 50z" />
    <glyph glyph-name="ogonek" unicode="&#x2db;" horiz-adv-x="273" 
d="M227 -229q-5 -2 -17 -3t-35 -1q-41 0 -66.5 8.5t-39.5 22.5t-19 32.5t-5 38.5q0 43 20.5 67.5t62.5 42.5l49 21h50l-48 -28q-23 -14 -29.5 -24.5t-5.5 -28.5q0 -34 44 -34q19 0 39 5v-119z" />
    <glyph glyph-name="tilde" unicode="&#x2dc;" horiz-adv-x="414" 
d="M45 584v89h323v-89h-323z" />
    <glyph glyph-name="hungarumlaut" unicode="&#x2dd;" horiz-adv-x="453" 
d="M64 572l119 147l43 -37l-126 -143zM220 572l125 144l44 -36l-133 -141z" />
    <glyph glyph-name="uni0394" unicode="&#x394;" horiz-adv-x="433" 
d="M8 0l207 733l209 -733h-416zM215 339l-52 -214h104z" />
    <glyph glyph-name="uni0394" unicode="&#x2206;" horiz-adv-x="433" 
d="M8 0l207 733l209 -733h-416zM215 339l-52 -214h104z" />
    <glyph glyph-name="uni03A9" unicode="&#x3a9;" horiz-adv-x="454" 
d="M242 0v136q14 13 22 34.5t8 56.5v280q0 22 -12 30t-33 8q-22 0 -33.5 -8t-11.5 -30v-280q0 -35 7.5 -56.5t21.5 -34.5v-136h-176v125h93q-48 30 -69.5 82.5t-21.5 127.5v183q0 46 15 77.5t41 50t60.5 26.5t73.5 8q38 0 72.5 -8t60.5 -26.5t41 -50t15 -77.5v-183
q0 -75 -21.5 -127.5t-69.5 -82.5h93v-125h-176z" />
    <glyph glyph-name="uni03A9" unicode="&#x2126;" horiz-adv-x="454" 
d="M242 0v136q14 13 22 34.5t8 56.5v280q0 22 -12 30t-33 8q-22 0 -33.5 -8t-11.5 -30v-280q0 -35 7.5 -56.5t21.5 -34.5v-136h-176v125h93q-48 30 -69.5 82.5t-21.5 127.5v183q0 46 15 77.5t41 50t60.5 26.5t73.5 8q38 0 72.5 -8t60.5 -26.5t41 -50t15 -77.5v-183
q0 -75 -21.5 -127.5t-69.5 -82.5h93v-125h-176z" />
    <glyph glyph-name="pi" unicode="&#x3c0;" horiz-adv-x="427" 
d="M254 0v368h-84v-368h-132v492h351v-492h-135z" />
    <glyph glyph-name="Wgrave" unicode="&#x1e80;" horiz-adv-x="651" 
d="M477 664h142v-427q0 -55 -15 -95t-40 -69t-58 -50.5t-69 -39.5q-33 18 -62 42.5t-49 53.5q-19 -29 -49 -53.5t-64 -42.5q-35 18 -67.5 39t-58 50.5t-40.5 69t-15 95.5v427h146v-428q0 -38 11.5 -56.5t28.5 -29.5q17 11 29 29.5t12 56.5v428h137v-428q0 -38 11.5 -56.5
t28.5 -29.5q18 11 29.5 29.5t11.5 56.5v428zM190 782v100l231 -108v-68z" />
    <glyph glyph-name="wgrave" unicode="&#x1e81;" horiz-adv-x="601" 
d="M439 492h132v-272q0 -54 -13 -93t-35.5 -67.5t-53 -49.5t-64.5 -38q-33 15 -59 37t-46 46q-20 -24 -46 -46t-59 -37q-33 17 -62.5 37.5t-52.5 49.5t-36.5 68t-13.5 93v272h132v-295q0 -37 11 -53.5t25 -26.5q14 9 25.5 25.5t11.5 54.5v295h131v-295q0 -38 11 -54t25 -26
q14 9 25.5 25.5t11.5 54.5v295zM165 610v100l231 -108v-68z" />
    <glyph glyph-name="Wacute" unicode="&#x1e82;" horiz-adv-x="651" 
d="M477 664h142v-427q0 -55 -15 -95t-40 -69t-58 -50.5t-69 -39.5q-33 18 -62 42.5t-49 53.5q-19 -29 -49 -53.5t-64 -42.5q-35 18 -67.5 39t-58 50.5t-40.5 69t-15 95.5v427h146v-428q0 -38 11.5 -56.5t28.5 -29.5q17 11 29 29.5t12 56.5v428h137v-428q0 -38 11.5 -56.5
t28.5 -29.5q18 11 29.5 29.5t11.5 56.5v428zM230 706v68l231 108v-100z" />
    <glyph glyph-name="wacute" unicode="&#x1e83;" horiz-adv-x="601" 
d="M439 492h132v-272q0 -54 -13 -93t-35.5 -67.5t-53 -49.5t-64.5 -38q-33 15 -59 37t-46 46q-20 -24 -46 -46t-59 -37q-33 17 -62.5 37.5t-52.5 49.5t-36.5 68t-13.5 93v272h132v-295q0 -37 11 -53.5t25 -26.5q14 9 25.5 25.5t11.5 54.5v295h131v-295q0 -38 11 -54t25 -26
q14 9 25.5 25.5t11.5 54.5v295zM205 534v68l231 108v-100z" />
    <glyph glyph-name="Wdieresis" unicode="&#x1e84;" horiz-adv-x="651" 
d="M477 664h142v-427q0 -55 -15 -95t-40 -69t-58 -50.5t-69 -39.5q-33 18 -62 42.5t-49 53.5q-19 -29 -49 -53.5t-64 -42.5q-35 18 -67.5 39t-58 50.5t-40.5 69t-15 95.5v427h146v-428q0 -38 11.5 -56.5t28.5 -29.5q17 11 29 29.5t12 56.5v428h137v-428q0 -38 11.5 -56.5
t28.5 -29.5q18 11 29.5 29.5t11.5 56.5v428zM164 726v133h126v-133h-126zM359 726v133h128v-133h-128z" />
    <glyph glyph-name="wdieresis" unicode="&#x1e85;" horiz-adv-x="601" 
d="M439 492h132v-272q0 -54 -13 -93t-35.5 -67.5t-53 -49.5t-64.5 -38q-33 15 -59 37t-46 46q-20 -24 -46 -46t-59 -37q-33 17 -62.5 37.5t-52.5 49.5t-36.5 68t-13.5 93v272h132v-295q0 -37 11 -53.5t25 -26.5q14 9 25.5 25.5t11.5 54.5v295h131v-295q0 -38 11 -54t25 -26
q14 9 25.5 25.5t11.5 54.5v295zM139 554v133h126v-133h-126zM334 554v133h128v-133h-128z" />
    <glyph glyph-name="Ygrave" unicode="&#x1ef2;" horiz-adv-x="431" 
d="M144 0v232q-25 16 -46.5 36t-37.5 46t-25.5 58.5t-9.5 73.5v218h147v-221q0 -39 15 -57t29 -28q17 10 31.5 28t14.5 57v221h142v-218q0 -81 -33 -131.5t-83 -82.5v-232h-144zM80 782v100l231 -108v-68z" />
    <glyph glyph-name="ygrave" unicode="&#x1ef3;" horiz-adv-x="410" 
d="M245 10q-11 -6 -28 -10t-43 -4q-27 0 -53 6t-46 23t-32.5 47t-12.5 79v341h132v-329q0 -20 9.5 -28t29.5 -8q30 0 44 11v354h132v-587q0 -43 -13 -72t-36.5 -46.5t-55.5 -25t-69 -7.5q-35 0 -64.5 7.5t-51.5 25t-34 46.5t-12 72v39h123v-32q0 -33 39 -33q42 0 42 33v98z
M69 610v100l231 -108v-68z" />
    <glyph glyph-name="endash" unicode="&#x2013;" horiz-adv-x="490" 
d="M41 256v104h408v-104h-408z" />
    <glyph glyph-name="emdash" unicode="&#x2014;" horiz-adv-x="631" 
d="M20 256v104h591v-104h-591z" />
    <glyph glyph-name="quoteleft" unicode="&#x2018;" horiz-adv-x="226" 
d="M41 672h143q0 -75 0.5 -148.5t0.5 -148.5q-33 1 -59.5 16t-45 39.5t-29 57.5t-10.5 71v113z" />
    <glyph glyph-name="quoteright" unicode="&#x2019;" horiz-adv-x="226" 
d="M42 672h143v-113q0 -38 -10.5 -71t-29.5 -57.5t-45.5 -39.5t-57.5 -16v297z" />
    <glyph glyph-name="quotesinglbase" unicode="&#x201a;" horiz-adv-x="226" 
d="M42 151h143v-113q0 -38 -10.5 -71t-29.5 -57.5t-45.5 -39.5t-57.5 -16v297z" />
    <glyph glyph-name="quotedblleft" unicode="&#x201c;" horiz-adv-x="452" 
d="M41 672h143q0 -75 0.5 -148.5t0.5 -148.5q-33 1 -59.5 16t-45 39.5t-29 57.5t-10.5 71v113zM267 672h143q0 -75 0.5 -148.5t0.5 -148.5q-33 1 -59.5 16t-45 39.5t-29 57.5t-10.5 71v113z" />
    <glyph glyph-name="quotedblright" unicode="&#x201d;" horiz-adv-x="452" 
d="M42 672h143v-113q0 -38 -10.5 -71t-29.5 -57.5t-45.5 -39.5t-57.5 -16v297zM268 672h143v-113q0 -38 -10.5 -71t-29.5 -57.5t-45.5 -39.5t-57.5 -16v297z" />
    <glyph glyph-name="quotedblbase" unicode="&#x201e;" horiz-adv-x="452" 
d="M42 151h143v-113q0 -38 -10.5 -71t-29.5 -57.5t-45.5 -39.5t-57.5 -16v297zM268 151h143v-113q0 -38 -10.5 -71t-29.5 -57.5t-45.5 -39.5t-57.5 -16v297z" />
    <glyph glyph-name="dagger" unicode="&#x2020;" horiz-adv-x="358" 
d="M129 0v432h-91v83h91v149h106v-149h84v-83h-84v-432h-106z" />
    <glyph glyph-name="daggerdbl" unicode="&#x2021;" horiz-adv-x="358" 
d="M129 0v149h-91v83h91v200h-91v83h91v149h106v-149h84v-83h-84v-200h84v-83h-84v-149h-106z" />
    <glyph glyph-name="bullet" unicode="&#x2022;" horiz-adv-x="425" 
d="M378 343q0 -31 -13 -57.5t-35.5 -45.5t-52.5 -30t-64 -11q-35 0 -65.5 11t-53 30t-35 45.5t-12.5 57.5q0 32 12.5 58.5t35 46t53 30t65.5 10.5q34 0 64 -10.5t52.5 -30t35.5 -46t13 -58.5z" />
    <glyph glyph-name="ellipsis" unicode="&#x2026;" horiz-adv-x="1325" 
d="M61 0v151h143v-151h-143zM591 0v151h143v-151h-143zM1121 0v151h143v-151h-143z" />
    <glyph glyph-name="perthousand" unicode="&#x2030;" horiz-adv-x="735" 
d="M242 415q0 -46 -28.5 -63.5t-67.5 -17.5q-21 0 -38.5 4t-30.5 13t-20.5 24.5t-7.5 39.5v187q0 46 27.5 63.5t69.5 17.5q39 0 67.5 -17.5t28.5 -63.5v-187zM156 593q0 7 -10 7q-11 0 -11 -7v-169q0 -7 11 -7q10 0 10 7v169zM25 -20l380 704h87l-382 -704h-85zM490 62
q0 -46 -28.5 -63.5t-67.5 -17.5q-21 0 -38.5 4t-30.5 13t-20.5 24.5t-7.5 39.5v187q0 46 27.5 63.5t69.5 17.5q39 0 67.5 -17.5t28.5 -63.5v-187zM404 240q0 7 -10 7q-11 0 -11 -7v-169q0 -7 11 -7q10 0 10 7v169zM704 62q0 -46 -28.5 -63.5t-67.5 -17.5q-21 0 -38.5 4
t-30.5 13t-20.5 24.5t-7.5 39.5v187q0 46 27.5 63.5t69.5 17.5q39 0 67.5 -17.5t28.5 -63.5v-187zM618 240q0 7 -10 7q-11 0 -11 -7v-169q0 -7 11 -7q10 0 10 7v169z" />
    <glyph glyph-name="guilsinglleft" unicode="&#x2039;" horiz-adv-x="245" 
d="M20 317l142 174l62 -67l-94 -107l94 -107l-62 -65z" />
    <glyph glyph-name="guilsinglright" unicode="&#x203a;" horiz-adv-x="245" 
d="M20 210l95 107l-95 107l61 67l143 -174l-143 -172z" />
    <glyph glyph-name="fraction" unicode="&#x2044;" horiz-adv-x="151" 
d="M-158 -20l380 704h87l-382 -704h-85z" />
    <glyph glyph-name="uni2070" unicode="&#x2070;" horiz-adv-x="254" 
d="M223 415q0 -46 -28.5 -63.5t-67.5 -17.5q-21 0 -38.5 4t-30.5 13t-20.5 24.5t-7.5 39.5v187q0 46 27.5 63.5t69.5 17.5q39 0 67.5 -17.5t28.5 -63.5v-187zM137 593q0 7 -10 7q-11 0 -11 -7v-169q0 -7 11 -7q10 0 10 7v169z" />
    <glyph glyph-name="uni2074" unicode="&#x2074;" horiz-adv-x="254" 
d="M142 343v56h-116v80l82 196h82l-78 -202h32v53h78v-183h-80z" />
    <glyph glyph-name="uni2075" unicode="&#x2075;" horiz-adv-x="246" 
d="M214 415q0 -47 -27.5 -64t-68.5 -17q-39 0 -63 17t-24 64v30h76v-23q0 -7 11 -7q10 0 10 7v47q0 10 -2 12.5t-10 2.5h-80l12 191h156v-74h-79l-3 -59q9 3 16 3.5t16 0.5q60 0 60 -76v-55z" />
    <glyph glyph-name="uni2076" unicode="&#x2076;" horiz-adv-x="254" 
d="M224 412q0 -44 -28.5 -61t-68.5 -17q-41 0 -69 17t-28 61v190q0 46 27.5 63.5t69.5 17.5q39 0 65.5 -17.5t26.5 -63.5v-20h-82v15q0 7 -10 7q-11 0 -11 -7v-50q8 4 28 4q13 0 27.5 -3t26 -11.5t19 -23.5t7.5 -40v-61zM137 480q0 7 -10 7q-3 0 -11 -2v-65q0 -6 11 -6
q10 0 10 6v60z" />
    <glyph glyph-name="uni2077" unicode="&#x2077;" horiz-adv-x="225" 
d="M54 343q0 39 5 77.5t13 72.5t19 62t23 46h-90v74h174v-61q-56 -96 -61 -271h-83z" />
    <glyph glyph-name="uni2078" unicode="&#x2078;" horiz-adv-x="252" 
d="M222 415q0 -47 -27.5 -64t-68.5 -17q-21 0 -38.5 4t-30.5 13t-20.5 24.5t-7.5 39.5v25q0 21 9 42.5t29 29.5q-21 9 -28 31.5t-7 44.5v14q0 46 26 63.5t68 17.5t68 -17.5t26 -63.5v-14q0 -22 -8 -44.5t-28 -31.5q21 -8 29.5 -29.5t8.5 -42.5v-25zM136 463q0 8 -1.5 14
t-8.5 7q-7 -1 -9 -7t-2 -14v-40q0 -7 11 -7q10 0 10 7v40zM136 595q0 7 -10 7q-11 0 -11 -7v-36q0 -6 2 -11.5t9 -6.5q7 1 8.5 6.5t1.5 11.5v36z" />
    <glyph glyph-name="uni2079" unicode="&#x2079;" horiz-adv-x="252" 
d="M136 474q-5 -2 -11 -3t-17 -1q-14 0 -28 3t-25.5 11.5t-19 24t-7.5 39.5v57q0 44 28.5 61t68.5 17q41 0 69 -17t28 -61v-190q0 -24 -7.5 -39.5t-20.5 -24.5t-30.5 -13t-38.5 -4q-39 0 -65.5 17.5t-26.5 63.5v25h82v-18q0 -7 10 -7q11 0 11 7v52zM136 597q0 6 -11 6
q-10 0 -10 -6v-55q0 -7 10 -7q7 0 11 2v60z" />
    <glyph glyph-name="uni2080" unicode="&#x2080;" horiz-adv-x="254" 
d="M223 62q0 -46 -28.5 -63.5t-67.5 -17.5q-21 0 -38.5 4t-30.5 13t-20.5 24.5t-7.5 39.5v187q0 46 27.5 63.5t69.5 17.5q39 0 67.5 -17.5t28.5 -63.5v-187zM137 240q0 7 -10 7q-11 0 -11 -7v-169q0 -7 11 -7q10 0 10 7v169z" />
    <glyph glyph-name="uni2081" unicode="&#x2081;" horiz-adv-x="166" 
d="M48 -10v247q0 7 -10 7q-3 0 -11 -2v83q3 0 6 0.5t6 0.5q39 0 67 -17.5t28 -63.5v-255h-86z" />
    <glyph glyph-name="uni2082" unicode="&#x2082;" horiz-adv-x="244" 
d="M32 -10v96q0 28 7.5 53t37.5 39q20 9 36 16t16 21v37q0 9 -11 9q-10 0 -10 -7v-31h-73v34q0 43 24 58t61 15q55 0 73.5 -22t18.5 -72q0 -46 -12.5 -68t-42.5 -36q-14 -7 -26.5 -12.5t-12.5 -22.5v-33h91v-74h-177z" />
    <glyph glyph-name="uni2083" unicode="&#x2083;" horiz-adv-x="241" 
d="M211 62q0 -47 -27.5 -64t-68.5 -17q-39 0 -63 17t-24 64v30h76v-24q0 -7 11 -7q10 0 10 7v41q0 8 -2 15t-10 7h-20v57h20q8 0 10 6.5t2 14.5v35q0 7 -10 7q-11 0 -11 -7v-24h-76v29q0 47 24 64t63 17q42 0 68 -17.5t26 -63.5v-14q0 -22 -8 -44.5t-28 -31.5
q21 -8 29.5 -29.5t8.5 -42.5v-25z" />
    <glyph glyph-name="uni2084" unicode="&#x2084;" horiz-adv-x="254" 
d="M142 -10v56h-116v80l82 196h82l-78 -202h32v53h78v-183h-80z" />
    <glyph glyph-name="uni2085" unicode="&#x2085;" horiz-adv-x="246" 
d="M214 62q0 -47 -27.5 -64t-68.5 -17q-39 0 -63 17t-24 64v30h76v-23q0 -7 11 -7q10 0 10 7v47q0 10 -2 12.5t-10 2.5h-80l12 191h156v-74h-79l-3 -59q9 3 16 3.5t16 0.5q60 0 60 -76v-55z" />
    <glyph glyph-name="uni2086" unicode="&#x2086;" horiz-adv-x="254" 
d="M224 59q0 -44 -28.5 -61t-68.5 -17q-41 0 -69 17t-28 61v190q0 46 27.5 63.5t69.5 17.5q39 0 65.5 -17.5t26.5 -63.5v-20h-82v15q0 7 -10 7q-11 0 -11 -7v-50q8 4 28 4q13 0 27.5 -3t26 -11.5t19 -23.5t7.5 -40v-61zM137 127q0 7 -10 7q-3 0 -11 -2v-65q0 -6 11 -6
q10 0 10 6v60z" />
    <glyph glyph-name="uni2087" unicode="&#x2087;" horiz-adv-x="225" 
d="M54 -10q0 39 5 77.5t13 72.5t19 62t23 46h-90v74h174v-61q-56 -96 -61 -271h-83z" />
    <glyph glyph-name="uni2088" unicode="&#x2088;" horiz-adv-x="252" 
d="M222 62q0 -47 -27.5 -64t-68.5 -17q-21 0 -38.5 4t-30.5 13t-20.5 24.5t-7.5 39.5v25q0 21 9 42.5t29 29.5q-21 9 -28 31.5t-7 44.5v14q0 46 26 63.5t68 17.5t68 -17.5t26 -63.5v-14q0 -22 -8 -44.5t-28 -31.5q21 -8 29.5 -29.5t8.5 -42.5v-25zM136 110q0 8 -1.5 14
t-8.5 7q-7 -1 -9 -7t-2 -14v-40q0 -7 11 -7q10 0 10 7v40zM136 242q0 7 -10 7q-11 0 -11 -7v-36q0 -6 2 -11.5t9 -6.5q7 1 8.5 6.5t1.5 11.5v36z" />
    <glyph glyph-name="uni2089" unicode="&#x2089;" horiz-adv-x="252" 
d="M136 121q-5 -2 -11 -3t-17 -1q-14 0 -28 3t-25.5 11.5t-19 24t-7.5 39.5v57q0 44 28.5 61t68.5 17q41 0 69 -17t28 -61v-190q0 -24 -7.5 -39.5t-20.5 -24.5t-30.5 -13t-38.5 -4q-39 0 -65.5 17.5t-26.5 63.5v25h82v-18q0 -7 10 -7q11 0 11 7v52zM136 244q0 6 -11 6
q-10 0 -10 -6v-55q0 -7 10 -7q7 0 11 2v60z" />
    <glyph glyph-name="Euro" unicode="&#x20ac;" horiz-adv-x="367" 
d="M336 -9q-11 -4 -34 -6t-52 -2q-41 0 -75.5 8t-59.5 26.5t-39.5 49.5t-14.5 78v92h-40l9 65h31v65h-40l9 64h31v87q0 46 14.5 77.5t39.5 50t59.5 26.5t75.5 8q37 0 78 -9l-21 -134q-11 5 -25.5 6.5t-31.5 1.5q-21 0 -32.5 -8.5t-11.5 -29.5v-76h86l-11 -64h-75v-65h66
l-10 -65h-56v-81q0 -20 11.5 -28.5t32.5 -8.5q31 0 51.5 3.5t34.5 9.5v-141z" />
    <glyph glyph-name="trademark" unicode="&#x2122;" horiz-adv-x="549" 
d="M79 353v260h-48v59h167v-59h-49v-260h-70zM442 353v241q0 18 -19 18q-12 0 -19 -4v-255h-66v252q-4 7 -19 7q-11 0 -20 -3v-256h-70v313q13 5 34.5 9.5t50.5 4.5q32 0 50 -15q7 6 22 10.5t38 4.5q38 0 63.5 -17t25.5 -61v-249h-71z" />
    <glyph glyph-name="onethird" unicode="&#x2153;" horiz-adv-x="549" 
d="M95 343v247q0 7 -10 7q-3 0 -11 -2v83q3 0 6 0.5t6 0.5q39 0 67 -17.5t28 -63.5v-255h-86zM30 -20l380 704h87l-382 -704h-85zM518 62q0 -47 -27.5 -64t-68.5 -17q-39 0 -63 17t-24 64v30h76v-24q0 -7 11 -7q10 0 10 7v41q0 8 -2 15t-10 7h-20v57h20q8 0 10 6.5t2 14.5
v35q0 7 -10 7q-11 0 -11 -7v-24h-76v29q0 47 24 64t63 17q42 0 68 -17.5t26 -63.5v-14q0 -22 -8 -44.5t-28 -31.5q21 -8 29.5 -29.5t8.5 -42.5v-25z" />
    <glyph glyph-name="twothirds" unicode="&#x2154;" horiz-adv-x="540" 
d="M32 343v96q0 28 7.5 53t37.5 39q20 9 36 16t16 21v37q0 9 -11 9q-10 0 -10 -7v-31h-73v34q0 43 24 58t61 15q55 0 73.5 -22t18.5 -72q0 -46 -12.5 -68t-42.5 -36q-14 -7 -26.5 -12.5t-12.5 -22.5v-33h91v-74h-177zM33 -20l380 704h87l-382 -704h-85zM508 62
q0 -47 -27.5 -64t-68.5 -17q-39 0 -63 17t-24 64v30h76v-24q0 -7 11 -7q10 0 10 7v41q0 8 -2 15t-10 7h-20v57h20q8 0 10 6.5t2 14.5v35q0 7 -10 7q-11 0 -11 -7v-24h-76v29q0 47 24 64t63 17q42 0 68 -17.5t26 -63.5v-14q0 -22 -8 -44.5t-28 -31.5q21 -8 29.5 -29.5
t8.5 -42.5v-25z" />
    <glyph glyph-name="oneeighth" unicode="&#x215b;" horiz-adv-x="560" 
d="M95 343v247q0 7 -10 7q-3 0 -11 -2v83q3 0 6 0.5t6 0.5q39 0 67 -17.5t28 -63.5v-255h-86zM30 -20l380 704h87l-382 -704h-85zM529 62q0 -47 -27.5 -64t-68.5 -17q-21 0 -38.5 4t-30.5 13t-20.5 24.5t-7.5 39.5v25q0 21 9 42.5t29 29.5q-21 9 -28 31.5t-7 44.5v14
q0 46 26 63.5t68 17.5t68 -17.5t26 -63.5v-14q0 -22 -8 -44.5t-28 -31.5q21 -8 29.5 -29.5t8.5 -42.5v-25zM443 110q0 8 -1.5 14t-8.5 7q-7 -1 -9 -7t-2 -14v-40q0 -7 11 -7q10 0 10 7v40zM443 242q0 7 -10 7q-11 0 -11 -7v-36q0 -6 2 -11.5t9 -6.5q7 1 8.5 6.5t1.5 11.5v36
z" />
    <glyph glyph-name="threeeighths" unicode="&#x215c;" horiz-adv-x="540" 
d="M223 415q0 -47 -27.5 -64t-68.5 -17q-39 0 -63 17t-24 64v30h76v-24q0 -7 11 -7q10 0 10 7v41q0 8 -2 15t-10 7h-20v57h20q8 0 10 6.5t2 14.5v35q0 7 -10 7q-11 0 -11 -7v-24h-76v29q0 47 24 64t63 17q42 0 68 -17.5t26 -63.5v-14q0 -22 -8 -44.5t-28 -31.5
q21 -8 29.5 -29.5t8.5 -42.5v-25zM34 -20l380 704h87l-382 -704h-85zM509 62q0 -47 -27.5 -64t-68.5 -17q-21 0 -38.5 4t-30.5 13t-20.5 24.5t-7.5 39.5v25q0 21 9 42.5t29 29.5q-21 9 -28 31.5t-7 44.5v14q0 46 26 63.5t68 17.5t68 -17.5t26 -63.5v-14q0 -22 -8 -44.5
t-28 -31.5q21 -8 29.5 -29.5t8.5 -42.5v-25zM423 110q0 8 -1.5 14t-8.5 7q-7 -1 -9 -7t-2 -14v-40q0 -7 11 -7q10 0 10 7v40zM423 242q0 7 -10 7q-11 0 -11 -7v-36q0 -6 2 -11.5t9 -6.5q7 1 8.5 6.5t1.5 11.5v36z" />
    <glyph glyph-name="fiveeighths" unicode="&#x215d;" horiz-adv-x="540" 
d="M221 415q0 -47 -27.5 -64t-68.5 -17q-39 0 -63 17t-24 64v30h76v-23q0 -7 11 -7q10 0 10 7v47q0 10 -2 12.5t-10 2.5h-80l12 191h156v-74h-79l-3 -59q9 3 16 3.5t16 0.5q60 0 60 -76v-55zM32 -20l380 704h87l-382 -704h-85zM509 62q0 -47 -27.5 -64t-68.5 -17
q-21 0 -38.5 4t-30.5 13t-20.5 24.5t-7.5 39.5v25q0 21 9 42.5t29 29.5q-21 9 -28 31.5t-7 44.5v14q0 46 26 63.5t68 17.5t68 -17.5t26 -63.5v-14q0 -22 -8 -44.5t-28 -31.5q21 -8 29.5 -29.5t8.5 -42.5v-25zM423 110q0 8 -1.5 14t-8.5 7q-7 -1 -9 -7t-2 -14v-40q0 -7 11 -7
q10 0 10 7v40zM423 242q0 7 -10 7q-11 0 -11 -7v-36q0 -6 2 -11.5t9 -6.5q7 1 8.5 6.5t1.5 11.5v36z" />
    <glyph glyph-name="seveneighths" unicode="&#x215e;" horiz-adv-x="550" 
d="M102 343q0 39 5 77.5t13 72.5t19 62t23 46h-90v74h174v-61q-56 -96 -61 -271h-83zM30 -20l380 704h87l-382 -704h-85zM519 62q0 -47 -27.5 -64t-68.5 -17q-21 0 -38.5 4t-30.5 13t-20.5 24.5t-7.5 39.5v25q0 21 9 42.5t29 29.5q-21 9 -28 31.5t-7 44.5v14q0 46 26 63.5
t68 17.5t68 -17.5t26 -63.5v-14q0 -22 -8 -44.5t-28 -31.5q21 -8 29.5 -29.5t8.5 -42.5v-25zM433 110q0 8 -1.5 14t-8.5 7q-7 -1 -9 -7t-2 -14v-40q0 -7 11 -7q10 0 10 7v40zM433 242q0 7 -10 7q-11 0 -11 -7v-36q0 -6 2 -11.5t9 -6.5q7 1 8.5 6.5t1.5 11.5v36z" />
    <glyph glyph-name="partialdiff" unicode="&#x2202;" horiz-adv-x="474" 
d="M193 675q11 2 22.5 3.5t23.5 1.5q40 0 77 -15.5t65.5 -49t45.5 -86t17 -125.5q0 -83 -11 -159t-37 -134t-70.5 -93t-110.5 -35q-51 0 -86.5 15t-57.5 42.5t-31.5 67.5t-9.5 91q0 55 13.5 99t38 74t58 46t74.5 16q14 0 31.5 -3t35 -10.5t32.5 -21t24 -33.5q3 22 3 48
q0 31 -7.5 58.5t-22 48t-36.5 32t-52 11.5q-14 0 -29 -3v114zM322 242q-8 36 -30.5 57t-70.5 21q-40 0 -63 -31t-23 -91q0 -51 22.5 -75.5t57.5 -24.5q45 0 72 33t35 111z" />
    <glyph glyph-name="product" unicode="&#x220f;" horiz-adv-x="467" 
d="M311 -233v802h-157v-802h-116v897h391v-897h-118z" />
    <glyph glyph-name="summation" unicode="&#x2211;" horiz-adv-x="447" 
d="M41 -182v81l184 342l-184 341v82h364v-112h-205l154 -311l-154 -313h205v-110h-364z" />
    <glyph glyph-name="minus" unicode="&#x2212;" horiz-adv-x="561" 
d="M43 295v97h474v-97h-474z" />
    <glyph glyph-name="radical" unicode="&#x221a;" horiz-adv-x="489" 
d="M174 0l-96 284h-54v82h155l49 -195l126 493h123l-193 -664h-110z" />
    <glyph glyph-name="infinity" unicode="&#x221e;" horiz-adv-x="608" 
d="M304 257q-21 -38 -57.5 -60t-93.5 -22q-30 0 -56 10.5t-45.5 31t-30.5 51.5t-11 72q0 42 11 73t30.5 52t45.5 31.5t56 10.5q57 0 91.5 -22.5t59.5 -61.5q25 39 59.5 61.5t91.5 22.5q29 0 55 -10.5t45.5 -31.5t31 -52t11.5 -73q0 -41 -11 -72t-30.5 -51.5t-45.5 -31
t-56 -10.5q-57 0 -93 22t-58 60zM263 337q-18 30 -39 50t-53 20q-36 0 -54 -19t-18 -48q0 -34 17 -51.5t55 -17.5q35 0 57 20.5t35 45.5zM345 337q12 -26 34 -46t57 -20q38 0 55.5 17.5t17.5 51.5q0 29 -18 48t-55 19q-32 0 -53 -20t-38 -50z" />
    <glyph glyph-name="integral" unicode="&#x222b;" horiz-adv-x="330" 
d="M9 -233v115h31q23 0 36 12.5t13 41.5v566q0 88 50.5 129t150.5 41h31v-116h-31q-23 0 -36 -12.5t-13 -41.5v-566q0 -88 -50.5 -128.5t-150.5 -40.5h-31z" />
    <glyph glyph-name="approxequal" unicode="&#x2248;" horiz-adv-x="591" 
d="M546 185q-32 -35 -66.5 -51t-82.5 -16q-30 0 -58 9t-54.5 19.5t-52.5 19.5t-52 9q-42 0 -74 -19t-63 -58v105q22 26 53.5 46.5t79.5 20.5q36 0 67 -9t58.5 -19.5t52.5 -19t50 -8.5q42 0 76.5 16.5t65.5 58.5v-104zM547 424q-32 -35 -66.5 -51t-82.5 -16q-30 0 -58 9
t-54.5 19.5t-52.5 19.5t-52 9q-42 0 -74 -19t-63 -58v105q22 26 53.5 46.5t79.5 20.5q36 0 67 -9t58.5 -19.5t52.5 -19t50 -8.5q42 0 76.5 16.5t65.5 58.5v-104z" />
    <glyph glyph-name="notequal" unicode="&#x2260;" horiz-adv-x="550" 
d="M217 194l-141 -214h-65l140 214h-112v98h175l67 102h-242v97h306l126 193h68l-127 -193h99v-97h-163l-67 -102h230v-98h-294z" />
    <glyph glyph-name="lessequal" unicode="&#x2264;" horiz-adv-x="561" 
d="M43 294v98l474 198v-108l-364 -139l364 -140v-107zM43 -24v97h474v-97h-474z" />
    <glyph glyph-name="greaterequal" unicode="&#x2265;" horiz-adv-x="561" 
d="M43 96v107l364 140l-364 139v108l474 -198v-98zM43 -24v97h474v-97h-474z" />
    <glyph glyph-name="lozenge" unicode="&#x25ca;" horiz-adv-x="534" 
d="M199 0l-168 332l168 332h146l158 -332l-158 -332h-146zM368 332l-98 206l-99 -206l99 -205z" />
    <glyph glyph-name="uniF8FF" unicode="&#xf8ff;" horiz-adv-x="196" 
 />
    <glyph glyph-name="glyph398" horiz-adv-x="0" 
 />
    </font>
</defs>
</svg>
