<?xml version="1.0" standalone="no"?>
<!DOCTYPE svg PUBLIC "-//W3C//DTD SVG 1.1//EN" "http://www.w3.org/Graphics/SVG/1.1/DTD/svg11.dtd" >
<svg>
<metadata>
Created by FontForge 20120731 at Wed Aug  9 22:10:06 2023
 By www
Copyright (c) 2009 Typodermic Fonts. This font is not freely distributable. Visit typodermic.com for more information.
</metadata>
<defs>
<font id="MaquiW00-Ultralight" horiz-adv-x="388" >
  <font-face 
    font-family="MaquiW00-Ultralight"
    font-weight="250"
    font-stretch="normal"
    units-per-em="1000"
    panose-1="2 11 2 6 3 6 2 2 0 4"
    ascent="800"
    descent="-200"
    x-height="492"
    cap-height="664"
    bbox="-188 -246 715 908"
    underline-thickness="50"
    underline-position="-125"
    unicode-range="U+0017-F8FF"
  />
<missing-glyph horiz-adv-x="678" 
d="M151 -241q-114 0 -114 99v799q0 100 114 100h374q116 0 116 -100v-799q0 -99 -116 -99h-374zM321 24l-187 50l-45 -167l188 -49zM336 130q4 16 13 25t20.5 15t25 9.5t26.5 7.5q29 9 50 21.5t37.5 34t29.5 54.5t27 83q8 29 12.5 55t4.5 49q0 49 -26 83t-64.5 55
t-83.5 30.5t-84 9.5q-54 0 -94 -28t-59 -97l-21 -77l175 -48l20 72q3 11 15 11t22.5 -6t10.5 -17l-24 -87q-4 -15 -12.5 -23.5t-21 -14t-27.5 -9.5t-33 -10q-48 -17 -70.5 -52t-35.5 -86l-12 -46l171 -44z" />
    <glyph glyph-name="copyright" unicode="&#x28;C&#x29;" horiz-adv-x="483" 
d="M446 145q0 -47 -16.5 -78t-44.5 -49.5t-65 -26.5t-79 -8q-44 0 -81 8t-64.5 26.5t-43 49.5t-15.5 78v373q0 46 15.5 77.5t43 50t64.5 26.5t81 8q42 0 79 -8t65 -26.5t44.5 -50t16.5 -77.5v-373zM436 518q0 43 -15.5 72.5t-42 47t-62 25t-75.5 7.5q-41 0 -76.5 -7.5
t-61.5 -25t-41 -47t-15 -72.5v-373q0 -44 15 -73t41 -46.5t61.5 -25t76.5 -7.5q40 0 75.5 7.5t62 25t42 46.5t15.5 73v373zM306 311h10v-58q0 -43 -19 -58.5t-51 -15.5q-33 0 -56 15.5t-23 58.5v168q0 42 23 57.5t56 15.5q32 0 51 -15.5t19 -57.5v-60h-10v60
q0 36 -16.5 49.5t-43.5 13.5q-29 0 -49 -13.5t-20 -49.5v-168q0 -37 20 -50.5t49 -13.5q27 0 43.5 13.5t16.5 50.5v58z" />
    <glyph glyph-name="registered" unicode="&#x28;R&#x29;" horiz-adv-x="483" 
d="M446 145q0 -47 -16.5 -78t-44.5 -49.5t-65 -26.5t-79 -8q-44 0 -81 8t-64.5 26.5t-43 49.5t-15.5 78v373q0 46 15.5 77.5t43 50t64.5 26.5t81 8q42 0 79 -8t65 -26.5t44.5 -50t16.5 -77.5v-373zM436 518q0 43 -15.5 72.5t-42 47t-62 25t-75.5 7.5q-41 0 -76.5 -7.5
t-61.5 -25t-41 -47t-15 -72.5v-373q0 -44 15 -73t41 -46.5t61.5 -25t76.5 -7.5q40 0 75.5 7.5t62 25t42 46.5t15.5 73v373zM312 187v91q0 7 -1.5 17t-7.5 18.5t-16.5 14.5t-28.5 6h-78v-147h-10v300h101q16 0 26 -6.5t15.5 -16.5t7.5 -23t2 -26q0 -10 -1.5 -22.5t-7 -24
t-14.5 -19.5t-24 -10q29 -3 38 -22.5t9 -38.5v-91h-10zM180 344h78q18 0 29 8t16.5 19t7 23t1.5 21q0 22 -7.5 42t-33.5 20h-91v-133z" />
    <glyph glyph-name="uni2117" unicode="&#x28;P&#x29;" horiz-adv-x="483" 
d="M446 145q0 -47 -16.5 -78t-44.5 -49.5t-65 -26.5t-79 -8q-44 0 -81 8t-64.5 26.5t-43 49.5t-15.5 78v373q0 46 15.5 77.5t43 50t64.5 26.5t81 8q42 0 79 -8t65 -26.5t44.5 -50t16.5 -77.5v-373zM436 518q0 43 -15.5 72.5t-42 47t-62 25t-75.5 7.5q-41 0 -76.5 -7.5
t-61.5 -25t-41 -47t-15 -72.5v-373q0 -44 15 -73t41 -46.5t61.5 -25t76.5 -7.5q40 0 75.5 7.5t62 25t42 46.5t15.5 73v373zM170 187v300h92q38 0 50.5 -22t12.5 -73t-12.5 -73.5t-50.5 -22.5h-82v-109h-10zM262 306q32 0 42.5 20t10.5 66q0 45 -10.5 65t-42.5 20h-82v-171
h82z" />
    <glyph glyph-name=".notdef" horiz-adv-x="678" 
d="M151 -241q-114 0 -114 99v799q0 100 114 100h374q116 0 116 -100v-799q0 -99 -116 -99h-374zM321 24l-187 50l-45 -167l188 -49zM336 130q4 16 13 25t20.5 15t25 9.5t26.5 7.5q29 9 50 21.5t37.5 34t29.5 54.5t27 83q8 29 12.5 55t4.5 49q0 49 -26 83t-64.5 55
t-83.5 30.5t-84 9.5q-54 0 -94 -28t-59 -97l-21 -77l175 -48l20 72q3 11 15 11t22.5 -6t10.5 -17l-24 -87q-4 -15 -12.5 -23.5t-21 -14t-27.5 -9.5t-33 -10q-48 -17 -70.5 -52t-35.5 -86l-12 -46l171 -44z" />
    <glyph glyph-name=".null" horiz-adv-x="0" 
 />
    <glyph glyph-name="nonmarkingreturn" horiz-adv-x="333" 
 />
    <glyph glyph-name="glyph397" horiz-adv-x="0" 
 />
    <glyph glyph-name="glyph397" horiz-adv-x="0" 
 />
    <glyph glyph-name="uni0017" horiz-adv-x="180" 
 />
    <glyph glyph-name="space" unicode=" " horiz-adv-x="180" 
 />
    <glyph glyph-name="exclam" unicode="!" horiz-adv-x="139" 
d="M62 0v146h16v-146h-16zM63 198q-2 61 -3.5 114t-2.5 101.5t-1.5 96.5t-0.5 99q0 17 0.5 29.5t2.5 25.5h23q2 -13 2.5 -25.5t0.5 -29.5q0 -51 -0.5 -99t-1 -96.5t-2 -101.5t-3.5 -114h-14z" />
    <glyph glyph-name="quotedbl" unicode="&#x22;" horiz-adv-x="218" 
d="M49 414v250h10v-250h-10zM158 414v250h10v-250h-10z" />
    <glyph glyph-name="numbersign" unicode="#" horiz-adv-x="474" 
d="M243 0l45 228h-146l-45 -228h-11l45 228h-106l1 10h107l38 190h-122l1 10h123l46 226h11l-46 -226h146l46 226h11l-46 -226h108l-1 -10h-109l-38 -190h124l-1 -10h-125l-45 -228h-11zM328 428h-146l-38 -190h146z" />
    <glyph glyph-name="dollar" unicode="$" horiz-adv-x="405" 
d="M198 0v74q-30 0 -59 5t-51.5 18.5t-36.5 38t-14 62.5v54h10v-54q0 -36 13 -58t34 -34.5t47.5 -17t54.5 -4.5q31 0 60.5 4.5t51.5 19t35.5 40.5t13.5 69q0 56 -24.5 80t-64.5 35q-36 10 -76.5 16.5t-75 19.5t-57 37.5t-22.5 70.5q0 36 14 59t37 36t52 18.5t58 6.5v68h10
v-68q28 0 55 -4t48.5 -16t35 -34t13.5 -58v-46h-10v46q0 33 -12.5 53t-33 31t-46 14.5t-51.5 3.5q-27 0 -55.5 -4t-51.5 -15.5t-38 -33t-15 -55.5q0 -44 23 -67t56.5 -35.5t73 -18.5t72.5 -15q48 -14 71.5 -41.5t23.5 -81.5q0 -77 -39.5 -108.5t-119.5 -36.5v-74h-10z" />
    <glyph glyph-name="percent" unicode="%" horiz-adv-x="491" 
d="M45 602q0 47 25.5 64.5t63.5 17.5q36 0 62 -17.5t26 -64.5v-186q0 -47 -26 -64.5t-62 -17.5q-38 0 -63.5 17.5t-25.5 64.5v186zM212 602q0 42 -23 57t-55 15q-34 0 -56.5 -15t-22.5 -57v-186q0 -41 22.5 -56.5t56.5 -15.5q16 0 30 3.5t24.5 12t17 22t6.5 34.5v186z
M37 -20l404 704h12l-404 -704h-12zM266 249q0 47 25.5 64.5t63.5 17.5q36 0 62 -17.5t26 -64.5v-186q0 -47 -26 -64.5t-62 -17.5q-38 0 -63.5 17.5t-25.5 64.5v186zM433 249q0 42 -23 57t-55 15q-34 0 -56.5 -15t-22.5 -57v-186q0 -41 22.5 -56.5t56.5 -15.5q16 0 30 3.5
t24.5 12t17 22t6.5 34.5v186z" />
    <glyph glyph-name="ampersand" unicode="&#x26;" horiz-adv-x="472" 
d="M457 0l-104 105q-17 -36 -37.5 -59.5t-43 -37.5t-47.5 -19.5t-50 -5.5t-50 8t-45 24.5t-32.5 42.5t-12.5 61v43q0 32 5.5 55.5t18 41.5t32.5 32t49 28q-21 22 -37 41t-27.5 38.5t-17 41.5t-5.5 51v29q0 45 7 75.5t23.5 49t44.5 27t69 8.5t67 -8.5t40.5 -28t20 -51.5
t5.5 -78v-27q0 -26 -6 -47t-24.5 -41t-52 -40t-88.5 -43l191 -192l94 196h12l-98 -204l115 -116h-16zM320 514q0 44 -5 74t-18.5 48t-37.5 26t-62 8t-64 -8t-41.5 -25.5t-22 -46t-6.5 -70.5v-28q0 -26 5.5 -47.5t16.5 -41t27.5 -39t38.5 -41.5q54 23 87 42.5t51.5 38.5
t24.5 39t6 44v27zM148 312q-27 -13 -46.5 -26.5t-32 -30.5t-18.5 -39.5t-6 -53.5v-43q0 -33 11.5 -57t30 -39t42 -22.5t46.5 -7.5q46 0 91 26t79 94z" />
    <glyph glyph-name="quotesingle" unicode="'" horiz-adv-x="109" 
d="M49 414v250h10v-250h-10z" />
    <glyph glyph-name="parenleft" unicode="(" horiz-adv-x="263" 
d="M264 -143q-94 94 -140.5 208.5t-46.5 235.5q0 115 44 224t143 203h14q-103 -100 -147 -206.5t-44 -220.5q0 -118 46.5 -231t145.5 -213h-15z" />
    <glyph glyph-name="parenright" unicode=")" horiz-adv-x="263" 
d="M-16 -143q99 100 145.5 213t46.5 231q0 114 -44 220.5t-147 206.5h14q99 -94 143 -203t44 -224q0 -121 -46.5 -235.5t-140.5 -208.5h-15z" />
    <glyph glyph-name="asterisk" unicode="*" horiz-adv-x="418" 
d="M309 342l-100 140l-100 -141l-10 8l103 139l-166 51l5 12l161 -55v173h11v-173l164 56l4 -13l-165 -51l104 -139z" />
    <glyph glyph-name="plus" unicode="+" horiz-adv-x="535" 
d="M262 129v212h-212v10h212v212h10v-212h212v-10h-212v-212h-10z" />
    <glyph glyph-name="comma" unicode="," horiz-adv-x="236" 
d="M125 151h14l-24 -226q-2 -20 -8 -32.5t-11 -13.5z" />
    <glyph glyph-name="hyphen" unicode="-" horiz-adv-x="325" 
d="M48 308v10h229v-10h-229z" />
    <glyph glyph-name="period" unicode="." horiz-adv-x="157" 
d="M71 0v151h16v-151h-16z" />
    <glyph glyph-name="slash" unicode="/" horiz-adv-x="275" 
d="M0 0l262 664h13l-263 -664h-12z" />
    <glyph glyph-name="zero" unicode="0" horiz-adv-x="422" 
d="M37 518q0 46 13.5 77.5t36.5 50t55 26.5t69 8q35 0 66.5 -8t55 -26.5t37.5 -50t14 -77.5v-373q0 -47 -14 -78t-37.5 -49.5t-55 -26.5t-66.5 -8q-37 0 -69 8t-55 26.5t-36.5 49.5t-13.5 78v373zM374 518q0 43 -13 72.5t-35.5 47t-52 25t-62.5 7.5q-35 0 -65 -7.5t-52 -25
t-34.5 -47t-12.5 -72.5v-373q0 -44 12.5 -73t34.5 -46.5t52 -25t65 -7.5q33 0 62.5 7.5t52 25t35.5 46.5t13 73v373z" />
    <glyph glyph-name="one" unicode="1" horiz-adv-x="263" 
d="M212 0v511q0 43 -12.5 72.5t-34.5 46.5t-51.5 24.5t-62.5 7.5q-6 0 -11.5 -0.5t-10.5 -1.5v10q5 1 10.5 1.5t11.5 0.5q35 0 66 -7.5t54.5 -26.5t37 -50t13.5 -77v-511h-10z" />
    <glyph glyph-name="two" unicode="2" horiz-adv-x="405" 
d="M41 0v146q0 32 2 64t15 61q16 35 46.5 51.5t67 26.5t74.5 20t69 32q14 10 22 23.5t11.5 29.5t4.5 32.5t1 33.5q0 39 -7.5 67.5t-25 47t-46.5 27t-72 8.5q-29 0 -55 -4.5t-46.5 -17.5t-32.5 -35t-12 -58v-56h-10v56q0 39 13 63t34.5 38t49.5 19t59 5q46 0 76.5 -9
t49.5 -28.5t27 -50t8 -72.5q0 -18 -1 -35.5t-5.5 -34t-13 -31.5t-23.5 -26q-21 -16 -51.5 -26t-62.5 -18q-19 -6 -39.5 -12t-39.5 -15t-35 -22t-25 -33q-13 -26 -15 -59t-2 -62v-136h310v-10h-320z" />
    <glyph glyph-name="three" unicode="3" horiz-adv-x="396" 
d="M352 194q0 66 -26 102.5t-89 36.5h-89v10h90q55 0 81 41t28 107v27q0 43 -12 72.5t-33 47t-50.5 25t-63.5 7.5q-33 0 -60 -7.5t-46 -25t-29.5 -47t-10.5 -72.5v-58h-10v58q0 46 11 77.5t31.5 50t49.5 26.5t64 8q37 0 68 -8t53.5 -26.5t35 -50t12.5 -77.5v-27
q-2 -69 -27 -108t-76 -45q108 -6 108 -144v-49q0 -47 -13.5 -78t-36.5 -49.5t-55 -26.5t-69 -8q-35 0 -64 8t-49.5 26.5t-31.5 49.5t-11 78v60h10v-60q0 -44 10.5 -73t29.5 -46.5t46 -25t60 -7.5q35 0 65 7.5t52 25t34.5 46.5t12.5 73v49z" />
    <glyph glyph-name="four" unicode="4" horiz-adv-x="354" 
d="M299 0v151h-273v13l248 500h10l-250 -503h265v206h10v-367h-10z" />
    <glyph glyph-name="five" unicode="5" horiz-adv-x="410" 
d="M359 224q0 72 -30 107.5t-106 35.5q-30 0 -51 -1.5t-38.5 -7.5t-34.5 -17.5t-39 -30.5h-10l19 354h282v-10h-272l-19 -333q18 16 33.5 26.5t33.5 17t41 9.5t55 3q82 0 114 -37.5t32 -115.5v-79q0 -47 -13.5 -78t-36.5 -49.5t-55 -26.5t-69 -8q-35 0 -63.5 8t-49 26.5
t-31.5 49.5t-11 78v60h10v-60q0 -44 10.5 -73t29.5 -46.5t45.5 -25t59.5 -7.5q35 0 65 7.5t52 25t34.5 46.5t12.5 73v79z" />
    <glyph glyph-name="six" unicode="6" horiz-adv-x="421" 
d="M385 139q0 -45 -14 -75t-37.5 -48t-55 -25.5t-67.5 -7.5q-37 0 -69 7.5t-55 25.5t-36.5 48t-13.5 75v379q0 46 13.5 77.5t36.5 50t55 26.5t69 8q35 0 65 -8t52.5 -26.5t35 -50t12.5 -77.5v-40h-10v40q0 43 -12 72.5t-33 47t-49 25t-61 7.5q-35 0 -65 -7.5t-52 -25
t-34.5 -47t-12.5 -72.5v-222q9 38 24 61.5t35.5 37t46.5 18t58 4.5q36 0 67.5 -6t55.5 -23t37.5 -47.5t13.5 -79.5v-122zM375 261q0 46 -13 74.5t-35.5 44.5t-52 21.5t-63.5 5.5q-33 0 -60 -6t-48 -22.5t-35 -44.5t-21 -73v-122q0 -42 12.5 -70t34.5 -45t52 -24t65 -7
q34 0 63.5 7t52 24t35.5 45t13 70v122z" />
    <glyph glyph-name="seven" unicode="7" horiz-adv-x="365" 
d="M144 0q1 93 16 188t40 181.5t57.5 160t69.5 124.5h-304v10h313v-13q-38 -52 -71 -126t-57.5 -160t-38.5 -180t-14 -185h-11z" />
    <glyph glyph-name="eight" unicode="8" horiz-adv-x="418" 
d="M383 145q0 -47 -13.5 -78t-36.5 -49.5t-55 -26.5t-69 -8t-69 8t-55 26.5t-36.5 49.5t-13.5 78v49q0 138 108 144q-51 6 -76 45t-27 108v27q0 46 12.5 77.5t35 50t53.5 26.5t68 8t68 -8t53.5 -26.5t35 -50t12.5 -77.5v-27q-2 -69 -27 -108t-76 -45q108 -6 108 -144v-49z
M373 194q0 66 -26 102.5t-89 36.5h-98q-63 0 -89 -36.5t-26 -102.5v-49q0 -44 12.5 -73t34.5 -46.5t52 -25t65 -7.5t65 7.5t52 25t34.5 46.5t12.5 73v49zM368 518q0 43 -12 72.5t-33 47t-50.5 25t-63.5 7.5q-35 0 -64 -7.5t-50 -25t-33 -47t-12 -72.5v-27q2 -66 28 -107
t81 -41h100q55 0 81 41t28 107v27z" />
    <glyph glyph-name="nine" unicode="9" horiz-adv-x="417" 
d="M370 376q-9 -38 -24 -61.5t-35.5 -37t-47 -18t-57.5 -4.5q-36 0 -67.5 6t-55.5 23t-37.5 47.5t-13.5 79.5v113q0 45 14 75t37.5 48t55 25.5t67.5 7.5q37 0 69 -7.5t55 -25.5t36.5 -48t13.5 -75v-379q0 -47 -13.5 -78t-36.5 -49.5t-55 -26.5t-69 -8q-35 0 -65 8
t-52.5 26.5t-35 49.5t-12.5 78v49h10v-49q0 -44 12 -73t33 -46.5t49 -25t61 -7.5q35 0 65 7.5t52 25t34.5 46.5t12.5 73v231zM370 524q0 42 -12.5 70t-34.5 45t-52 24t-65 7q-34 0 -63.5 -7t-52 -24t-35.5 -45t-13 -70v-113q0 -46 13 -74.5t35.5 -44.5t52 -21.5t63.5 -5.5
q32 0 59 6t48 22.5t35.5 44.5t21.5 73v113z" />
    <glyph glyph-name="colon" unicode=":" horiz-adv-x="209" 
d="M96 0v151h16v-151h-16zM96 339v150h16v-150h-16z" />
    <glyph glyph-name="semicolon" unicode=";" horiz-adv-x="236" 
d="M125 339v150h16v-150h-16zM124 151h16l-24 -226q-2 -20 -9 -32.5t-12 -13.5z" />
    <glyph glyph-name="less" unicode="&#x3c;" horiz-adv-x="535" 
d="M50 338v10l434 242v-12l-423 -235l423 -235v-12z" />
    <glyph glyph-name="equal" unicode="=" horiz-adv-x="535" 
d="M50 438v10h434v-10h-434zM50 239v10h434v-10h-434z" />
    <glyph glyph-name="greater" unicode="&#x3e;" horiz-adv-x="535" 
d="M50 96v12l423 235l-423 235v12l434 -242v-10z" />
    <glyph glyph-name="question" unicode="?" horiz-adv-x="367" 
d="M164 209v27q0 17 3 29.5t13 24.5t28.5 26.5t48.5 34.5q45 29 62 64.5t17 95.5q0 37 -6 66.5t-23 50t-47 31.5t-77 11q-31 0 -58 -6t-47.5 -21.5t-32 -41.5t-11.5 -66v-69h-10v69q0 43 12.5 71t34 44.5t50.5 23t62 6.5q50 0 82 -11.5t50 -33.5t24.5 -53.5t6.5 -70.5
q0 -32 -4 -56t-13.5 -43.5t-26 -36t-40.5 -32.5q-29 -19 -46.5 -32.5t-26.5 -25t-12 -23t-3 -26.5v-27h-10zM161 0v146h16v-146h-16z" />
    <glyph glyph-name="at" unicode="@" horiz-adv-x="505" 
d="M171 -102q-27 0 -51.5 6t-43 20.5t-29 38.5t-10.5 60v461q0 36 10.5 60t29 38.5t43 20.5t51.5 6h163q27 0 51.5 -6t43 -20.5t29 -38.5t10.5 -60v-374q-20 -8 -51.5 -15.5t-85.5 -7.5q-29 0 -53 6.5t-41.5 21.5t-27.5 40.5t-10 63.5v76q0 42 10 67.5t27.5 40t41.5 19.5
t52 5q50 0 79 -10.5t49 -27.5v95q0 33 -10 55t-26.5 35.5t-39.5 19t-48 5.5h-163q-26 0 -48.5 -5.5t-39 -19t-26.5 -35.5t-10 -55v-461q0 -33 10 -55t26.5 -35.5t39 -19t48.5 -5.5h296v-10h-296zM458 381q-20 17 -49.5 26.5t-78.5 9.5q-26 0 -48 -4.5t-38.5 -18t-25.5 -37
t-9 -62.5v-76q0 -35 9 -58.5t25.5 -37.5t39 -20t48.5 -6q49 0 78 6t49 13v265z" />
    <glyph glyph-name="A" unicode="A" horiz-adv-x="422" 
d="M374 0v275h-327v-275h-10v426q0 55 14.5 95t38.5 69.5t55.5 50.5t65.5 39q33 -18 64 -39t55 -50.5t39 -69.5t15 -95v-426h-10zM374 426q0 52 -13.5 90t-36.5 66t-52.5 49t-60.5 38q-32 -17 -62 -37.5t-52.5 -49t-36 -66.5t-13.5 -90v-141h327v141z" />
    <glyph glyph-name="B" unicode="B" horiz-adv-x="421" 
d="M44 0v664h205q41 0 66 -14t39 -36.5t18.5 -51t4.5 -57.5q0 -69 -23.5 -112.5t-80.5 -54.5q63 -8 90 -53t27 -120q0 -30 -6 -59.5t-22 -53t-43.5 -38t-69.5 -14.5h-205zM249 10q39 0 64.5 14t40.5 36t20.5 49.5t5.5 55.5q0 35 -6 65.5t-21.5 53.5t-42 36t-67.5 13h-189
v-323h195zM243 343q37 0 61.5 13.5t38 36t19 51.5t5.5 61q0 27 -4.5 53.5t-17 48t-36 34.5t-60.5 13h-195v-311h189z" />
    <glyph glyph-name="C" unicode="C" horiz-adv-x="401" 
d="M356 274h10v-129q0 -47 -11 -78t-31.5 -49.5t-49 -26.5t-63.5 -8q-37 0 -69 8t-55 26.5t-36.5 49.5t-13.5 78v373q0 46 13.5 77.5t36.5 50t55 26.5t69 8q35 0 63.5 -8t49 -26.5t31.5 -50t11 -77.5v-132h-10v132q0 43 -10.5 72.5t-29.5 47t-45.5 25t-59.5 7.5
q-35 0 -65 -7.5t-52 -25t-34.5 -47t-12.5 -72.5v-373q0 -44 12.5 -73t34.5 -46.5t52 -25t65 -7.5q33 0 59.5 7.5t45.5 25t29.5 46.5t10.5 73v129z" />
    <glyph glyph-name="D" unicode="D" horiz-adv-x="429" 
d="M44 0v664h174q35 0 66.5 -7t55.5 -29t38 -63.5t14 -110.5v-265q0 -52 -14 -88t-38 -58.5t-55.5 -32.5t-66.5 -10h-174zM382 454q0 66 -13 105.5t-35.5 60.5t-52.5 27.5t-63 6.5h-164v-644h164q33 0 63 9.5t52.5 30.5t35.5 55t13 84v265z" />
    <glyph glyph-name="E" unicode="E" horiz-adv-x="323" 
d="M44 0v664h244v-10h-234v-300h222v-10h-222v-334h240v-10h-250z" />
    <glyph glyph-name="F" unicode="F" horiz-adv-x="331" 
d="M44 0v664h260v-10h-250v-305h246v-10h-246v-339h-10z" />
    <glyph glyph-name="G" unicode="G" horiz-adv-x="415" 
d="M364 340h10v-328q-24 -9 -62 -19t-104 -10q-35 0 -66.5 7.5t-54.5 26.5t-36.5 49.5t-13.5 77.5v374q0 46 13.5 77.5t36.5 50t55 26.5t69 8q35 0 63.5 -8t49 -26.5t31.5 -50t11 -77.5v-92h-10v92q0 43 -10.5 72.5t-29.5 47t-45.5 25t-59.5 7.5q-35 0 -65 -7.5t-52 -25
t-34.5 -47t-12.5 -72.5v-374q0 -44 12.5 -73t34.5 -46t51.5 -24.5t62.5 -7.5q62 0 97.5 8t58.5 17v322z" />
    <glyph glyph-name="H" unicode="H" horiz-adv-x="436" 
d="M382 0v332h-328v-332h-10v664h10v-322h328v322h10v-664h-10z" />
    <glyph glyph-name="I" unicode="I" horiz-adv-x="98" 
d="M44 0v664h10v-664h-10z" />
    <glyph glyph-name="J" unicode="J" horiz-adv-x="263" 
d="M212 664h10v-525q0 -47 -13.5 -77.5t-37 -49.5t-54.5 -26.5t-66 -7.5q-6 0 -11.5 0.5t-10.5 1.5v10q5 -1 10.5 -1.5t11.5 -0.5q33 0 62.5 7.5t51.5 24.5t34.5 46t12.5 73v525z" />
    <glyph glyph-name="K" unicode="K" horiz-adv-x="431" 
d="M403 0l-349 348v-348h-10v664h10v-301l337 301h16l-347 -308l359 -356h-16z" />
    <glyph glyph-name="L" unicode="L" horiz-adv-x="316" 
d="M44 0v664h10v-654h238v-10h-248z" />
    <glyph glyph-name="M" unicode="M" horiz-adv-x="673" 
d="M622 0v513q0 78 -42 117.5t-109 39.5q-43 0 -75.5 -11t-52.5 -30v-629h-10v627q-11 12 -29 20t-38.5 13.5t-41 7.5t-36.5 2q-43 0 -77.5 -8t-56.5 -17v-645h-10v651q22 9 59 19t85 10q18 0 39.5 -2.5t42.5 -8t39 -13.5t28 -19q17 18 51.5 30.5t82.5 12.5q72 0 116.5 -43
t44.5 -124v-513h-10z" />
    <glyph glyph-name="N" unicode="N" horiz-adv-x="432" 
d="M382 0v519q0 43 -13 72.5t-34.5 46.5t-51 24.5t-62.5 7.5q-63 0 -102.5 -8t-64.5 -17v-645h-10v651q25 9 67.5 19t109.5 10q35 0 66 -7.5t54.5 -26.5t37 -50t13.5 -77v-519h-10z" />
    <glyph glyph-name="O" unicode="O" horiz-adv-x="422" 
d="M37 518q0 46 13.5 77.5t36.5 50t55 26.5t69 8q35 0 66.5 -8t55 -26.5t37.5 -50t14 -77.5v-373q0 -47 -14 -78t-37.5 -49.5t-55 -26.5t-66.5 -8q-37 0 -69 8t-55 26.5t-36.5 49.5t-13.5 78v373zM374 518q0 43 -13 72.5t-35.5 47t-52 25t-62.5 7.5q-35 0 -65 -7.5t-52 -25
t-34.5 -47t-12.5 -72.5v-373q0 -44 12.5 -73t34.5 -46.5t52 -25t65 -7.5q33 0 62.5 7.5t52 25t35.5 46.5t13 73v373z" />
    <glyph glyph-name="P" unicode="P" horiz-adv-x="411" 
d="M44 0v664h194q45 0 74 -12t45.5 -37.5t23 -65.5t6.5 -96t-6.5 -96t-23 -65.5t-45.5 -37.5t-74 -12h-184v-242h-10zM238 252q42 0 69 11.5t42.5 36t21.5 62.5t6 91t-6 91t-21.5 62.5t-42.5 36t-69 11.5h-194l10 -402h184z" />
    <glyph glyph-name="Q" unicode="Q" horiz-adv-x="422" 
d="M289 -102l-36 108q-20 -3 -42 -3q-37 0 -69 8t-55 26.5t-36.5 49.5t-13.5 78v353q0 46 13.5 77.5t36.5 50t55 26.5t69 8q35 0 66.5 -8t55 -26.5t37.5 -50t14 -77.5v-353q0 -74 -34.5 -111t-86.5 -47l37 -109h-11zM374 518q0 43 -13 72.5t-35.5 47t-52 25t-62.5 7.5
q-35 0 -65 -7.5t-52 -25t-34.5 -47t-12.5 -72.5v-353q0 -44 12.5 -73t34.5 -46.5t52 -25t65 -7.5q33 0 62.5 7.5t52 25t35.5 46.5t13 73v353z" />
    <glyph glyph-name="R" unicode="R" horiz-adv-x="420" 
d="M371 0v202q0 28 -5 51.5t-18 40.5t-34 27t-54 10h-206v-331h-10v664h205q41 0 67 -14t40.5 -36.5t19.5 -51t5 -57.5q0 -69 -23.5 -115t-72.5 -54q52 -8 74 -41t22 -93v-202h-10zM260 341q33 0 54 13.5t34 36t18 52t5 62.5q0 27 -4.5 53.5t-18 48t-37.5 34.5t-62 13h-195
v-313h206z" />
    <glyph glyph-name="S" unicode="S" 
d="M345 466v64q0 40 -10.5 67t-29.5 43.5t-45 23t-57 6.5q-48 0 -79 -11.5t-49.5 -31.5t-26 -47t-7.5 -58q0 -37 9 -63.5t28.5 -45.5t49 -32t71.5 -23q49 -12 81 -26.5t50 -35.5t25 -50.5t7 -71.5q0 -39 -6 -74t-24.5 -61t-52 -41t-88.5 -15q-77 0 -118.5 38.5t-41.5 127.5
v87h10v-87q0 -84 39 -120t111 -36q52 0 83.5 14.5t49 39t23 57.5t5.5 70q0 40 -6.5 68t-23.5 47.5t-47 33t-78 25.5q-44 11 -75.5 25t-51.5 34t-29.5 48t-9.5 67q0 33 8 62t27.5 50t52.5 33.5t84 12.5q33 0 61 -7t48.5 -24.5t31.5 -46.5t11 -72v-64h-10z" />
    <glyph glyph-name="T" unicode="T" horiz-adv-x="345" 
d="M168 0v654h-154v10h317v-10h-153v-654h-10z" />
    <glyph glyph-name="U" unicode="U" horiz-adv-x="432" 
d="M378 664h10v-652q-24 -9 -67 -19t-109 -10q-35 0 -66.5 7.5t-54.5 26.5t-36.5 49.5t-13.5 77.5v520h10v-520q0 -44 12.5 -73t34.5 -46t51.5 -24.5t62.5 -7.5q63 0 102.5 8t63.5 17v646z" />
    <glyph glyph-name="V" unicode="V" horiz-adv-x="422" 
d="M374 664h10v-426q0 -55 -14.5 -95t-38.5 -69.5t-55 -50.5t-65 -39q-33 18 -64.5 39t-55.5 50.5t-39 69t-15 95.5v426h10v-426q0 -52 14 -90t36.5 -66.5t52 -49t61.5 -37.5q32 17 61.5 37.5t52 49t36 66.5t13.5 90v426z" />
    <glyph glyph-name="W" unicode="W" horiz-adv-x="645" 
d="M597 664h10v-426q0 -56 -12.5 -95.5t-32.5 -68.5t-46.5 -50.5t-53.5 -39.5q-25 15 -48.5 33.5t-43 43t-32.5 56t-16 71.5q-3 -41 -16.5 -72.5t-33 -55.5t-43 -42.5t-47.5 -33.5q-27 18 -53.5 39.5t-46.5 50.5t-32.5 68.5t-12.5 95.5v426h10v-426q0 -50 11.5 -88t30.5 -67
t43 -50t49 -37q26 17 50.5 37t43.5 47.5t30.5 66t11.5 91.5v426h10v-426q0 -52 11 -90t30 -66t43.5 -48.5t51.5 -37.5q25 16 49 37t43 50t30.5 67t11.5 88v426z" />
    <glyph glyph-name="X" unicode="X" horiz-adv-x="418" 
d="M395 0l-187 328l-185 -328h-11l191 338l-185 326h11l179 -317l179 317h11l-184 -326l192 -338h-11z" />
    <glyph glyph-name="Y" unicode="Y" horiz-adv-x="407" 
d="M199 0v237q-32 18 -62.5 39.5t-54 50.5t-38 68.5t-14.5 93.5v175h10v-175q0 -52 14 -90t36.5 -66.5t52 -49t61.5 -37.5q32 17 61.5 37.5t52 49t36 66.5t13.5 90v175h10v-175q0 -54 -14 -93.5t-37 -69t-53.5 -50.5t-63.5 -39v-237h-10z" />
    <glyph glyph-name="Z" unicode="Z" horiz-adv-x="379" 
d="M28 0v11l304 643h-295v10h307v-8l-306 -646h306v-10h-316z" />
    <glyph glyph-name="bracketleft" unicode="[" horiz-adv-x="294" 
d="M100 -130v849h181v-10h-171v-829h171v-10h-181z" />
    <glyph glyph-name="backslash" unicode="\" horiz-adv-x="275" 
d="M263 0l-263 664h13l262 -664h-12z" />
    <glyph glyph-name="bracketright" unicode="]" horiz-adv-x="287" 
d="M13 -130v10h171v829h-171v10h181v-849h-181z" />
    <glyph glyph-name="asciicircum" unicode="^" horiz-adv-x="326" 
d="M280 473l-117 182l-119 -182h-13l127 191h9l126 -191h-13z" />
    <glyph glyph-name="underscore" unicode="_" horiz-adv-x="333" 
d="M-1 -100v10h337v-10h-337z" />
    <glyph glyph-name="grave" unicode="`" horiz-adv-x="301" 
d="M44 694v16l212 -166v-10z" />
    <glyph glyph-name="a" unicode="a" horiz-adv-x="394" 
d="M343 349q0 42 -11.5 70t-31.5 45t-47.5 24t-58.5 7q-48 0 -80 -6t-63 -20v11q24 11 58 18t85 7q34 0 63 -7.5t50.5 -25.5t33.5 -48t12 -75v-338q-22 -12 -56 -20t-96 -8q-39 0 -71 7.5t-54.5 24t-35 43t-12.5 64.5v31q0 42 12.5 68.5t34.5 41t51.5 20t63.5 5.5
q52 0 92 -16t61 -31v108zM343 232q-29 20 -68.5 33t-84.5 13q-32 0 -59.5 -5t-48 -18.5t-32.5 -38t-12 -63.5v-31q0 -36 11.5 -60.5t33 -39.5t51.5 -22t67 -7q58 0 89.5 6.5t52.5 17.5v215z" />
    <glyph glyph-name="b" unicode="b" horiz-adv-x="387" 
d="M354 139q0 -45 -12.5 -75t-34 -48t-50.5 -25.5t-62 -7.5q-35 0 -64.5 7.5t-50.5 25.5t-33 48t-12 75v533h10v-212q23 17 61 31t98 14q32 0 59.5 -7t47.5 -24.5t31.5 -48t11.5 -76.5v-210zM344 349q0 43 -10.5 71.5t-29.5 45t-44.5 23t-55.5 6.5q-60 0 -98 -14.5
t-61 -31.5v-310q0 -42 11 -70t31 -45t47.5 -24t60.5 -7q31 0 58 7t47.5 24t32 45t11.5 70v210z" />
    <glyph glyph-name="c" unicode="c" horiz-adv-x="380" 
d="M339 206h10v-67q0 -45 -11.5 -75t-32.5 -48t-49.5 -25.5t-61.5 -7.5q-35 0 -64 7.5t-50 25.5t-33 48t-12 75v210q0 45 12 75t33 48t50 25.5t64 7.5q33 0 61.5 -7.5t49.5 -25.5t32.5 -48t11.5 -75v-63h-10v63q0 42 -11 70t-30.5 45t-46 24t-57.5 7q-33 0 -60 -7t-47 -24
t-31 -45t-11 -70v-210q0 -42 11 -70t31 -45t47 -24t60 -7q31 0 57.5 7t46 24t30.5 45t11 70v67z" />
    <glyph glyph-name="d" unicode="d" horiz-adv-x="398" 
d="M35 349q0 46 11.5 76.5t31.5 48t47.5 24.5t59.5 7q60 0 98 -14t61 -31v212h10v-661q-24 -9 -61.5 -18.5t-100.5 -9.5q-34 0 -62.5 7.5t-49.5 25.5t-33 48t-12 75v210zM344 449q-23 17 -61 31.5t-98 14.5q-30 0 -55.5 -6.5t-44.5 -23t-29.5 -45t-10.5 -71.5v-210
q0 -42 11 -70t31 -45t46.5 -24t58.5 -7q58 0 93.5 7.5t58.5 16.5v432z" />
    <glyph glyph-name="e" unicode="e" 
d="M349 8q-23 -10 -63 -17.5t-92 -7.5q-34 0 -63 7.5t-50.5 25.5t-33.5 48t-12 75v210q0 45 12 75t33 48t50 25.5t64 7.5q33 0 62.5 -7.5t51 -25.5t34 -48t12.5 -75v-114h-309v-96q0 -42 11.5 -70t31.5 -45t47 -24t59 -7q48 0 86.5 7t68.5 18v-10zM344 349q0 42 -12 70
t-32 45t-47.5 24t-58.5 7q-33 0 -60 -7t-47 -24t-31 -45t-11 -70v-104h299v104z" />
    <glyph glyph-name="f" unicode="f" horiz-adv-x="256" 
d="M84 0v482h-62v10h62v49q0 40 10.5 67t28 43t40.5 22.5t49 6.5q14 0 22 -3v-10q-5 2 -9.5 2.5t-12.5 0.5q-24 0 -45 -6t-37.5 -21t-26 -40t-9.5 -62v-49h125v-10h-125v-482h-10z" />
    <glyph glyph-name="g" unicode="g" horiz-adv-x="391" 
d="M344 39q-23 -17 -61 -31t-98 -14q-32 0 -59.5 7t-47.5 24.5t-31.5 47.5t-11.5 77v199q0 45 12.5 75t34 48t50.5 25.5t62 7.5q35 0 64.5 -7.5t50.5 -25.5t33 -48t12 -75v-444q0 -43 -12 -72t-33.5 -46.5t-51 -25t-63.5 -7.5q-32 0 -59 7.5t-47 25t-31 46.5t-11 72v39h10
v-39q0 -40 10.5 -67t29 -43.5t43.5 -23.5t55 -7q32 0 59.5 7t47.5 23.5t31.5 43.5t11.5 67v134zM344 349q0 42 -11 70t-31 45t-47.5 24t-60.5 7q-31 0 -58 -7t-47.5 -24t-32 -45t-11.5 -70v-199q0 -44 10.5 -72t29.5 -44.5t44.5 -23t55.5 -6.5q60 0 98 14.5t61 31.5v299z
" />
    <glyph glyph-name="h" unicode="h" horiz-adv-x="403" 
d="M353 0v349q0 43 -10.5 71.5t-29.5 45t-44.5 23t-55.5 6.5q-60 0 -98 -14.5t-61 -31.5v-449h-10v672h10v-212q23 17 61 31t98 14q32 0 59.5 -7t47.5 -24.5t31.5 -48t11.5 -76.5v-349h-10z" />
    <glyph glyph-name="i" unicode="i" horiz-adv-x="110" 
d="M50 0v492h10v-492h-10zM47 551v121h3l13 -121h-16z" />
    <glyph glyph-name="j" unicode="j" horiz-adv-x="205" 
d="M145 492h10v-586q0 -41 -10.5 -67.5t-28 -42.5t-41 -22.5t-48.5 -6.5q-15 0 -22 3v10q5 -2 9.5 -2.5t12.5 -0.5q24 0 45 6t37.5 21t26 39.5t9.5 62.5v586zM142 551v121h16v-121h-16z" />
    <glyph glyph-name="k" unicode="k" horiz-adv-x="406" 
d="M377 0l-323 258v-258h-10v672h10v-403l312 223h17l-321 -228l332 -264h-17z" />
    <glyph glyph-name="l" unicode="l" horiz-adv-x="98" 
d="M44 0v672h10v-672h-10z" />
    <glyph glyph-name="m" unicode="m" horiz-adv-x="575" 
d="M525 0v380q0 57 -34.5 86t-89.5 29q-35 0 -63 -8t-44 -22v-465h-10v464q-9 8 -23.5 14t-31 9.5t-33.5 5.5t-31 2q-35 0 -63.5 -5.5t-47.5 -12.5v-477h-10v483q18 7 49.5 14.5t71.5 7.5q15 0 33 -2t35 -5.5t32 -9.5t24 -14q14 13 42 22t70 9q60 0 97 -32t37 -93v-380h-10z
" />
    <glyph glyph-name="n" unicode="n" horiz-adv-x="403" 
d="M353 0v349q0 42 -11 70t-31 45t-47 24t-58 7q-59 0 -94 -7.5t-58 -16.5v-471h-10v477q24 9 61.5 18.5t100.5 9.5q34 0 62.5 -7.5t49.5 -25.5t33 -48t12 -75v-349h-10z" />
    <glyph glyph-name="o" unicode="o" 
d="M354 139q0 -45 -12.5 -75t-34 -48t-51 -25.5t-62.5 -7.5q-35 0 -64 7.5t-50 25.5t-33 48t-12 75v210q0 45 12 75t33 48t50 25.5t64 7.5q33 0 62.5 -7.5t51 -25.5t34 -48t12.5 -75v-210zM344 349q0 42 -12 70t-32 45t-47.5 24t-58.5 7q-33 0 -60 -7t-47 -24t-31 -45
t-11 -70v-210q0 -42 11 -70t31 -45t47 -24t60 -7q31 0 58.5 7t47.5 24t32 45t12 70v210z" />
    <glyph glyph-name="p" unicode="p" horiz-adv-x="391" 
d="M35 -233v710q24 9 61.5 18.5t100.5 9.5q34 0 62.5 -7.5t49.5 -25.5t33 -48t12 -75v-210q0 -47 -11.5 -77t-31.5 -47.5t-47.5 -24.5t-59.5 -7q-60 0 -98 14t-61 31v-261h-10zM344 349q0 42 -11 70t-31 45t-47 24t-58 7q-58 0 -93.5 -7.5t-58.5 -16.5v-432q23 -17 61 -31.5
t98 -14.5q30 0 55.5 6.5t44.5 23t29.5 44.5t10.5 72v210z" />
    <glyph glyph-name="q" unicode="q" horiz-adv-x="408" 
d="M344 -233v261q-23 -17 -61 -31t-98 -14q-32 0 -59.5 7t-47.5 24.5t-31.5 47.5t-11.5 77v210q0 45 12.5 75t34 48t50.5 25.5t62 7.5q35 0 64.5 -7.5t50.5 -25.5t33 -48t12 -75v-582h-10zM344 349q0 42 -11 70t-31 45t-47.5 24t-60.5 7q-31 0 -58 -7t-47.5 -24t-32 -45
t-11.5 -70v-210q0 -44 10.5 -72t29.5 -44.5t44.5 -23t55.5 -6.5q60 0 98 14.5t61 31.5v310z" />
    <glyph glyph-name="r" unicode="r" horiz-adv-x="373" 
d="M44 0v477q23 9 58.5 18.5t93.5 9.5q32 0 60 -6.5t48.5 -22t32 -41.5t11.5 -65v-63h-10v63q0 36 -11 60t-30 38.5t-45 20.5t-56 6q-54 0 -87 -7.5t-55 -16.5v-471h-10z" />
    <glyph glyph-name="s" unicode="s" horiz-adv-x="384" 
d="M339 347v46q0 33 -12.5 53t-33 31t-46 14.5t-51.5 3.5q-27 0 -55.5 -4t-51.5 -15.5t-38 -33t-15 -55.5q0 -44 23 -67t56.5 -35.5t73 -18.5t72.5 -15q48 -14 71.5 -41.5t23.5 -81.5q0 -80 -43.5 -112.5t-125.5 -32.5q-30 0 -59 5t-51.5 18.5t-36.5 38t-14 62.5v54h10v-54
q0 -36 13 -58t34 -34.5t47.5 -17t54.5 -4.5q31 0 60.5 4.5t51.5 19t35.5 40.5t13.5 69q0 56 -24.5 80t-64.5 35q-36 10 -76.5 16.5t-75 19.5t-57 37.5t-22.5 70.5q0 38 15.5 61.5t39.5 36.5t54.5 17.5t60.5 4.5q28 0 55.5 -4t49 -16t35 -34t13.5 -58v-46h-10z" />
    <glyph glyph-name="t" unicode="t" horiz-adv-x="201" 
d="M94 0v482h-72v10h72v112h10v-112h75v-10h-75v-482h-10z" />
    <glyph glyph-name="u" unicode="u" horiz-adv-x="405" 
d="M348 492h10v-481q-23 -9 -61 -18.5t-101 -9.5q-33 0 -61.5 7.5t-49.5 25.5t-33 48t-12 75v353h10v-353q0 -42 11 -70t30.5 -45t46 -24t58.5 -7q57 0 93.5 7.5t58.5 16.5v475z" />
    <glyph glyph-name="v" unicode="v" horiz-adv-x="390" 
d="M345 492h10v-267q0 -55 -13 -94.5t-35 -69t-51 -50.5t-62 -39q-31 18 -59.5 39t-50.5 50.5t-35.5 69t-13.5 94.5v267h10v-267q0 -52 12.5 -90t33 -66t47.5 -48.5t56 -37.5q31 17 58.5 37.5t48 48.5t32.5 66t12 90v267z" />
    <glyph glyph-name="w" unicode="w" horiz-adv-x="566" 
d="M521 492h10v-292q0 -49 -11 -85t-28.5 -62.5t-40 -45.5t-46.5 -35q-22 14 -42.5 30.5t-37 38.5t-28 50t-14.5 64q-3 -37 -14.5 -65t-28 -50t-37.5 -38.5t-42 -29.5q-24 16 -46.5 35t-40 45.5t-28.5 62.5t-11 85v292h10v-292q0 -45 10 -79t26 -60t36.5 -44.5t42.5 -33.5
q23 14 44 31.5t37.5 43t26.5 60t10 82.5v292h10v-292q0 -47 10 -81.5t26.5 -60t37.5 -43.5t44 -32q22 15 42.5 33.5t36.5 44.5t26 60t10 79v292z" />
    <glyph glyph-name="x" unicode="x" horiz-adv-x="374" 
d="M350 0l-164 241l-162 -241h-12l168 250l-163 242h12l157 -233l157 233h12l-163 -242l170 -250h-12z" />
    <glyph glyph-name="y" unicode="y" horiz-adv-x="403" 
d="M350 39q-23 -17 -61 -31t-98 -14q-32 0 -59.5 7t-47.5 24.5t-31.5 47.5t-11.5 77v342h10v-342q0 -44 10.5 -72t29.5 -44.5t44.5 -23t55.5 -6.5q60 0 98 14.5t61 31.5v442h10v-587q0 -43 -12 -72t-33.5 -46.5t-51 -25t-63.5 -7.5q-32 0 -59 7.5t-47 25t-31 46.5t-11 72v39
h10v-39q0 -40 10.5 -67t29 -43.5t43.5 -23.5t55 -7q32 0 59.5 7t47.5 23.5t31.5 43.5t11.5 67v134z" />
    <glyph glyph-name="z" unicode="z" horiz-adv-x="356" 
d="M26 0v11l285 471h-271v10h284v-8l-288 -474h294v-10h-304z" />
    <glyph glyph-name="braceleft" unicode="{" horiz-adv-x="300" 
d="M256 -131q-49 0 -77.5 9.5t-43 29t-18.5 49t-4 70.5q0 9 1 32t1.5 49t1.5 48.5t1 29.5q0 58 -16 81t-58 23v10q42 0 58 23.5t16 81.5q0 7 -1 29t-1.5 47.5t-1.5 48.5t-1 32q0 40 4 70t18.5 49.5t43 29t77.5 9.5h19v-10h-19q-46 0 -72.5 -9t-40 -27.5t-17 -46.5t-3.5 -65
q0 -14 1 -34.5t1.5 -42.5t1.5 -43t1 -37q0 -48 -13 -76.5t-43 -33.5q30 -6 43 -33.5t13 -75.5q0 -15 -1 -35.5t-1.5 -43t-1.5 -43.5t-1 -37q0 -38 3.5 -65.5t17 -46t40 -27.5t72.5 -9h19v-10h-19z" />
    <glyph glyph-name="bar" unicode="|" horiz-adv-x="188" 
d="M89 -125v861h10v-861h-10z" />
    <glyph glyph-name="braceright" unicode="}" horiz-adv-x="302" 
d="M25 -131v10h19q46 0 72.5 9t40 27.5t17 46t3.5 65.5q0 16 -1 37t-1.5 43.5t-1.5 43t-1 35.5q0 48 13 75.5t43 33.5q-30 5 -43 33.5t-13 76.5q0 16 1 37t1.5 43t1.5 42.5t1 34.5q0 37 -3.5 65t-17 46.5t-40 27.5t-72.5 9h-19v10h19q49 0 77.5 -9.5t43 -29t18.5 -49.5
t4 -70q0 -9 -1 -32t-1.5 -48.5t-1.5 -47.5t-1 -29q0 -58 16 -81.5t58 -23.5v-10q-42 0 -58 -23t-16 -81q0 -7 1 -29.5t1.5 -48.5t1.5 -49t1 -32q0 -41 -4 -70.5t-18.5 -49t-43 -29t-77.5 -9.5h-19z" />
    <glyph glyph-name="asciitilde" unicode="~" horiz-adv-x="562" 
d="M511 340q-29 -35 -61 -51t-75 -16q-29 0 -52.5 11t-47 24.5t-48.5 24.5t-55 11q-39 0 -68.5 -19t-53.5 -53v15q21 25 50.5 46t71.5 21q31 0 56.5 -11t49 -24.5t47 -24.5t50.5 -11q39 0 72 16t64 55v-14z" />
    <glyph glyph-name="uni00A0" unicode="&#xa0;" horiz-adv-x="180" 
 />
    <glyph glyph-name="exclamdown" unicode="&#xa1;" horiz-adv-x="139" 
d="M77.0039 664v-145.991h-15.999v145.991h15.999zM76.0039 466.012q2 -60.9961 3.5 -113.992q1.5 -52.9971 2.5 -101.494t1.49902 -96.4941q0.5 -47.9971 0.5 -98.9941q0 -16.999 -0.5 -29.498q-0.499023 -12.499 -2.49902 -25.498h-22.999q-2 12.999 -2.5 25.498
t-0.5 29.498q0 50.9971 0.5 98.9941t1 96.4941t2 101.494q1.5 52.9961 3.5 113.992h13.999z" />
    <glyph glyph-name="cent" unicode="&#xa2;" 
d="M191 0v74q-34 0 -62.5 8t-48.5 26.5t-31.5 48t-11.5 73.5v210q0 44 11.5 73.5t31.5 47.5t48.5 26t62.5 9v68h10v-68q32 -1 59.5 -9t47.5 -26t31.5 -47.5t11.5 -73.5v-63h-10v63q0 42 -11 70t-30.5 45t-46 24t-57.5 7q-33 0 -60 -7t-47 -24t-31 -45t-11 -70v-210
q0 -42 11 -70t31 -45t47 -24t60 -7q31 0 57.5 7t46 24t30.5 45t11 70v67h10v-67q0 -44 -11.5 -73.5t-31.5 -48t-47.5 -26.5t-59.5 -8v-74h-10z" />
    <glyph glyph-name="sterling" unicode="&#xa3;" horiz-adv-x="415" 
d="M386 13q-11 -14 -26.5 -22t-38.5 -8t-48 11q-7 2 -18 6t-23.5 8.5t-26 8t-25.5 4.5q-12 -17 -32.5 -27.5t-50.5 -10.5q-14 0 -30 4.5t-30 13.5v12q29 -20 60 -20q28 0 46 9.5t29 26t15.5 38t4.5 45.5q0 32 -6 57.5t-16.5 47.5t-24 41t-28.5 38h-77v10h69q-13 17 -25 35.5
t-21 40.5t-14 48.5t-5 59.5q0 46 7.5 81.5t26 59.5t49 36.5t77.5 12.5q33 0 62.5 -6.5t51.5 -23t35 -45t13 -72.5v-67h-10v67q0 41 -12 67.5t-33 42t-48.5 21.5t-58.5 6q-44 0 -72.5 -11.5t-46 -34t-24.5 -56.5t-7 -78q0 -33 5.5 -59.5t15 -48.5t21.5 -40.5t25 -35.5h223
v-10h-215q14 -18 27.5 -37t23.5 -40.5t16 -47.5t6 -59q0 -49 -17 -82q26 -4 46 -10t36 -12t29 -10.5t25 -4.5q20 0 35.5 7.5t29.5 27.5v-15z" />
    <glyph glyph-name="currency" unicode="&#xa4;" horiz-adv-x="490" 
d="M438 151l-64 64q-26 -24 -59 -37.5t-71 -13.5t-71 13.5t-58 37.5l-64 -64l-7 7l64 64q-24 25 -38 58.5t-14 71.5t13.5 71t37.5 59l-62 63l7 7l62 -63q26 24 59 38t71 14t71 -14t59 -39l64 64l7 -7l-64 -64q24 -26 38 -58.5t14 -70.5t-14 -71t-38 -59l65 -64zM423 352
q0 37 -14 69.5t-38.5 57t-57 38.5t-69.5 14t-69.5 -14t-56.5 -38.5t-38 -57t-14 -69.5t14 -69.5t38 -56.5t56.5 -38t69.5 -14t69.5 14t57 38t38.5 56.5t14 69.5z" />
    <glyph glyph-name="yen" unicode="&#xa5;" horiz-adv-x="422" 
d="M216 98v-98h-10v98h-169v10h169v126h-169v10h169v53q-32 18 -62.5 39.5t-54 50.5t-38 68.5t-14.5 93.5v115h10v-115q0 -52 14 -90t36.5 -66.5t52 -49t61.5 -37.5q32 17 61.5 37.5t52 49t36 66.5t13.5 90v115h10v-115q0 -54 -14 -93.5t-37 -69t-53.5 -50.5t-63.5 -39v-53
h168v-10h-168v-126h168v-10h-168z" />
    <glyph glyph-name="brokenbar" unicode="&#xa6;" horiz-adv-x="335" 
d="M162 -125v372h10v-372h-10zM162 397v339v0l10 -339h-10z" />
    <glyph glyph-name="section" unicode="&#xa7;" horiz-adv-x="410" 
d="M37 85h10v-59q0 -39 13 -63t34 -38t47.5 -19t54.5 -5q32 0 61 5.5t51.5 21t35.5 44t13 75.5q0 60 -24.5 86.5t-64.5 38.5q-36 11 -76.5 18t-75 21.5t-57 41t-22.5 75.5q0 48 19.5 73.5t48.5 39.5q-28 15 -45 40t-17 68q0 41 15.5 66.5t39.5 40t54.5 19.5t60.5 5
q28 0 55.5 -4t49 -17t35 -37t13.5 -64v-50h-10v50q0 36 -12.5 58t-33 33.5t-46 15.5t-51.5 4q-27 0 -55.5 -4t-51.5 -16.5t-38 -35.5t-15 -61q0 -48 23 -73t56.5 -38.5t73 -20t72.5 -16.5q48 -14 71.5 -44.5t23.5 -89.5q0 -81 -40 -120q34 -33 34 -101q0 -85 -41 -121.5
t-128 -36.5q-30 0 -59 5.5t-51.5 20.5t-36.5 41t-14 68v59zM325 157q17 17 27.5 43t10.5 68q0 38 -11.5 62.5t-30.5 39t-44 22.5t-52 14t-55 12t-52 17q-31 -11 -51 -35t-20 -69q0 -48 23 -73t56.5 -38.5t73 -20t72.5 -16.5q32 -11 53 -26z" />
    <glyph glyph-name="dieresis" unicode="&#xa8;" horiz-adv-x="344" 
d="M74 554v133h16v-133h-16zM253 554v133h16v-133h-16z" />
    <glyph glyph-name="ordfeminine" unicode="&#xaa;" horiz-adv-x="217" 
d="M185 492q0 45 -22.5 61.5t-55.5 16.5q-26 0 -44.5 -3.5t-36.5 -11.5v11q14 6 32.5 10t48.5 4q37 0 62.5 -18.5t25.5 -69.5v-185q-13 -8 -31.5 -12t-52.5 -4q-45 0 -71.5 17.5t-26.5 59.5v17q0 24 7 39t19.5 23.5t29 11.5t36.5 3q26 0 46.5 -8t33.5 -16v54zM185 428
q-16 10 -37.5 17t-42.5 7q-35 0 -58.5 -13t-23.5 -54v-17q0 -38 23 -52.5t65 -14.5q29 0 45.5 3t28.5 8v116z" />
    <glyph glyph-name="guillemotleft" unicode="&#xab;" horiz-adv-x="366" 
d="M24 317l128 174l7 -9l-123 -164l123 -165l-7 -8zM207 317l128 174l7 -9l-123 -164l123 -165l-7 -8z" />
    <glyph glyph-name="logicalnot" unicode="&#xac;" horiz-adv-x="587" 
d="M523 0v482h-470v10h480v-492h-10z" />
    <glyph glyph-name="macron" unicode="&#xaf;" horiz-adv-x="402" 
d="M53 629v10h295v-10h-295z" />
    <glyph glyph-name="degree" unicode="&#xb0;" horiz-adv-x="392" 
d="M195 355q-36 0 -62 12.5t-42.5 34t-24 50.5t-7.5 62t7.5 62t24 50.5t42.5 33.5t62 12t62 -12t42.5 -33.5t24.5 -50.5t8 -62t-8 -62t-24.5 -50.5t-42.5 -34t-62 -12.5zM195 365q34 0 58 11.5t39.5 32t22.5 47.5t7 58t-7 58t-22.5 47t-39.5 31.5t-58 11.5t-58 -11.5
t-39 -31.5t-22 -47t-7 -58t7 -58t22 -47.5t39 -32t58 -11.5z" />
    <glyph glyph-name="plusminus" unicode="&#xb1;" horiz-adv-x="535" 
d="M262 129v212h-212v10h212v212h10v-212h212v-10h-212v-212h-10zM50 62v10h434v-10h-434z" />
    <glyph glyph-name="uni00B2" unicode="&#xb2;" horiz-adv-x="232" 
d="M33 343v74q0 25 2.5 42t9.5 28.5t20.5 19t34.5 14.5q26 8 43 14t27 14.5t14 20.5t4 33q0 38 -15 54.5t-57 16.5q-14 0 -26.5 -2t-22.5 -8t-15.5 -16.5t-5.5 -27.5v-30h-10v30q0 20 6.5 32.5t17.5 19.5t25.5 9.5t30.5 2.5q48 0 65 -19t17 -62q0 -17 -2.5 -30t-10.5 -23
t-23.5 -18t-42.5 -15q-27 -8 -42 -16.5t-22.5 -20t-9.5 -27t-2 -36.5v-64h153v-10h-163z" />
    <glyph glyph-name="uni00B3" unicode="&#xb3;" horiz-adv-x="228" 
d="M187 441q0 32 -12.5 49.5t-42.5 17.5h-45v10h46q26 0 38.5 19t12.5 51v14q0 42 -21 57t-54 15q-32 0 -51 -15t-19 -57v-31h-10v31q0 47 22 64.5t58 17.5q37 0 61 -17.5t24 -64.5v-14q0 -60 -41 -74q44 -9 44 -73v-25q0 -47 -25.5 -64.5t-62.5 -17.5q-36 0 -58 17.5
t-22 64.5v32h10v-32q0 -42 19 -57t51 -15q33 0 55.5 15.5t22.5 56.5v25z" />
    <glyph glyph-name="acute" unicode="&#xb4;" horiz-adv-x="301" 
d="M44 534v10l212 166v-16z" />
    <glyph glyph-name="mu" unicode="&#xb5;" horiz-adv-x="407" 
d="M352 492h10v-481q-23 -9 -61 -18.5t-101 -9.5q-52 0 -90.5 18.5t-55.5 67.5v-302h-10v725h10v-353q0 -42 11 -70t30.5 -45t46 -24t58.5 -7q57 0 93.5 7.5t58.5 16.5v475z" />
    <glyph glyph-name="mu" unicode="&#x3bc;" horiz-adv-x="407" 
d="M352 492h10v-481q-23 -9 -61 -18.5t-101 -9.5q-52 0 -90.5 18.5t-55.5 67.5v-302h-10v725h10v-353q0 -42 11 -70t30.5 -45t46 -24t58.5 -7q57 0 93.5 7.5t58.5 16.5v475z" />
    <glyph glyph-name="paragraph" unicode="&#xb6;" horiz-adv-x="492" 
d="M401 -100v754h-158v-754h-10v491h-71q-54 0 -80.5 33.5t-26.5 105.5t26 103t80 31h290v-10h-40v-754h-10z" />
    <glyph glyph-name="periodcentered" unicode="&#xb7;" horiz-adv-x="157" 
d="M71 240v151h16v-151h-16z" />
    <glyph glyph-name="cedilla" unicode="&#xb8;" horiz-adv-x="165" 
d="M87 -34h14l-17 -163q-2 -20 -8 -32.5t-11 -13.5z" />
    <glyph glyph-name="uni00B9" unicode="&#xb9;" horiz-adv-x="161" 
d="M117 343v255q0 42 -22 57t-55 15h-4.5t-8.5 -1v10q6 1 8.5 1h4.5q36 0 61.5 -17.5t25.5 -64.5v-255h-10z" />
    <glyph glyph-name="ordmasculine" unicode="&#xba;" horiz-adv-x="213" 
d="M196 377q0 -50 -26 -68t-63 -18q-39 0 -64.5 18t-25.5 68v115q0 50 25.5 69t64.5 19q37 0 63 -19t26 -69v-115zM186 492q0 44 -23.5 61t-55.5 17q-35 0 -57.5 -16.5t-22.5 -61.5v-115q0 -44 22.5 -60t57.5 -16q32 0 55.5 16t23.5 60v115z" />
    <glyph glyph-name="guillemotright" unicode="&#xbb;" horiz-adv-x="366" 
d="M24 153l123 165l-123 164l7 9l128 -174l-128 -172zM207 153l123 165l-123 164l7 9l128 -174l-128 -172z" />
    <glyph glyph-name="onequarter" unicode="&#xbc;" horiz-adv-x="491" 
d="M151 343v255q0 42 -22 57t-55 15h-4.5t-8.5 -1v10q6 1 8.5 1h4.5q36 0 61.5 -17.5t25.5 -64.5v-255h-10zM37 -20l404 704h12l-404 -704h-12zM405 -10v73h-134v11l122 249h11l-123 -250h124v103h10v-186h-10z" />
    <glyph glyph-name="onehalf" unicode="&#xbd;" horiz-adv-x="500" 
d="M151 343v255q0 42 -22 57t-55 15h-4.5t-8.5 -1v10q6 1 8.5 1h4.5q36 0 61.5 -17.5t25.5 -64.5v-255h-10zM37 -20l404 704h12l-404 -704h-12zM298 -10v74q0 25 2.5 42t9.5 28.5t20.5 19t34.5 14.5q26 8 43 14t27 14.5t14 20.5t4 33q0 38 -15 54.5t-57 16.5q-14 0 -26.5 -2
t-22.5 -8t-15.5 -16.5t-5.5 -27.5v-30h-10v30q0 20 6.5 32.5t17.5 19.5t25.5 9.5t30.5 2.5q48 0 65 -19t17 -62q0 -17 -2.5 -30t-10.5 -23t-23.5 -18t-42.5 -15q-27 -8 -42 -16.5t-22.5 -20t-9.5 -27t-2 -36.5v-64h153v-10h-163z" />
    <glyph glyph-name="threequarters" unicode="&#xbe;" horiz-adv-x="491" 
d="M224 441q0 32 -12.5 49.5t-42.5 17.5h-45v10h46q26 0 38.5 19t12.5 51v14q0 42 -21 57t-54 15q-32 0 -51 -15t-19 -57v-31h-10v31q0 47 22 64.5t58 17.5q37 0 61 -17.5t24 -64.5v-14q0 -60 -41 -74q44 -9 44 -73v-25q0 -47 -25.5 -64.5t-62.5 -17.5q-36 0 -58 17.5
t-22 64.5v32h10v-32q0 -42 19 -57t51 -15q33 0 55.5 15.5t22.5 56.5v25zM37 -20l404 704h12l-404 -704h-12zM405 -10v73h-134v11l122 249h11l-123 -250h124v103h10v-186h-10z" />
    <glyph glyph-name="questiondown" unicode="&#xbf;" horiz-adv-x="367" 
d="M204.01 455.013v-26.998q0 -16.999 -3 -29.498q-2.99902 -12.5 -12.999 -24.499q-9.99902 -11.999 -28.498 -26.498t-48.4971 -34.498q-44.9971 -28.998 -61.9961 -64.4961t-16.999 -95.4941q0 -36.998 6 -66.4961q5.99902 -29.498 22.998 -49.9971t46.9971 -31.498
t76.9951 -10.999q30.999 0 57.9971 6q26.998 5.99902 47.4971 21.498t31.998 41.498q11.499 25.998 11.499 65.9951v68.9961h10v-68.9961q0 -42.9971 -12.5 -70.9951q-12.499 -27.998 -33.998 -44.4971q-21.498 -16.499 -50.4961 -22.999q-28.999 -6.5 -61.9971 -6.5
q-49.9961 0 -81.9941 11.5q-31.998 11.499 -49.9971 33.498q-17.999 21.998 -24.499 53.4961q-6.49902 31.498 -6.49902 70.4961q0 31.998 3.99902 55.9961q4 23.999 13.5 43.498q9.49902 19.498 25.998 35.9971t40.4971 32.498q28.999 18.999 46.4971 32.498
q17.499 13.5 26.499 24.999q8.99902 11.499 11.999 22.998q3 11.5 3 26.499v26.998h9.99902zM207.01 664v-145.991h-15.999v145.991h15.999z" />
    <glyph glyph-name="Agrave" unicode="&#xc0;" horiz-adv-x="422" 
d="M374 0v275h-327v-275h-10v426q0 55 14.5 95t38.5 69.5t55.5 50.5t65.5 39q33 -18 64 -39t55 -50.5t39 -69.5t15 -95v-426h-10zM374 426q0 52 -13.5 90t-36.5 66t-52.5 49t-60.5 38q-32 -17 -62 -37.5t-52.5 -49t-36 -66.5t-13.5 -90v-141h327v141zM85 866v16l212 -166
v-10z" />
    <glyph glyph-name="Aacute" unicode="&#xc1;" horiz-adv-x="422" 
d="M374 0v275h-327v-275h-10v426q0 55 14.5 95t38.5 69.5t55.5 50.5t65.5 39q33 -18 64 -39t55 -50.5t39 -69.5t15 -95v-426h-10zM374 426q0 52 -13.5 90t-36.5 66t-52.5 49t-60.5 38q-32 -17 -62 -37.5t-52.5 -49t-36 -66.5t-13.5 -90v-141h327v141zM125 706v10l212 166
v-16z" />
    <glyph glyph-name="Acircumflex" unicode="&#xc2;" horiz-adv-x="422" 
d="M374 0v275h-327v-275h-10v426q0 55 14.5 95t38.5 69.5t55.5 50.5t65.5 39q33 -18 64 -39t55 -50.5t39 -69.5t15 -95v-426h-10zM374 426q0 52 -13.5 90t-36.5 66t-52.5 49t-60.5 38q-32 -17 -62 -37.5t-52.5 -49t-36 -66.5t-13.5 -90v-141h327v141zM369 723l-157 174
l-157 -174l-6 5l157 180h12l157 -180z" />
    <glyph glyph-name="Atilde" unicode="&#xc3;" horiz-adv-x="422" 
d="M374 0v275h-327v-275h-10v426q0 55 14.5 95t38.5 69.5t55.5 50.5t65.5 39q33 -18 64 -39t55 -50.5t39 -69.5t15 -95v-426h-10zM374 426q0 52 -13.5 90t-36.5 66t-52.5 49t-60.5 38q-32 -17 -62 -37.5t-52.5 -49t-36 -66.5t-13.5 -90v-141h327v141zM63 801v10h295v-10
h-295z" />
    <glyph glyph-name="Adieresis" unicode="&#xc4;" horiz-adv-x="422" 
d="M374 0v275h-327v-275h-10v426q0 55 14.5 95t38.5 69.5t55.5 50.5t65.5 39q33 -18 64 -39t55 -50.5t39 -69.5t15 -95v-426h-10zM374 426q0 52 -13.5 90t-36.5 66t-52.5 49t-60.5 38q-32 -17 -62 -37.5t-52.5 -49t-36 -66.5t-13.5 -90v-141h327v141zM113 726v133h16v-133
h-16zM292 726v133h16v-133h-16z" />
    <glyph glyph-name="Aring" unicode="&#xc5;" horiz-adv-x="422" 
d="M374 0v275h-327v-275h-10v426q0 55 14.5 95t38.5 69.5t55.5 50.5t65.5 39q33 -18 64 -39t55 -50.5t39 -69.5t15 -95v-426h-10zM374 426q0 52 -13.5 90t-36.5 66t-52.5 49t-60.5 38q-32 -17 -62 -37.5t-52.5 -49t-36 -66.5t-13.5 -90v-141h327v141zM210 696q-93 0 -93 96
q0 46 22.5 71t70.5 25q51 0 72.5 -25t21.5 -71q0 -48 -21.5 -72t-72.5 -24zM210 706q45 0 64.5 22t19.5 64t-19.5 64t-64.5 22q-83 0 -83 -86t83 -86z" />
    <glyph glyph-name="AE" unicode="&#xc6;" horiz-adv-x="508" 
d="M260 0v275h-213v-275h-10v426q0 58 14.5 102.5t40 74.5t61 45.5t76.5 15.5h244v-10h-203v-300h191v-10h-191v-334h209v-10h-219zM260 654h-31q-39 0 -72.5 -14.5t-57.5 -43.5t-38 -71.5t-14 -98.5v-141h213v369z" />
    <glyph glyph-name="Ccedilla" unicode="&#xc7;" horiz-adv-x="401" 
d="M356 274h10v-129q0 -47 -11 -78t-31.5 -49.5t-49 -26.5t-63.5 -8q-37 0 -69 8t-55 26.5t-36.5 49.5t-13.5 78v373q0 46 13.5 77.5t36.5 50t55 26.5t69 8q35 0 63.5 -8t49 -26.5t31.5 -50t11 -77.5v-132h-10v132q0 43 -10.5 72.5t-29.5 47t-45.5 25t-59.5 7.5
q-35 0 -65 -7.5t-52 -25t-34.5 -47t-12.5 -72.5v-373q0 -44 12.5 -73t34.5 -46.5t52 -25t65 -7.5q33 0 59.5 7.5t45.5 25t29.5 46.5t10.5 73v129zM194 -34h14l-17 -163q-2 -20 -8 -32.5t-11 -13.5z" />
    <glyph glyph-name="Egrave" unicode="&#xc8;" horiz-adv-x="323" 
d="M44 0v664h244v-10h-234v-300h222v-10h-222v-334h240v-10h-250zM42 866v16l212 -166v-10z" />
    <glyph glyph-name="Eacute" unicode="&#xc9;" horiz-adv-x="323" 
d="M44 0v664h244v-10h-234v-300h222v-10h-222v-334h240v-10h-250zM81 706v10l212 166v-16z" />
    <glyph glyph-name="Ecircumflex" unicode="&#xca;" horiz-adv-x="323" 
d="M44 0v664h244v-10h-234v-300h222v-10h-222v-334h240v-10h-250zM326 723l-157 174l-157 -174l-6 5l157 180h12l157 -180z" />
    <glyph glyph-name="Edieresis" unicode="&#xcb;" horiz-adv-x="323" 
d="M44 0v664h244v-10h-234v-300h222v-10h-222v-334h240v-10h-250zM70 726v133h16v-133h-16zM249 726v133h16v-133h-16z" />
    <glyph glyph-name="Igrave" unicode="&#xcc;" horiz-adv-x="98" 
d="M44 0v664h10v-664h-10zM-76 866v16l212 -166v-10z" />
    <glyph glyph-name="Iacute" unicode="&#xcd;" horiz-adv-x="98" 
d="M44 0v664h10v-664h-10zM-36 706v10l212 166v-16z" />
    <glyph glyph-name="Icircumflex" unicode="&#xce;" horiz-adv-x="98" 
d="M44 0v664h10v-664h-10zM207 723l-157 174l-157 -174l-6 5l157 180h12l157 -180z" />
    <glyph glyph-name="Idieresis" unicode="&#xcf;" horiz-adv-x="98" 
d="M44 0v664h10v-664h-10zM-47 726v133h16v-133h-16zM132 726v133h16v-133h-16z" />
    <glyph glyph-name="Eth" unicode="&#xd0;" horiz-adv-x="429" 
d="M46 0v344h-24v10h24v310h174q35 0 66.5 -7t55 -29t37.5 -63.5t14 -110.5v-265q0 -52 -14 -88t-37.5 -58.5t-55 -32.5t-66.5 -10h-174zM383 454q0 66 -13 105.5t-35.5 60.5t-52 27.5t-62.5 6.5h-164v-300h188v-10h-188v-334h164q33 0 62.5 9.5t52 30.5t35.5 55t13 84v265z
" />
    <glyph glyph-name="Ntilde" unicode="&#xd1;" horiz-adv-x="432" 
d="M382 0v519q0 43 -13 72.5t-34.5 46.5t-51 24.5t-62.5 7.5q-63 0 -102.5 -8t-64.5 -17v-645h-10v651q25 9 67.5 19t109.5 10q35 0 66 -7.5t54.5 -26.5t37 -50t13.5 -77v-519h-10zM68 801v10h295v-10h-295z" />
    <glyph glyph-name="Ograve" unicode="&#xd2;" horiz-adv-x="422" 
d="M37 518q0 46 13.5 77.5t36.5 50t55 26.5t69 8q35 0 66.5 -8t55 -26.5t37.5 -50t14 -77.5v-373q0 -47 -14 -78t-37.5 -49.5t-55 -26.5t-66.5 -8q-37 0 -69 8t-55 26.5t-36.5 49.5t-13.5 78v373zM374 518q0 43 -13 72.5t-35.5 47t-52 25t-62.5 7.5q-35 0 -65 -7.5t-52 -25
t-34.5 -47t-12.5 -72.5v-373q0 -44 12.5 -73t34.5 -46.5t52 -25t65 -7.5q33 0 62.5 7.5t52 25t35.5 46.5t13 73v373zM85 866v16l212 -166v-10z" />
    <glyph glyph-name="Oacute" unicode="&#xd3;" horiz-adv-x="422" 
d="M37 518q0 46 13.5 77.5t36.5 50t55 26.5t69 8q35 0 66.5 -8t55 -26.5t37.5 -50t14 -77.5v-373q0 -47 -14 -78t-37.5 -49.5t-55 -26.5t-66.5 -8q-37 0 -69 8t-55 26.5t-36.5 49.5t-13.5 78v373zM374 518q0 43 -13 72.5t-35.5 47t-52 25t-62.5 7.5q-35 0 -65 -7.5t-52 -25
t-34.5 -47t-12.5 -72.5v-373q0 -44 12.5 -73t34.5 -46.5t52 -25t65 -7.5q33 0 62.5 7.5t52 25t35.5 46.5t13 73v373zM125 706v10l212 166v-16z" />
    <glyph glyph-name="Ocircumflex" unicode="&#xd4;" horiz-adv-x="422" 
d="M37 518q0 46 13.5 77.5t36.5 50t55 26.5t69 8q35 0 66.5 -8t55 -26.5t37.5 -50t14 -77.5v-373q0 -47 -14 -78t-37.5 -49.5t-55 -26.5t-66.5 -8q-37 0 -69 8t-55 26.5t-36.5 49.5t-13.5 78v373zM374 518q0 43 -13 72.5t-35.5 47t-52 25t-62.5 7.5q-35 0 -65 -7.5t-52 -25
t-34.5 -47t-12.5 -72.5v-373q0 -44 12.5 -73t34.5 -46.5t52 -25t65 -7.5q33 0 62.5 7.5t52 25t35.5 46.5t13 73v373zM369 723l-157 174l-157 -174l-6 5l157 180h12l157 -180z" />
    <glyph glyph-name="Otilde" unicode="&#xd5;" horiz-adv-x="422" 
d="M37 518q0 46 13.5 77.5t36.5 50t55 26.5t69 8q35 0 66.5 -8t55 -26.5t37.5 -50t14 -77.5v-373q0 -47 -14 -78t-37.5 -49.5t-55 -26.5t-66.5 -8q-37 0 -69 8t-55 26.5t-36.5 49.5t-13.5 78v373zM374 518q0 43 -13 72.5t-35.5 47t-52 25t-62.5 7.5q-35 0 -65 -7.5t-52 -25
t-34.5 -47t-12.5 -72.5v-373q0 -44 12.5 -73t34.5 -46.5t52 -25t65 -7.5q33 0 62.5 7.5t52 25t35.5 46.5t13 73v373zM63 801v10h295v-10h-295z" />
    <glyph glyph-name="Odieresis" unicode="&#xd6;" horiz-adv-x="422" 
d="M37 518q0 46 13.5 77.5t36.5 50t55 26.5t69 8q35 0 66.5 -8t55 -26.5t37.5 -50t14 -77.5v-373q0 -47 -14 -78t-37.5 -49.5t-55 -26.5t-66.5 -8q-37 0 -69 8t-55 26.5t-36.5 49.5t-13.5 78v373zM374 518q0 43 -13 72.5t-35.5 47t-52 25t-62.5 7.5q-35 0 -65 -7.5t-52 -25
t-34.5 -47t-12.5 -72.5v-373q0 -44 12.5 -73t34.5 -46.5t52 -25t65 -7.5q33 0 62.5 7.5t52 25t35.5 46.5t13 73v373zM113 726v133h16v-133h-16zM292 726v133h16v-133h-16z" />
    <glyph glyph-name="multiply" unicode="&#xd7;" horiz-adv-x="535" 
d="M267 339l-150 -150l-7 7l150 150l-150 150l7 7l150 -150l150 150l7 -7l-150 -150l150 -150l-7 -7z" />
    <glyph glyph-name="Oslash" unicode="&#xd8;" horiz-adv-x="422" 
d="M37 -45l34 77q-34 38 -34 113v373q0 46 13.5 77.5t36.5 50t55 26.5t69 8t70 -9t57 -31l36 82l10 -4l-38 -86q17 -19 27.5 -47t10.5 -67v-373q0 -47 -14 -78t-37.5 -49.5t-55 -26.5t-66.5 -8q-42 0 -75.5 9.5t-56.5 31.5l-32 -73zM374 518q0 35 -8.5 60.5t-24.5 43.5
l-258 -587q23 -23 55.5 -32.5t72.5 -9.5q33 0 62.5 7.5t52 25t35.5 46.5t13 73v373zM333 630q-23 22 -54.5 31t-67.5 9q-35 0 -65 -7.5t-52 -25t-34.5 -47t-12.5 -72.5v-373q0 -66 29 -101z" />
    <glyph glyph-name="Ugrave" unicode="&#xd9;" horiz-adv-x="432" 
d="M378 664h10v-652q-24 -9 -67 -19t-109 -10q-35 0 -66.5 7.5t-54.5 26.5t-36.5 49.5t-13.5 77.5v520h10v-520q0 -44 12.5 -73t34.5 -46t51.5 -24.5t62.5 -7.5q63 0 102.5 8t63.5 17v646zM90 866v16l212 -166v-10z" />
    <glyph glyph-name="Uacute" unicode="&#xda;" horiz-adv-x="432" 
d="M378 664h10v-652q-24 -9 -67 -19t-109 -10q-35 0 -66.5 7.5t-54.5 26.5t-36.5 49.5t-13.5 77.5v520h10v-520q0 -44 12.5 -73t34.5 -46t51.5 -24.5t62.5 -7.5q63 0 102.5 8t63.5 17v646zM130 706v10l212 166v-16z" />
    <glyph glyph-name="Ucircumflex" unicode="&#xdb;" horiz-adv-x="432" 
d="M378 664h10v-652q-24 -9 -67 -19t-109 -10q-35 0 -66.5 7.5t-54.5 26.5t-36.5 49.5t-13.5 77.5v520h10v-520q0 -44 12.5 -73t34.5 -46t51.5 -24.5t62.5 -7.5q63 0 102.5 8t63.5 17v646zM374 723l-157 174l-157 -174l-6 5l157 180h12l157 -180z" />
    <glyph glyph-name="Udieresis" unicode="&#xdc;" horiz-adv-x="432" 
d="M378 664h10v-652q-24 -9 -67 -19t-109 -10q-35 0 -66.5 7.5t-54.5 26.5t-36.5 49.5t-13.5 77.5v520h10v-520q0 -44 12.5 -73t34.5 -46t51.5 -24.5t62.5 -7.5q63 0 102.5 8t63.5 17v646zM118 726v133h16v-133h-16zM297 726v133h16v-133h-16z" />
    <glyph glyph-name="Yacute" unicode="&#xdd;" horiz-adv-x="407" 
d="M199 0v237q-32 18 -62.5 39.5t-54 50.5t-38 68.5t-14.5 93.5v175h10v-175q0 -52 14 -90t36.5 -66.5t52 -49t61.5 -37.5q32 17 61.5 37.5t52 49t36 66.5t13.5 90v175h10v-175q0 -54 -14 -93.5t-37 -69t-53.5 -50.5t-63.5 -39v-237h-10zM117 706v10l212 166v-16z" />
    <glyph glyph-name="Thorn" unicode="&#xde;" horiz-adv-x="408" 
d="M54 129v-129h-10v664h10v-113h194q42 0 69 -12t42.5 -37.5t21.5 -65.5t6 -96t-6 -96t-21.5 -65.5t-42.5 -37.5t-69 -12h-194zM248 139q39 0 64.5 11.5t39.5 36t19.5 62.5t5.5 91t-5.5 91t-19.5 62.5t-39.5 36t-64.5 11.5h-194v-402h194z" />
    <glyph glyph-name="germandbls" unicode="&#xdf;" horiz-adv-x="505" 
d="M469 177q0 28 -3 48t-10.5 35t-20 25.5t-30.5 19.5t-31.5 19t-22 24t-13 35t-4.5 51v90q0 42 -11 70t-30 45t-44.5 24t-55.5 7q-32 0 -58 -7t-44.5 -24t-29 -45t-10.5 -70v-524h-10v524q0 45 11 75t31 48t48 25.5t62 7.5q32 0 59.5 -7.5t48 -25.5t32 -48t11.5 -75v-90
q0 -29 4 -48.5t12 -32.5t20 -22t29 -17q20 -10 33.5 -21.5t21.5 -27t11.5 -37t3.5 -51.5v-41q0 -79 -29 -116t-103 -37t-105.5 27.5t-31.5 93.5v57h10v-57q0 -61 29 -86t98 -25q68 0 95 34.5t27 108.5v41z" />
    <glyph glyph-name="agrave" unicode="&#xe0;" horiz-adv-x="394" 
d="M343 349q0 42 -11.5 70t-31.5 45t-47.5 24t-58.5 7q-48 0 -80 -6t-63 -20v11q24 11 58 18t85 7q34 0 63 -7.5t50.5 -25.5t33.5 -48t12 -75v-338q-22 -12 -56 -20t-96 -8q-39 0 -71 7.5t-54.5 24t-35 43t-12.5 64.5v31q0 42 12.5 68.5t34.5 41t51.5 20t63.5 5.5
q52 0 92 -16t61 -31v108zM343 232q-29 20 -68.5 33t-84.5 13q-32 0 -59.5 -5t-48 -18.5t-32.5 -38t-12 -63.5v-31q0 -36 11.5 -60.5t33 -39.5t51.5 -22t67 -7q58 0 89.5 6.5t52.5 17.5v215zM71 694v16l212 -166v-10z" />
    <glyph glyph-name="aacute" unicode="&#xe1;" horiz-adv-x="394" 
d="M343 349q0 42 -11.5 70t-31.5 45t-47.5 24t-58.5 7q-48 0 -80 -6t-63 -20v11q24 11 58 18t85 7q34 0 63 -7.5t50.5 -25.5t33.5 -48t12 -75v-338q-22 -12 -56 -20t-96 -8q-39 0 -71 7.5t-54.5 24t-35 43t-12.5 64.5v31q0 42 12.5 68.5t34.5 41t51.5 20t63.5 5.5
q52 0 92 -16t61 -31v108zM343 232q-29 20 -68.5 33t-84.5 13q-32 0 -59.5 -5t-48 -18.5t-32.5 -38t-12 -63.5v-31q0 -36 11.5 -60.5t33 -39.5t51.5 -22t67 -7q58 0 89.5 6.5t52.5 17.5v215zM111 534v10l212 166v-16z" />
    <glyph glyph-name="acircumflex" unicode="&#xe2;" horiz-adv-x="394" 
d="M343 349q0 42 -11.5 70t-31.5 45t-47.5 24t-58.5 7q-48 0 -80 -6t-63 -20v11q24 11 58 18t85 7q34 0 63 -7.5t50.5 -25.5t33.5 -48t12 -75v-338q-22 -12 -56 -20t-96 -8q-39 0 -71 7.5t-54.5 24t-35 43t-12.5 64.5v31q0 42 12.5 68.5t34.5 41t51.5 20t63.5 5.5
q52 0 92 -16t61 -31v108zM343 232q-29 20 -68.5 33t-84.5 13q-32 0 -59.5 -5t-48 -18.5t-32.5 -38t-12 -63.5v-31q0 -36 11.5 -60.5t33 -39.5t51.5 -22t67 -7q58 0 89.5 6.5t52.5 17.5v215zM355 551l-157 174l-157 -174l-6 5l157 180h12l157 -180z" />
    <glyph glyph-name="atilde" unicode="&#xe3;" horiz-adv-x="394" 
d="M343 349q0 42 -11.5 70t-31.5 45t-47.5 24t-58.5 7q-48 0 -80 -6t-63 -20v11q24 11 58 18t85 7q34 0 63 -7.5t50.5 -25.5t33.5 -48t12 -75v-338q-22 -12 -56 -20t-96 -8q-39 0 -71 7.5t-54.5 24t-35 43t-12.5 64.5v31q0 42 12.5 68.5t34.5 41t51.5 20t63.5 5.5
q52 0 92 -16t61 -31v108zM343 232q-29 20 -68.5 33t-84.5 13q-32 0 -59.5 -5t-48 -18.5t-32.5 -38t-12 -63.5v-31q0 -36 11.5 -60.5t33 -39.5t51.5 -22t67 -7q58 0 89.5 6.5t52.5 17.5v215zM51 629v10h295v-10h-295z" />
    <glyph glyph-name="adieresis" unicode="&#xe4;" horiz-adv-x="394" 
d="M343 349q0 42 -11.5 70t-31.5 45t-47.5 24t-58.5 7q-48 0 -80 -6t-63 -20v11q24 11 58 18t85 7q34 0 63 -7.5t50.5 -25.5t33.5 -48t12 -75v-338q-22 -12 -56 -20t-96 -8q-39 0 -71 7.5t-54.5 24t-35 43t-12.5 64.5v31q0 42 12.5 68.5t34.5 41t51.5 20t63.5 5.5
q52 0 92 -16t61 -31v108zM343 232q-29 20 -68.5 33t-84.5 13q-32 0 -59.5 -5t-48 -18.5t-32.5 -38t-12 -63.5v-31q0 -36 11.5 -60.5t33 -39.5t51.5 -22t67 -7q58 0 89.5 6.5t52.5 17.5v215zM99 554v133h16v-133h-16zM278 554v133h16v-133h-16z" />
    <glyph glyph-name="aring" unicode="&#xe5;" horiz-adv-x="394" 
d="M343 349q0 42 -11.5 70t-31.5 45t-47.5 24t-58.5 7q-48 0 -80 -6t-63 -20v11q24 11 58 18t85 7q34 0 63 -7.5t50.5 -25.5t33.5 -48t12 -75v-338q-22 -12 -56 -20t-96 -8q-39 0 -71 7.5t-54.5 24t-35 43t-12.5 64.5v31q0 42 12.5 68.5t34.5 41t51.5 20t63.5 5.5
q52 0 92 -16t61 -31v108zM343 232q-29 20 -68.5 33t-84.5 13q-32 0 -59.5 -5t-48 -18.5t-32.5 -38t-12 -63.5v-31q0 -36 11.5 -60.5t33 -39.5t51.5 -22t67 -7q58 0 89.5 6.5t52.5 17.5v215zM196 524q-93 0 -93 96q0 46 22.5 71t70.5 25q51 0 72.5 -25t21.5 -71
q0 -48 -21.5 -72t-72.5 -24zM196 534q45 0 64.5 22t19.5 64t-19.5 64t-64.5 22q-83 0 -83 -86t83 -86z" />
    <glyph glyph-name="ae" unicode="&#xe6;" horiz-adv-x="697" 
d="M657 8q-23 -10 -63 -17.5t-92 -7.5q-53 0 -92.5 18.5t-56.5 68.5v-59q-22 -12 -56 -20t-96 -8q-39 0 -71 7.5t-54.5 24t-35 43t-12.5 64.5v31q0 42 12.5 68.5t34.5 41t51.5 20t63.5 5.5q52 0 92 -16t61 -31v108q0 43 -12 71t-32 44.5t-47 23.5t-58 7q-48 0 -80 -6
t-63 -20v11q24 11 58 18t85 7q57 0 98.5 -23t55.5 -83q13 59 54 82.5t100 23.5q33 0 62.5 -7.5t51 -25.5t34 -48t12.5 -75v-114h-309v-96q0 -42 11.5 -70t31.5 -45t47 -24t59 -7q48 0 86.5 7t68.5 18v-10zM652 349q0 42 -12 70t-32 45t-47.5 24t-58.5 7q-33 0 -60 -7
t-47 -24t-31 -45t-11 -70v-104h299v104zM343 232q-29 20 -68.5 33t-84.5 13q-32 0 -59.5 -5t-48 -18.5t-32.5 -38t-12 -63.5v-31q0 -36 11.5 -60.5t33 -39.5t51.5 -22t67 -7q58 0 89.5 6.5t52.5 17.5v215z" />
    <glyph glyph-name="ccedilla" unicode="&#xe7;" horiz-adv-x="380" 
d="M339 206h10v-67q0 -45 -11.5 -75t-32.5 -48t-49.5 -25.5t-61.5 -7.5q-35 0 -64 7.5t-50 25.5t-33 48t-12 75v210q0 45 12 75t33 48t50 25.5t64 7.5q33 0 61.5 -7.5t49.5 -25.5t32.5 -48t11.5 -75v-63h-10v63q0 42 -11 70t-30.5 45t-46 24t-57.5 7q-33 0 -60 -7t-47 -24
t-31 -45t-11 -70v-210q0 -42 11 -70t31 -45t47 -24t60 -7q31 0 57.5 7t46 24t30.5 45t11 70v67zM194 -34h14l-17 -163q-2 -20 -8 -32.5t-11 -13.5z" />
    <glyph glyph-name="egrave" unicode="&#xe8;" 
d="M349 8q-23 -10 -63 -17.5t-92 -7.5q-34 0 -63 7.5t-50.5 25.5t-33.5 48t-12 75v210q0 45 12 75t33 48t50 25.5t64 7.5q33 0 62.5 -7.5t51 -25.5t34 -48t12.5 -75v-114h-309v-96q0 -42 11.5 -70t31.5 -45t47 -24t59 -7q48 0 86.5 7t68.5 18v-10zM344 349q0 42 -12 70
t-32 45t-47.5 24t-58.5 7q-33 0 -60 -7t-47 -24t-31 -45t-11 -70v-104h299v104zM68 694v16l212 -166v-10z" />
    <glyph glyph-name="eacute" unicode="&#xe9;" 
d="M349 8q-23 -10 -63 -17.5t-92 -7.5q-34 0 -63 7.5t-50.5 25.5t-33.5 48t-12 75v210q0 45 12 75t33 48t50 25.5t64 7.5q33 0 62.5 -7.5t51 -25.5t34 -48t12.5 -75v-114h-309v-96q0 -42 11.5 -70t31.5 -45t47 -24t59 -7q48 0 86.5 7t68.5 18v-10zM344 349q0 42 -12 70
t-32 45t-47.5 24t-58.5 7q-33 0 -60 -7t-47 -24t-31 -45t-11 -70v-104h299v104zM108 534v10l212 166v-16z" />
    <glyph glyph-name="ecircumflex" unicode="&#xea;" 
d="M349 8q-23 -10 -63 -17.5t-92 -7.5q-34 0 -63 7.5t-50.5 25.5t-33.5 48t-12 75v210q0 45 12 75t33 48t50 25.5t64 7.5q33 0 62.5 -7.5t51 -25.5t34 -48t12.5 -75v-114h-309v-96q0 -42 11.5 -70t31.5 -45t47 -24t59 -7q48 0 86.5 7t68.5 18v-10zM344 349q0 42 -12 70
t-32 45t-47.5 24t-58.5 7q-33 0 -60 -7t-47 -24t-31 -45t-11 -70v-104h299v104zM352 551l-157 174l-157 -174l-6 5l157 180h12l157 -180z" />
    <glyph glyph-name="edieresis" unicode="&#xeb;" 
d="M349 8q-23 -10 -63 -17.5t-92 -7.5q-34 0 -63 7.5t-50.5 25.5t-33.5 48t-12 75v210q0 45 12 75t33 48t50 25.5t64 7.5q33 0 62.5 -7.5t51 -25.5t34 -48t12.5 -75v-114h-309v-96q0 -42 11.5 -70t31.5 -45t47 -24t59 -7q48 0 86.5 7t68.5 18v-10zM344 349q0 42 -12 70
t-32 45t-47.5 24t-58.5 7q-33 0 -60 -7t-47 -24t-31 -45t-11 -70v-104h299v104zM96 554v133h16v-133h-16zM275 554v133h16v-133h-16z" />
    <glyph glyph-name="igrave" unicode="&#xec;" horiz-adv-x="110" 
d="M50 0v492h10v-492h-10zM-70 694v16l212 -166v-10z" />
    <glyph glyph-name="iacute" unicode="&#xed;" horiz-adv-x="110" 
d="M50 0v492h10v-492h-10zM-30 534v10l212 166v-16z" />
    <glyph glyph-name="icircumflex" unicode="&#xee;" horiz-adv-x="110" 
d="M50 0v492h10v-492h-10zM213 551l-157 174l-157 -174l-6 5l157 180h12l157 -180z" />
    <glyph glyph-name="idieresis" unicode="&#xef;" horiz-adv-x="110" 
d="M50 0v492h10v-492h-10zM-41 554v133h16v-133h-16zM138 554v133h16v-133h-16z" />
    <glyph glyph-name="eth" unicode="&#xf0;" horiz-adv-x="398" 
d="M351 391q0 43 -16.5 92.5t-58.5 94.5l-180 -51l-2 10l173 50q-29 29 -71 51t-99 34h33q48 -12 85 -33.5t63 -48.5l77 22l2 -10l-71 -21q40 -45 57.5 -95t17.5 -95v-252q0 -45 -12 -75t-33 -48t-50.5 -25.5t-64.5 -7.5q-33 0 -63 7.5t-52.5 25.5t-35.5 48t-13 75v160
q0 49 12.5 79.5t34 47.5t49.5 23t58 6q31 0 53.5 -5t41 -15t34 -25.5t31.5 -36.5v18zM351 361q-16 21 -32.5 36.5t-35 26t-41 16t-51.5 5.5t-55 -5.5t-45.5 -21.5t-31.5 -44.5t-12 -74.5v-160q0 -42 12 -70t33 -45t49 -24t60 -7q33 0 60.5 7t47.5 24t31 45t11 70v222z" />
    <glyph glyph-name="ntilde" unicode="&#xf1;" horiz-adv-x="403" 
d="M353 0v349q0 42 -11 70t-31 45t-47 24t-58 7q-59 0 -94 -7.5t-58 -16.5v-471h-10v477q24 9 61.5 18.5t100.5 9.5q34 0 62.5 -7.5t49.5 -25.5t33 -48t12 -75v-349h-10zM54 629v10h295v-10h-295z" />
    <glyph glyph-name="ograve" unicode="&#xf2;" 
d="M354 139q0 -45 -12.5 -75t-34 -48t-51 -25.5t-62.5 -7.5q-35 0 -64 7.5t-50 25.5t-33 48t-12 75v210q0 45 12 75t33 48t50 25.5t64 7.5q33 0 62.5 -7.5t51 -25.5t34 -48t12.5 -75v-210zM344 349q0 42 -12 70t-32 45t-47.5 24t-58.5 7q-33 0 -60 -7t-47 -24t-31 -45
t-11 -70v-210q0 -42 11 -70t31 -45t47 -24t60 -7q31 0 58.5 7t47.5 24t32 45t12 70v210zM68 694v16l212 -166v-10z" />
    <glyph glyph-name="oacute" unicode="&#xf3;" 
d="M354 139q0 -45 -12.5 -75t-34 -48t-51 -25.5t-62.5 -7.5q-35 0 -64 7.5t-50 25.5t-33 48t-12 75v210q0 45 12 75t33 48t50 25.5t64 7.5q33 0 62.5 -7.5t51 -25.5t34 -48t12.5 -75v-210zM344 349q0 42 -12 70t-32 45t-47.5 24t-58.5 7q-33 0 -60 -7t-47 -24t-31 -45
t-11 -70v-210q0 -42 11 -70t31 -45t47 -24t60 -7q31 0 58.5 7t47.5 24t32 45t12 70v210zM108 534v10l212 166v-16z" />
    <glyph glyph-name="ocircumflex" unicode="&#xf4;" 
d="M354 139q0 -45 -12.5 -75t-34 -48t-51 -25.5t-62.5 -7.5q-35 0 -64 7.5t-50 25.5t-33 48t-12 75v210q0 45 12 75t33 48t50 25.5t64 7.5q33 0 62.5 -7.5t51 -25.5t34 -48t12.5 -75v-210zM344 349q0 42 -12 70t-32 45t-47.5 24t-58.5 7q-33 0 -60 -7t-47 -24t-31 -45
t-11 -70v-210q0 -42 11 -70t31 -45t47 -24t60 -7q31 0 58.5 7t47.5 24t32 45t12 70v210zM352 551l-157 174l-157 -174l-6 5l157 180h12l157 -180z" />
    <glyph glyph-name="otilde" unicode="&#xf5;" 
d="M354 139q0 -45 -12.5 -75t-34 -48t-51 -25.5t-62.5 -7.5q-35 0 -64 7.5t-50 25.5t-33 48t-12 75v210q0 45 12 75t33 48t50 25.5t64 7.5q33 0 62.5 -7.5t51 -25.5t34 -48t12.5 -75v-210zM344 349q0 42 -12 70t-32 45t-47.5 24t-58.5 7q-33 0 -60 -7t-47 -24t-31 -45
t-11 -70v-210q0 -42 11 -70t31 -45t47 -24t60 -7q31 0 58.5 7t47.5 24t32 45t12 70v210zM48 629v10h295v-10h-295z" />
    <glyph glyph-name="odieresis" unicode="&#xf6;" 
d="M354 139q0 -45 -12.5 -75t-34 -48t-51 -25.5t-62.5 -7.5q-35 0 -64 7.5t-50 25.5t-33 48t-12 75v210q0 45 12 75t33 48t50 25.5t64 7.5q33 0 62.5 -7.5t51 -25.5t34 -48t12.5 -75v-210zM344 349q0 42 -12 70t-32 45t-47.5 24t-58.5 7q-33 0 -60 -7t-47 -24t-31 -45
t-11 -70v-210q0 -42 11 -70t31 -45t47 -24t60 -7q31 0 58.5 7t47.5 24t32 45t12 70v210zM96 554v133h16v-133h-16zM275 554v133h16v-133h-16z" />
    <glyph glyph-name="divide" unicode="&#xf7;" horiz-adv-x="535" 
d="M50 341v10h434v-10h-434zM259 451v151h16v-151h-16zM259 90v151h16v-151h-16z" />
    <glyph glyph-name="oslash" unicode="&#xf8;" 
d="M35 -45l36 69q-17 18 -26.5 45.5t-9.5 69.5v210q0 45 12 75t33 48t50 25.5t64 7.5q34 0 63.5 -8t51.5 -27l37 70l8 -4l-39 -72q18 -19 28.5 -47t10.5 -68v-210q0 -45 -12.5 -75t-34 -48t-51 -25.5t-62.5 -7.5q-35 0 -65 8t-51 26l-35 -66zM344 349q0 36 -9 62t-25 43
l-227 -427q20 -19 48 -26.5t63 -7.5q31 0 58.5 7t47.5 24t32 45t12 70v210zM303 460q-20 19 -48.5 27t-60.5 8q-33 0 -60 -7t-47 -24t-31 -45t-11 -70v-210q0 -36 8.5 -62t23.5 -43z" />
    <glyph glyph-name="ugrave" unicode="&#xf9;" horiz-adv-x="405" 
d="M348 492h10v-481q-23 -9 -61 -18.5t-101 -9.5q-33 0 -61.5 7.5t-49.5 25.5t-33 48t-12 75v353h10v-353q0 -42 11 -70t30.5 -45t46 -24t58.5 -7q57 0 93.5 7.5t58.5 16.5v475zM76 694v16l212 -166v-10z" />
    <glyph glyph-name="uacute" unicode="&#xfa;" horiz-adv-x="405" 
d="M348 492h10v-481q-23 -9 -61 -18.5t-101 -9.5q-33 0 -61.5 7.5t-49.5 25.5t-33 48t-12 75v353h10v-353q0 -42 11 -70t30.5 -45t46 -24t58.5 -7q57 0 93.5 7.5t58.5 16.5v475zM116 534v10l212 166v-16z" />
    <glyph glyph-name="ucircumflex" unicode="&#xfb;" horiz-adv-x="405" 
d="M348 492h10v-481q-23 -9 -61 -18.5t-101 -9.5q-33 0 -61.5 7.5t-49.5 25.5t-33 48t-12 75v353h10v-353q0 -42 11 -70t30.5 -45t46 -24t58.5 -7q57 0 93.5 7.5t58.5 16.5v475zM361 551l-157 174l-157 -174l-6 5l157 180h12l157 -180z" />
    <glyph glyph-name="udieresis" unicode="&#xfc;" horiz-adv-x="405" 
d="M348 492h10v-481q-23 -9 -61 -18.5t-101 -9.5q-33 0 -61.5 7.5t-49.5 25.5t-33 48t-12 75v353h10v-353q0 -42 11 -70t30.5 -45t46 -24t58.5 -7q57 0 93.5 7.5t58.5 16.5v475zM105 554v133h16v-133h-16zM284 554v133h16v-133h-16z" />
    <glyph glyph-name="yacute" unicode="&#xfd;" horiz-adv-x="403" 
d="M350 39q-23 -17 -61 -31t-98 -14q-32 0 -59.5 7t-47.5 24.5t-31.5 47.5t-11.5 77v342h10v-342q0 -44 10.5 -72t29.5 -44.5t44.5 -23t55.5 -6.5q60 0 98 14.5t61 31.5v442h10v-587q0 -43 -12 -72t-33.5 -46.5t-51 -25t-63.5 -7.5q-32 0 -59 7.5t-47 25t-31 46.5t-11 72v39
h10v-39q0 -40 10.5 -67t29 -43.5t43.5 -23.5t55 -7q32 0 59.5 7t47.5 23.5t31.5 43.5t11.5 67v134zM115 534v10l212 166v-16z" />
    <glyph glyph-name="thorn" unicode="&#xfe;" horiz-adv-x="398" 
d="M44 -233v905h10v-212q23 17 61 31t98 14q32 0 59.5 -7t47.5 -24.5t31.5 -48t11.5 -76.5v-210q0 -47 -11.5 -77t-31.5 -47.5t-47.5 -24.5t-59.5 -7q-60 0 -98 14t-61 31v-261h-10zM353 349q0 43 -10.5 71.5t-29.5 45t-44.5 23t-55.5 6.5q-60 0 -98 -14.5t-61 -31.5v-410
q23 -17 61 -31.5t98 -14.5q30 0 55.5 6.5t44.5 23t29.5 44.5t10.5 72v210z" />
    <glyph glyph-name="ydieresis" unicode="&#xff;" horiz-adv-x="403" 
d="M350 39q-23 -17 -61 -31t-98 -14q-32 0 -59.5 7t-47.5 24.5t-31.5 47.5t-11.5 77v342h10v-342q0 -44 10.5 -72t29.5 -44.5t44.5 -23t55.5 -6.5q60 0 98 14.5t61 31.5v442h10v-587q0 -43 -12 -72t-33.5 -46.5t-51 -25t-63.5 -7.5q-32 0 -59 7.5t-47 25t-31 46.5t-11 72v39
h10v-39q0 -40 10.5 -67t29 -43.5t43.5 -23.5t55 -7q32 0 59.5 7t47.5 23.5t31.5 43.5t11.5 67v134zM104 554v133h16v-133h-16zM283 554v133h16v-133h-16z" />
    <glyph glyph-name="Amacron" unicode="&#x100;" horiz-adv-x="422" 
d="M374 0v275h-327v-275h-10v426q0 55 14.5 95t38.5 69.5t55.5 50.5t65.5 39q33 -18 64 -39t55 -50.5t39 -69.5t15 -95v-426h-10zM374 426q0 52 -13.5 90t-36.5 66t-52.5 49t-60.5 38q-32 -17 -62 -37.5t-52.5 -49t-36 -66.5t-13.5 -90v-141h327v141zM63 801v10h295v-10
h-295z" />
    <glyph glyph-name="amacron" unicode="&#x101;" horiz-adv-x="394" 
d="M343 349q0 42 -11.5 70t-31.5 45t-47.5 24t-58.5 7q-48 0 -80 -6t-63 -20v11q24 11 58 18t85 7q34 0 63 -7.5t50.5 -25.5t33.5 -48t12 -75v-338q-22 -12 -56 -20t-96 -8q-39 0 -71 7.5t-54.5 24t-35 43t-12.5 64.5v31q0 42 12.5 68.5t34.5 41t51.5 20t63.5 5.5
q52 0 92 -16t61 -31v108zM343 232q-29 20 -68.5 33t-84.5 13q-32 0 -59.5 -5t-48 -18.5t-32.5 -38t-12 -63.5v-31q0 -36 11.5 -60.5t33 -39.5t51.5 -22t67 -7q58 0 89.5 6.5t52.5 17.5v215zM51 629v10h295v-10h-295z" />
    <glyph glyph-name="Abreve" unicode="&#x102;" horiz-adv-x="422" 
d="M374 0v275h-327v-275h-10v426q0 55 14.5 95t38.5 69.5t55.5 50.5t65.5 39q33 -18 64 -39t55 -50.5t39 -69.5t15 -95v-426h-10zM374 426q0 52 -13.5 90t-36.5 66t-52.5 49t-60.5 38q-32 -17 -62 -37.5t-52.5 -49t-36 -66.5t-13.5 -90v-141h327v141zM358 888
q0 -42 -12.5 -73t-32.5 -51.5t-46.5 -31t-54.5 -10.5t-54.5 10.5t-46.5 31t-32.5 51.5t-12.5 73h10q1 -40 12.5 -69.5t30.5 -48.5t43 -28.5t50 -9.5q25 0 49.5 9t43.5 28t31 48.5t12 70.5h10z" />
    <glyph glyph-name="abreve" unicode="&#x103;" horiz-adv-x="394" 
d="M343 349q0 42 -11.5 70t-31.5 45t-47.5 24t-58.5 7q-48 0 -80 -6t-63 -20v11q24 11 58 18t85 7q34 0 63 -7.5t50.5 -25.5t33.5 -48t12 -75v-338q-22 -12 -56 -20t-96 -8q-39 0 -71 7.5t-54.5 24t-35 43t-12.5 64.5v31q0 42 12.5 68.5t34.5 41t51.5 20t63.5 5.5
q52 0 92 -16t61 -31v108zM343 232q-29 20 -68.5 33t-84.5 13q-32 0 -59.5 -5t-48 -18.5t-32.5 -38t-12 -63.5v-31q0 -36 11.5 -60.5t33 -39.5t51.5 -22t67 -7q58 0 89.5 6.5t52.5 17.5v215zM344 716q0 -42 -12.5 -73t-32.5 -51.5t-46.5 -31t-54.5 -10.5t-54.5 10.5t-46.5 31
t-32.5 51.5t-12.5 73h10q1 -40 12.5 -69.5t30.5 -48.5t43 -28.5t50 -9.5q25 0 49.5 9t43.5 28t31 48.5t12 70.5h10z" />
    <glyph glyph-name="Aogonek" unicode="&#x104;" horiz-adv-x="422" 
d="M384 -229q-5 -2 -16 -3t-32 -1q-38 0 -61 8.5t-35.5 22.5t-17 32.5t-4.5 38.5q0 42 17.5 69t62.5 40l76 22v275h-327v-275h-10v426q0 55 14.5 95t38.5 69.5t55.5 50.5t65.5 39q33 -18 64 -39t55 -50.5t39 -69.5t15 -95v-426l-84 -26q-42 -13 -57 -39.5t-15 -65.5
q0 -18 4 -35t15.5 -29.5t32.5 -20t56 -7.5q21 0 32 1t16 3v-10zM374 426q0 52 -13.5 90t-36.5 66t-52.5 49t-60.5 38q-32 -17 -62 -37.5t-52.5 -49t-36 -66.5t-13.5 -90v-141h327v141z" />
    <glyph glyph-name="aogonek" unicode="&#x105;" horiz-adv-x="394" 
d="M328 -229q-5 -2 -16 -3t-32 -1q-38 0 -61 8.5t-35.5 22.5t-17 32.5t-4.5 38.5q0 42 17.5 68.5t62.5 40.5l30 9q-14 -2 -32 -3t-39 -1q-39 0 -71 7.5t-54.5 24t-35 43t-12.5 64.5v31q0 42 12.5 68.5t34.5 41t51.5 20t63.5 5.5q52 0 92 -16t61 -31v108q0 42 -11.5 70
t-31.5 45t-47.5 24t-58.5 7q-48 0 -80 -6t-63 -20v11q24 11 58 18t85 7q34 0 63 -7.5t50.5 -25.5t33.5 -48t12 -75v-338q-5 -3 -11.5 -6t-18.5 -6.5t-30.5 -9.5t-48.5 -15q-42 -13 -57 -39.5t-15 -65.5q0 -18 4 -35t15.5 -29.5t32.5 -20t56 -7.5q21 0 32 1t16 3v-10z
M343 232q-29 20 -68.5 33t-84.5 13q-32 0 -59.5 -5t-48 -18.5t-32.5 -38t-12 -63.5v-31q0 -36 11.5 -60.5t33 -39.5t51.5 -22t67 -7q58 0 89.5 6.5t52.5 17.5v215z" />
    <glyph glyph-name="Cacute" unicode="&#x106;" horiz-adv-x="401" 
d="M356 274h10v-129q0 -47 -11 -78t-31.5 -49.5t-49 -26.5t-63.5 -8q-37 0 -69 8t-55 26.5t-36.5 49.5t-13.5 78v373q0 46 13.5 77.5t36.5 50t55 26.5t69 8q35 0 63.5 -8t49 -26.5t31.5 -50t11 -77.5v-132h-10v132q0 43 -10.5 72.5t-29.5 47t-45.5 25t-59.5 7.5
q-35 0 -65 -7.5t-52 -25t-34.5 -47t-12.5 -72.5v-373q0 -44 12.5 -73t34.5 -46.5t52 -25t65 -7.5q33 0 59.5 7.5t45.5 25t29.5 46.5t10.5 73v129zM114 706v10l212 166v-16z" />
    <glyph glyph-name="cacute" unicode="&#x107;" horiz-adv-x="380" 
d="M339 206h10v-67q0 -45 -11.5 -75t-32.5 -48t-49.5 -25.5t-61.5 -7.5q-35 0 -64 7.5t-50 25.5t-33 48t-12 75v210q0 45 12 75t33 48t50 25.5t64 7.5q33 0 61.5 -7.5t49.5 -25.5t32.5 -48t11.5 -75v-63h-10v63q0 42 -11 70t-30.5 45t-46 24t-57.5 7q-33 0 -60 -7t-47 -24
t-31 -45t-11 -70v-210q0 -42 11 -70t31 -45t47 -24t60 -7q31 0 57.5 7t46 24t30.5 45t11 70v67zM104 534v10l212 166v-16z" />
    <glyph glyph-name="Ccircumflex" unicode="&#x108;" horiz-adv-x="401" 
d="M356 274h10v-129q0 -47 -11 -78t-31.5 -49.5t-49 -26.5t-63.5 -8q-37 0 -69 8t-55 26.5t-36.5 49.5t-13.5 78v373q0 46 13.5 77.5t36.5 50t55 26.5t69 8q35 0 63.5 -8t49 -26.5t31.5 -50t11 -77.5v-132h-10v132q0 43 -10.5 72.5t-29.5 47t-45.5 25t-59.5 7.5
q-35 0 -65 -7.5t-52 -25t-34.5 -47t-12.5 -72.5v-373q0 -44 12.5 -73t34.5 -46.5t52 -25t65 -7.5q33 0 59.5 7.5t45.5 25t29.5 46.5t10.5 73v129zM359 723l-157 174l-157 -174l-6 5l157 180h12l157 -180z" />
    <glyph glyph-name="ccircumflex" unicode="&#x109;" horiz-adv-x="380" 
d="M339 206h10v-67q0 -45 -11.5 -75t-32.5 -48t-49.5 -25.5t-61.5 -7.5q-35 0 -64 7.5t-50 25.5t-33 48t-12 75v210q0 45 12 75t33 48t50 25.5t64 7.5q33 0 61.5 -7.5t49.5 -25.5t32.5 -48t11.5 -75v-63h-10v63q0 42 -11 70t-30.5 45t-46 24t-57.5 7q-33 0 -60 -7t-47 -24
t-31 -45t-11 -70v-210q0 -42 11 -70t31 -45t47 -24t60 -7q31 0 57.5 7t46 24t30.5 45t11 70v67zM348 551l-157 174l-157 -174l-6 5l157 180h12l157 -180z" />
    <glyph glyph-name="Cdotaccent" unicode="&#x10a;" horiz-adv-x="401" 
d="M356 274h10v-129q0 -47 -11 -78t-31.5 -49.5t-49 -26.5t-63.5 -8q-37 0 -69 8t-55 26.5t-36.5 49.5t-13.5 78v373q0 46 13.5 77.5t36.5 50t55 26.5t69 8q35 0 63.5 -8t49 -26.5t31.5 -50t11 -77.5v-132h-10v132q0 43 -10.5 72.5t-29.5 47t-45.5 25t-59.5 7.5
q-35 0 -65 -7.5t-52 -25t-34.5 -47t-12.5 -72.5v-373q0 -44 12.5 -73t34.5 -46.5t52 -25t65 -7.5q33 0 59.5 7.5t45.5 25t29.5 46.5t10.5 73v129zM192 726v133h16v-133h-16z" />
    <glyph glyph-name="cdotaccent" unicode="&#x10b;" horiz-adv-x="380" 
d="M339 206h10v-67q0 -45 -11.5 -75t-32.5 -48t-49.5 -25.5t-61.5 -7.5q-35 0 -64 7.5t-50 25.5t-33 48t-12 75v210q0 45 12 75t33 48t50 25.5t64 7.5q33 0 61.5 -7.5t49.5 -25.5t32.5 -48t11.5 -75v-63h-10v63q0 42 -11 70t-30.5 45t-46 24t-57.5 7q-33 0 -60 -7t-47 -24
t-31 -45t-11 -70v-210q0 -42 11 -70t31 -45t47 -24t60 -7q31 0 57.5 7t46 24t30.5 45t11 70v67zM182 554v133h16v-133h-16z" />
    <glyph glyph-name="Ccaron" unicode="&#x10c;" horiz-adv-x="401" 
d="M356 274h10v-129q0 -47 -11 -78t-31.5 -49.5t-49 -26.5t-63.5 -8q-37 0 -69 8t-55 26.5t-36.5 49.5t-13.5 78v373q0 46 13.5 77.5t36.5 50t55 26.5t69 8q35 0 63.5 -8t49 -26.5t31.5 -50t11 -77.5v-132h-10v132q0 43 -10.5 72.5t-29.5 47t-45.5 25t-59.5 7.5
q-35 0 -65 -7.5t-52 -25t-34.5 -47t-12.5 -72.5v-373q0 -44 12.5 -73t34.5 -46.5t52 -25t65 -7.5q33 0 59.5 7.5t45.5 25t29.5 46.5t10.5 73v129zM37 891l6 7l159 -176l159 176l6 -7l-165 -188z" />
    <glyph glyph-name="ccaron" unicode="&#x10d;" horiz-adv-x="380" 
d="M339 206h10v-67q0 -45 -11.5 -75t-32.5 -48t-49.5 -25.5t-61.5 -7.5q-35 0 -64 7.5t-50 25.5t-33 48t-12 75v210q0 45 12 75t33 48t50 25.5t64 7.5q33 0 61.5 -7.5t49.5 -25.5t32.5 -48t11.5 -75v-63h-10v63q0 42 -11 70t-30.5 45t-46 24t-57.5 7q-33 0 -60 -7t-47 -24
t-31 -45t-11 -70v-210q0 -42 11 -70t31 -45t47 -24t60 -7q31 0 57.5 7t46 24t30.5 45t11 70v67zM26 719l6 7l159 -176l159 176l6 -7l-165 -188z" />
    <glyph glyph-name="Dcaron" unicode="&#x10e;" horiz-adv-x="429" 
d="M44 0v664h174q35 0 66.5 -7t55.5 -29t38 -63.5t14 -110.5v-265q0 -52 -14 -88t-38 -58.5t-55.5 -32.5t-66.5 -10h-174zM382 454q0 66 -13 105.5t-35.5 60.5t-52.5 27.5t-63 6.5h-164v-644h164q33 0 63 9.5t52.5 30.5t35.5 55t13 84v265zM41 891l6 7l159 -176l159 176
l6 -7l-165 -188z" />
    <glyph glyph-name="dcaron" unicode="&#x10f;" horiz-adv-x="454" 
d="M35 349q0 46 11.5 76.5t31.5 48t47.5 24.5t59.5 7q60 0 98 -14t61 -31v212h10v-661q-24 -9 -61.5 -18.5t-100.5 -9.5q-34 0 -62.5 7.5t-49.5 25.5t-33 48t-12 75v210zM344 449q-23 17 -61 31.5t-98 14.5q-30 0 -55.5 -6.5t-44.5 -23t-29.5 -45t-10.5 -71.5v-210
q0 -42 11 -70t31 -45t46.5 -24t58.5 -7q58 0 93.5 7.5t58.5 16.5v432zM419 672h14l-24 -226q-2 -20 -8 -32.5t-11 -13.5z" />
    <glyph glyph-name="Dcroat" unicode="&#x110;" horiz-adv-x="429" 
d="M46 0v344h-24v10h24v310h174q35 0 66.5 -7t55 -29t37.5 -63.5t14 -110.5v-265q0 -52 -14 -88t-37.5 -58.5t-55 -32.5t-66.5 -10h-174zM383 454q0 66 -13 105.5t-35.5 60.5t-52 27.5t-62.5 6.5h-164v-300h188v-10h-188v-334h164q33 0 62.5 9.5t52 30.5t35.5 55t13 84v265z
" />
    <glyph glyph-name="dcroat" unicode="&#x111;" horiz-adv-x="398" 
d="M354 572v-561q-24 -9 -61.5 -18.5t-100.5 -9.5q-34 0 -62.5 7.5t-49.5 25.5t-33 48t-12 75v210q0 46 11.5 76.5t31.5 48t47.5 24.5t59.5 7q60 0 98 -14t61 -31v112h-241v10h241v90h10v-90h44v-10h-44zM344 449q-23 17 -61 31.5t-98 14.5q-30 0 -55.5 -6.5t-44.5 -23
t-29.5 -45t-10.5 -71.5v-210q0 -42 11 -70t31 -45t46.5 -24t58.5 -7q58 0 93.5 7.5t58.5 16.5v432z" />
    <glyph glyph-name="Emacron" unicode="&#x112;" horiz-adv-x="323" 
d="M44 0v664h244v-10h-234v-300h222v-10h-222v-334h240v-10h-250zM23 801v10h295v-10h-295z" />
    <glyph glyph-name="emacron" unicode="&#x113;" 
d="M349 8q-23 -10 -63 -17.5t-92 -7.5q-34 0 -63 7.5t-50.5 25.5t-33.5 48t-12 75v210q0 45 12 75t33 48t50 25.5t64 7.5q33 0 62.5 -7.5t51 -25.5t34 -48t12.5 -75v-114h-309v-96q0 -42 11.5 -70t31.5 -45t47 -24t59 -7q48 0 86.5 7t68.5 18v-10zM344 349q0 42 -12 70
t-32 45t-47.5 24t-58.5 7q-33 0 -60 -7t-47 -24t-31 -45t-11 -70v-104h299v104zM48 629v10h295v-10h-295z" />
    <glyph glyph-name="Ebreve" unicode="&#x114;" horiz-adv-x="323" 
d="M44 0v664h244v-10h-234v-300h222v-10h-222v-334h240v-10h-250zM316 888q0 -42 -12.5 -73t-32.5 -51.5t-46.5 -31t-54.5 -10.5t-54.5 10.5t-46.5 31t-32.5 51.5t-12.5 73h10q1 -40 12.5 -69.5t30.5 -48.5t43 -28.5t50 -9.5q25 0 49.5 9t43.5 28t31 48.5t12 70.5h10z" />
    <glyph glyph-name="ebreve" unicode="&#x115;" 
d="M349 8q-23 -10 -63 -17.5t-92 -7.5q-34 0 -63 7.5t-50.5 25.5t-33.5 48t-12 75v210q0 45 12 75t33 48t50 25.5t64 7.5q33 0 62.5 -7.5t51 -25.5t34 -48t12.5 -75v-114h-309v-96q0 -42 11.5 -70t31.5 -45t47 -24t59 -7q48 0 86.5 7t68.5 18v-10zM344 349q0 42 -12 70
t-32 45t-47.5 24t-58.5 7q-33 0 -60 -7t-47 -24t-31 -45t-11 -70v-104h299v104zM341 716q0 -42 -12.5 -73t-32.5 -51.5t-46.5 -31t-54.5 -10.5t-54.5 10.5t-46.5 31t-32.5 51.5t-12.5 73h10q1 -40 12.5 -69.5t30.5 -48.5t43 -28.5t50 -9.5q25 0 49.5 9t43.5 28t31 48.5
t12 70.5h10z" />
    <glyph glyph-name="Edotaccent" unicode="&#x116;" horiz-adv-x="323" 
d="M44 0v664h244v-10h-234v-300h222v-10h-222v-334h240v-10h-250zM163 726v133h16v-133h-16z" />
    <glyph glyph-name="edotaccent" unicode="&#x117;" 
d="M349 8q-23 -10 -63 -17.5t-92 -7.5q-34 0 -63 7.5t-50.5 25.5t-33.5 48t-12 75v210q0 45 12 75t33 48t50 25.5t64 7.5q33 0 62.5 -7.5t51 -25.5t34 -48t12.5 -75v-114h-309v-96q0 -42 11.5 -70t31.5 -45t47 -24t59 -7q48 0 86.5 7t68.5 18v-10zM344 349q0 42 -12 70
t-32 45t-47.5 24t-58.5 7q-33 0 -60 -7t-47 -24t-31 -45t-11 -70v-104h299v104zM186 554v133h16v-133h-16z" />
    <glyph glyph-name="Eogonek" unicode="&#x118;" horiz-adv-x="323" 
d="M294 -229q-5 -2 -16 -3t-32 -1q-38 0 -61 8.5t-35.5 22.5t-17 32.5t-4.5 38.5q0 42 17.5 69t62.5 40l76 22h-240v664h244v-10h-234v-300h222v-10h-222v-334h240v-10l-84 -26q-42 -13 -57 -39.5t-15 -65.5q0 -18 4 -35t15.5 -29.5t32.5 -20t56 -7.5q21 0 32 1t16 3v-10z
" />
    <glyph glyph-name="eogonek" unicode="&#x119;" 
d="M324 -229q-5 -2 -16 -3t-32 -1q-38 0 -61 8.5t-35.5 22.5t-17 32.5t-4.5 38.5q0 42 17.5 68.5t62.5 40.5l37 11q-18 -2 -38 -4t-43 -2q-34 0 -63 7.5t-50.5 25.5t-33.5 48t-12 75v210q0 45 12 75t33 48t50 25.5t64 7.5q33 0 62.5 -7.5t51 -25.5t34 -48t12.5 -75v-114
h-309v-96q0 -42 11.5 -70t31.5 -45t47 -24t59 -7q48 0 86.5 7t68.5 18v-10q-4 -2 -10 -4.5t-17.5 -6t-31 -9t-50.5 -14.5q-42 -12 -57 -39.5t-15 -65.5q0 -18 4 -35t15.5 -29.5t32.5 -20t56 -7.5q21 0 32 1t16 3v-10zM344 349q0 42 -12 70t-32 45t-47.5 24t-58.5 7
q-33 0 -60 -7t-47 -24t-31 -45t-11 -70v-104h299v104z" />
    <glyph glyph-name="Ecaron" unicode="&#x11a;" horiz-adv-x="323" 
d="M44 0v664h244v-10h-234v-300h222v-10h-222v-334h240v-10h-250zM5 891l6 7l159 -176l159 176l6 -7l-165 -188z" />
    <glyph glyph-name="ecaron" unicode="&#x11b;" 
d="M349 8q-23 -10 -63 -17.5t-92 -7.5q-34 0 -63 7.5t-50.5 25.5t-33.5 48t-12 75v210q0 45 12 75t33 48t50 25.5t64 7.5q33 0 62.5 -7.5t51 -25.5t34 -48t12.5 -75v-114h-309v-96q0 -42 11.5 -70t31.5 -45t47 -24t59 -7q48 0 86.5 7t68.5 18v-10zM344 349q0 42 -12 70
t-32 45t-47.5 24t-58.5 7q-33 0 -60 -7t-47 -24t-31 -45t-11 -70v-104h299v104zM30 719l6 7l159 -176l159 176l6 -7l-165 -188z" />
    <glyph glyph-name="Gcircumflex" unicode="&#x11c;" horiz-adv-x="415" 
d="M364 340h10v-328q-24 -9 -62 -19t-104 -10q-35 0 -66.5 7.5t-54.5 26.5t-36.5 49.5t-13.5 77.5v374q0 46 13.5 77.5t36.5 50t55 26.5t69 8q35 0 63.5 -8t49 -26.5t31.5 -50t11 -77.5v-92h-10v92q0 43 -10.5 72.5t-29.5 47t-45.5 25t-59.5 7.5q-35 0 -65 -7.5t-52 -25
t-34.5 -47t-12.5 -72.5v-374q0 -44 12.5 -73t34.5 -46t51.5 -24.5t62.5 -7.5q62 0 97.5 8t58.5 17v322zM366 723l-157 174l-157 -174l-6 5l157 180h12l157 -180z" />
    <glyph glyph-name="gcircumflex" unicode="&#x11d;" horiz-adv-x="391" 
d="M344 39q-23 -17 -61 -31t-98 -14q-32 0 -59.5 7t-47.5 24.5t-31.5 47.5t-11.5 77v199q0 45 12.5 75t34 48t50.5 25.5t62 7.5q35 0 64.5 -7.5t50.5 -25.5t33 -48t12 -75v-444q0 -43 -12 -72t-33.5 -46.5t-51 -25t-63.5 -7.5q-32 0 -59 7.5t-47 25t-31 46.5t-11 72v39h10
v-39q0 -40 10.5 -67t29 -43.5t43.5 -23.5t55 -7q32 0 59.5 7t47.5 23.5t31.5 43.5t11.5 67v134zM344 349q0 42 -11 70t-31 45t-47.5 24t-60.5 7q-31 0 -58 -7t-47.5 -24t-32 -45t-11.5 -70v-199q0 -44 10.5 -72t29.5 -44.5t44.5 -23t55.5 -6.5q60 0 98 14.5t61 31.5v299z
M354 551l-157 174l-157 -174l-6 5l157 180h12l157 -180z" />
    <glyph glyph-name="Gbreve" unicode="&#x11e;" horiz-adv-x="415" 
d="M364 340h10v-328q-24 -9 -62 -19t-104 -10q-35 0 -66.5 7.5t-54.5 26.5t-36.5 49.5t-13.5 77.5v374q0 46 13.5 77.5t36.5 50t55 26.5t69 8q35 0 63.5 -8t49 -26.5t31.5 -50t11 -77.5v-92h-10v92q0 43 -10.5 72.5t-29.5 47t-45.5 25t-59.5 7.5q-35 0 -65 -7.5t-52 -25
t-34.5 -47t-12.5 -72.5v-374q0 -44 12.5 -73t34.5 -46t51.5 -24.5t62.5 -7.5q62 0 97.5 8t58.5 17v322zM355 888q0 -42 -12.5 -73t-32.5 -51.5t-46.5 -31t-54.5 -10.5t-54.5 10.5t-46.5 31t-32.5 51.5t-12.5 73h10q1 -40 12.5 -69.5t30.5 -48.5t43 -28.5t50 -9.5
q25 0 49.5 9t43.5 28t31 48.5t12 70.5h10z" />
    <glyph glyph-name="gbreve" unicode="&#x11f;" horiz-adv-x="391" 
d="M344 39q-23 -17 -61 -31t-98 -14q-32 0 -59.5 7t-47.5 24.5t-31.5 47.5t-11.5 77v199q0 45 12.5 75t34 48t50.5 25.5t62 7.5q35 0 64.5 -7.5t50.5 -25.5t33 -48t12 -75v-444q0 -43 -12 -72t-33.5 -46.5t-51 -25t-63.5 -7.5q-32 0 -59 7.5t-47 25t-31 46.5t-11 72v39h10
v-39q0 -40 10.5 -67t29 -43.5t43.5 -23.5t55 -7q32 0 59.5 7t47.5 23.5t31.5 43.5t11.5 67v134zM344 349q0 42 -11 70t-31 45t-47.5 24t-60.5 7q-31 0 -58 -7t-47.5 -24t-32 -45t-11.5 -70v-199q0 -44 10.5 -72t29.5 -44.5t44.5 -23t55.5 -6.5q60 0 98 14.5t61 31.5v299z
M343 716q0 -42 -12.5 -73t-32.5 -51.5t-46.5 -31t-54.5 -10.5t-54.5 10.5t-46.5 31t-32.5 51.5t-12.5 73h10q1 -40 12.5 -69.5t30.5 -48.5t43 -28.5t50 -9.5q25 0 49.5 9t43.5 28t31 48.5t12 70.5h10z" />
    <glyph glyph-name="Gdotaccent" unicode="&#x120;" horiz-adv-x="415" 
d="M364 340h10v-328q-24 -9 -62 -19t-104 -10q-35 0 -66.5 7.5t-54.5 26.5t-36.5 49.5t-13.5 77.5v374q0 46 13.5 77.5t36.5 50t55 26.5t69 8q35 0 63.5 -8t49 -26.5t31.5 -50t11 -77.5v-92h-10v92q0 43 -10.5 72.5t-29.5 47t-45.5 25t-59.5 7.5q-35 0 -65 -7.5t-52 -25
t-34.5 -47t-12.5 -72.5v-374q0 -44 12.5 -73t34.5 -46t51.5 -24.5t62.5 -7.5q62 0 97.5 8t58.5 17v322zM199 726v133h16v-133h-16z" />
    <glyph glyph-name="gdotaccent" unicode="&#x121;" horiz-adv-x="391" 
d="M344 39q-23 -17 -61 -31t-98 -14q-32 0 -59.5 7t-47.5 24.5t-31.5 47.5t-11.5 77v199q0 45 12.5 75t34 48t50.5 25.5t62 7.5q35 0 64.5 -7.5t50.5 -25.5t33 -48t12 -75v-444q0 -43 -12 -72t-33.5 -46.5t-51 -25t-63.5 -7.5q-32 0 -59 7.5t-47 25t-31 46.5t-11 72v39h10
v-39q0 -40 10.5 -67t29 -43.5t43.5 -23.5t55 -7q32 0 59.5 7t47.5 23.5t31.5 43.5t11.5 67v134zM344 349q0 42 -11 70t-31 45t-47.5 24t-60.5 7q-31 0 -58 -7t-47.5 -24t-32 -45t-11.5 -70v-199q0 -44 10.5 -72t29.5 -44.5t44.5 -23t55.5 -6.5q60 0 98 14.5t61 31.5v299z
M187 554v133h16v-133h-16z" />
    <glyph glyph-name="uni0122" unicode="&#x122;" horiz-adv-x="415" 
d="M364 340h10v-328q-24 -9 -62 -19t-104 -10q-35 0 -66.5 7.5t-54.5 26.5t-36.5 49.5t-13.5 77.5v374q0 46 13.5 77.5t36.5 50t55 26.5t69 8q35 0 63.5 -8t49 -26.5t31.5 -50t11 -77.5v-92h-10v92q0 43 -10.5 72.5t-29.5 47t-45.5 25t-59.5 7.5q-35 0 -65 -7.5t-52 -25
t-34.5 -47t-12.5 -72.5v-374q0 -44 12.5 -73t34.5 -46t51.5 -24.5t62.5 -7.5q62 0 97.5 8t58.5 17v322zM211 -34h14l-17 -163q-2 -20 -8 -32.5t-11 -13.5z" />
    <glyph glyph-name="uni0123" unicode="&#x123;" horiz-adv-x="391" 
d="M344 39q-23 -17 -61 -31t-98 -14q-32 0 -59.5 7t-47.5 24.5t-31.5 47.5t-11.5 77v199q0 45 12.5 75t34 48t50.5 25.5t62 7.5q35 0 64.5 -7.5t50.5 -25.5t33 -48t12 -75v-444q0 -43 -12 -72t-33.5 -46.5t-51 -25t-63.5 -7.5q-32 0 -59 7.5t-47 25t-31 46.5t-11 72v39h10
v-39q0 -40 10.5 -67t29 -43.5t43.5 -23.5t55 -7q32 0 59.5 7t47.5 23.5t31.5 43.5t11.5 67v134zM344 349q0 42 -11 70t-31 45t-47.5 24t-60.5 7q-31 0 -58 -7t-47.5 -24t-32 -45t-11.5 -70v-199q0 -44 10.5 -72t29.5 -44.5t44.5 -23t55.5 -6.5q60 0 98 14.5t61 31.5v299z
M201.005 538.998h-13.999l16.999 162.99q2 19.998 8 32.498q5.99902 12.499 10.999 13.499z" />
    <glyph glyph-name="Hcircumflex" unicode="&#x124;" horiz-adv-x="436" 
d="M382 0v332h-328v-332h-10v664h10v-322h328v322h10v-664h-10zM376 723l-157 174l-157 -174l-6 5l157 180h12l157 -180z" />
    <glyph glyph-name="hcircumflex" unicode="&#x125;" horiz-adv-x="403" 
d="M353 0v349q0 43 -10.5 71.5t-29.5 45t-44.5 23t-55.5 6.5q-60 0 -98 -14.5t-61 -31.5v-449h-10v672h10v-212q23 17 61 31t98 14q32 0 59.5 -7t47.5 -24.5t31.5 -48t11.5 -76.5v-349h-10zM365 723l-157 174l-157 -174l-6 5l157 180h12l157 -180z" />
    <glyph glyph-name="Hbar" unicode="&#x126;" horiz-adv-x="436" 
d="M382 0v332h-328v-332h-10v664h10v-158h328v158h10v-664h-10zM382 342v154h-328v-154h328z" />
    <glyph glyph-name="hbar" unicode="&#x127;" horiz-adv-x="403" 
d="M54 573v-113q23 17 61 31t98 14q32 0 59.5 -7t47.5 -24.5t31.5 -48t11.5 -76.5v-349h-10v349q0 43 -10.5 71.5t-29.5 45t-44.5 23t-55.5 6.5q-60 0 -98 -14.5t-61 -31.5v-449h-10v573h-44v10h44v89h10v-89h241v-10h-241z" />
    <glyph glyph-name="Itilde" unicode="&#x128;" horiz-adv-x="98" 
d="M44 0v664h10v-664h-10zM-97 801v10h295v-10h-295z" />
    <glyph glyph-name="itilde" unicode="&#x129;" horiz-adv-x="110" 
d="M50 0v492h10v-492h-10zM-91 629v10h295v-10h-295z" />
    <glyph glyph-name="Imacron" unicode="&#x12a;" horiz-adv-x="98" 
d="M44 0v664h10v-664h-10zM-97 801v10h295v-10h-295z" />
    <glyph glyph-name="imacron" unicode="&#x12b;" horiz-adv-x="110" 
d="M50 0v492h10v-492h-10zM-91 629v10h295v-10h-295z" />
    <glyph glyph-name="Ibreve" unicode="&#x12c;" horiz-adv-x="98" 
d="M44 0v664h10v-664h-10zM196 888q0 -42 -12.5 -73t-32.5 -51.5t-46.5 -31t-54.5 -10.5t-54.5 10.5t-46.5 31t-32.5 51.5t-12.5 73h10q1 -40 12.5 -69.5t30.5 -48.5t43 -28.5t50 -9.5q25 0 49.5 9t43.5 28t31 48.5t12 70.5h10z" />
    <glyph glyph-name="ibreve" unicode="&#x12d;" horiz-adv-x="110" 
d="M50 0v492h10v-492h-10zM202 716q0 -42 -12.5 -73t-32.5 -51.5t-46.5 -31t-54.5 -10.5t-54.5 10.5t-46.5 31t-32.5 51.5t-12.5 73h10q1 -40 12.5 -69.5t30.5 -48.5t43 -28.5t50 -9.5q25 0 49.5 9t43.5 28t31 48.5t12 70.5h10z" />
    <glyph glyph-name="Iogonek" unicode="&#x12e;" horiz-adv-x="98" 
d="M54 -229q-5 -2 -16 -3t-32 -1q-38 0 -61 8.5t-35.5 22.5t-17 32.5t-4.5 38.5q0 42 17.5 69t62.5 40l76 22v664h10v-664l-84 -26q-42 -13 -57 -39.5t-15 -65.5q0 -18 4 -35t15.5 -29.5t32.5 -20t56 -7.5q21 0 32 1t16 3v-10z" />
    <glyph glyph-name="iogonek" unicode="&#x12f;" horiz-adv-x="110" 
d="M60 -229q-5 -2 -16 -3t-32 -1q-38 0 -61 8.5t-35.5 22.5t-17 32.5t-4.5 38.5q0 42 17.5 69t62.5 40l76 22v492h10v-492l-84 -26q-42 -13 -57 -39.5t-15 -65.5q0 -18 4 -35t15.5 -29.5t32.5 -20t56 -7.5q21 0 32 1t16 3v-10zM47 551v121h16v-121h-16z" />
    <glyph glyph-name="Idotaccent" unicode="&#x130;" horiz-adv-x="98" 
d="M44 0v664h10v-664h-10zM42 726v133h16v-133h-16z" />
    <glyph glyph-name="dotlessi" unicode="&#x131;" horiz-adv-x="110" 
d="M50 0v492h10v-492h-10z" />
    <glyph glyph-name="IJ" unicode="&#x132;" horiz-adv-x="361" 
d="M44 0v664h10v-664h-10zM310 664h10v-525q0 -47 -13.5 -77.5t-37 -49.5t-54.5 -26.5t-66 -7.5q-6 0 -11.5 0.5t-10.5 1.5v10q5 -1 10.5 -1.5t11.5 -0.5q33 0 62.5 7.5t51.5 24.5t34.5 46t12.5 73v525z" />
    <glyph glyph-name="ij" unicode="&#x133;" horiz-adv-x="315" 
d="M50 0v492h10v-492h-10zM47 551v121h3l13 -121h-16zM255 492h10v-586q0 -41 -10.5 -67.5t-28 -42.5t-41 -22.5t-48.5 -6.5q-15 0 -22 3v10q5 -2 9.5 -2.5t12.5 -0.5q24 0 45 6t37.5 21t26 39.5t9.5 62.5v586zM252 551v121h16v-121h-16z" />
    <glyph glyph-name="Jcircumflex" unicode="&#x134;" horiz-adv-x="263" 
d="M212 664h10v-525q0 -47 -13.5 -77.5t-37 -49.5t-54.5 -26.5t-66 -7.5q-6 0 -11.5 0.5t-10.5 1.5v10q5 -1 10.5 -1.5t11.5 -0.5q33 0 62.5 7.5t51.5 24.5t34.5 46t12.5 73v525zM280 723l-157 174l-157 -174l-6 5l157 180h12l157 -180z" />
    <glyph glyph-name="jcircumflex" unicode="&#x135;" horiz-adv-x="205" 
d="M145 492h10v-586q0 -41 -10.5 -67.5t-28 -42.5t-41 -22.5t-48.5 -6.5q-15 0 -22 3v10q5 -2 9.5 -2.5t12.5 -0.5q24 0 45 6t37.5 21t26 39.5t9.5 62.5v586zM241 551l-157 174l-157 -174l-6 5l157 180h12l157 -180z" />
    <glyph glyph-name="uni0136" unicode="&#x136;" horiz-adv-x="431" 
d="M403 0l-349 348v-348h-10v664h10v-301l337 301h16l-347 -308l359 -356h-16zM219 -34h14l-17 -163q-2 -20 -8 -32.5t-11 -13.5z" />
    <glyph glyph-name="uni0137" unicode="&#x137;" horiz-adv-x="406" 
d="M377 0l-323 258v-258h-10v672h10v-403l312 223h17l-321 -228l332 -264h-17zM207 -34h14l-17 -163q-2 -20 -8 -32.5t-11 -13.5z" />
    <glyph glyph-name="Lacute" unicode="&#x139;" horiz-adv-x="316" 
d="M44 0v664h10v-654h238v-10h-248zM-37 706v10l212 166v-16z" />
    <glyph glyph-name="lacute" unicode="&#x13a;" horiz-adv-x="98" 
d="M44 0v672h10v-672h-10zM-36 706v10l212 166v-16z" />
    <glyph glyph-name="uni013B" unicode="&#x13b;" horiz-adv-x="316" 
d="M44 0v664h10v-654h238v-10h-248zM162 -34h14l-17 -163q-2 -20 -8 -32.5t-11 -13.5z" />
    <glyph glyph-name="uni013C" unicode="&#x13c;" horiz-adv-x="98" 
d="M44 0v672h10v-672h-10zM43 -34h14l-17 -163q-2 -20 -8 -32.5t-11 -13.5z" />
    <glyph glyph-name="Lcaron" unicode="&#x13d;" horiz-adv-x="316" 
d="M44 0v664h10v-654h238v-10h-248zM216 796h14l-24 -226q-2 -20 -8 -32.5t-11 -13.5z" />
    <glyph glyph-name="lcaron" unicode="&#x13e;" horiz-adv-x="154" 
d="M44 0v672h10v-672h-10zM124 672h14l-24 -226q-2 -20 -8 -32.5t-11 -13.5z" />
    <glyph glyph-name="Ldot" unicode="&#x13f;" horiz-adv-x="316" 
d="M44 0v664h10v-654h238v-10h-248zM167 261v133h16v-133h-16z" />
    <glyph glyph-name="ldot" unicode="&#x140;" horiz-adv-x="115" 
d="M44 0v672h10v-672h-10zM99 277v133h16v-133h-16z" />
    <glyph glyph-name="Lslash" unicode="&#x141;" horiz-adv-x="316" 
d="M44 0v664h10v-363l213 132v-12l-213 -132v-279h238v-10h-248z" />
    <glyph glyph-name="lslash" unicode="&#x142;" horiz-adv-x="108" 
d="M49 0v324l-45 -63v16l45 63v332h10v-318l46 64v-16l-46 -64v-338h-10z" />
    <glyph glyph-name="Nacute" unicode="&#x143;" horiz-adv-x="432" 
d="M382 0v519q0 43 -13 72.5t-34.5 46.5t-51 24.5t-62.5 7.5q-63 0 -102.5 -8t-64.5 -17v-645h-10v651q25 9 67.5 19t109.5 10q35 0 66 -7.5t54.5 -26.5t37 -50t13.5 -77v-519h-10zM130 706v10l212 166v-16z" />
    <glyph glyph-name="nacute" unicode="&#x144;" horiz-adv-x="403" 
d="M353 0v349q0 42 -11 70t-31 45t-47 24t-58 7q-59 0 -94 -7.5t-58 -16.5v-471h-10v477q24 9 61.5 18.5t100.5 9.5q34 0 62.5 -7.5t49.5 -25.5t33 -48t12 -75v-349h-10zM115 534v10l212 166v-16z" />
    <glyph glyph-name="uni0145" unicode="&#x145;" horiz-adv-x="432" 
d="M382 0v519q0 43 -13 72.5t-34.5 46.5t-51 24.5t-62.5 7.5q-63 0 -102.5 -8t-64.5 -17v-645h-10v651q25 9 67.5 19t109.5 10q35 0 66 -7.5t54.5 -26.5t37 -50t13.5 -77v-519h-10zM220 -34h14l-17 -163q-2 -20 -8 -32.5t-11 -13.5z" />
    <glyph glyph-name="uni0146" unicode="&#x146;" horiz-adv-x="403" 
d="M353 0v349q0 42 -11 70t-31 45t-47 24t-58 7q-59 0 -94 -7.5t-58 -16.5v-471h-10v477q24 9 61.5 18.5t100.5 9.5q34 0 62.5 -7.5t49.5 -25.5t33 -48t12 -75v-349h-10zM205 -34h14l-17 -163q-2 -20 -8 -32.5t-11 -13.5z" />
    <glyph glyph-name="Ncaron" unicode="&#x147;" horiz-adv-x="432" 
d="M382 0v519q0 43 -13 72.5t-34.5 46.5t-51 24.5t-62.5 7.5q-63 0 -102.5 -8t-64.5 -17v-645h-10v651q25 9 67.5 19t109.5 10q35 0 66 -7.5t54.5 -26.5t37 -50t13.5 -77v-519h-10zM52 891l6 7l159 -176l159 176l6 -7l-165 -188z" />
    <glyph glyph-name="ncaron" unicode="&#x148;" horiz-adv-x="403" 
d="M353 0v349q0 42 -11 70t-31 45t-47 24t-58 7q-59 0 -94 -7.5t-58 -16.5v-471h-10v477q24 9 61.5 18.5t100.5 9.5q34 0 62.5 -7.5t49.5 -25.5t33 -48t12 -75v-349h-10zM38 719l6 7l159 -176l159 176l6 -7l-165 -188z" />
    <glyph glyph-name="Eng" unicode="&#x14a;" horiz-adv-x="432" 
d="M382 519q0 43 -13 72.5t-34.5 46.5t-51 24.5t-62.5 7.5q-63 0 -102.5 -8t-64.5 -17v-645h-10v651q25 9 67.5 19t109.5 10q35 0 66 -7.5t54.5 -26.5t37 -50t13.5 -77v-623q0 -41 -10.5 -67.5t-28 -42.5t-41 -22.5t-48.5 -6.5q-15 0 -22 3v10q5 -2 9.5 -2.5t12.5 -0.5
q24 0 45 6t37.5 21t26 39.5t9.5 62.5v623z" />
    <glyph glyph-name="eng" unicode="&#x14b;" horiz-adv-x="403" 
d="M353 349q0 42 -11 70t-31 45t-47 24t-58 7q-59 0 -94 -7.5t-58 -16.5v-471h-10v477q24 9 61.5 18.5t100.5 9.5q34 0 62.5 -7.5t49.5 -25.5t33 -48t12 -75v-453q0 -41 -10.5 -67.5t-28 -42.5t-41 -22.5t-48.5 -6.5q-15 0 -22 3v10q5 -2 9.5 -2.5t12.5 -0.5q24 0 45 6
t37.5 21t26 39.5t9.5 62.5v453z" />
    <glyph glyph-name="Omacron" unicode="&#x14c;" horiz-adv-x="422" 
d="M37 518q0 46 13.5 77.5t36.5 50t55 26.5t69 8q35 0 66.5 -8t55 -26.5t37.5 -50t14 -77.5v-373q0 -47 -14 -78t-37.5 -49.5t-55 -26.5t-66.5 -8q-37 0 -69 8t-55 26.5t-36.5 49.5t-13.5 78v373zM374 518q0 43 -13 72.5t-35.5 47t-52 25t-62.5 7.5q-35 0 -65 -7.5t-52 -25
t-34.5 -47t-12.5 -72.5v-373q0 -44 12.5 -73t34.5 -46.5t52 -25t65 -7.5q33 0 62.5 7.5t52 25t35.5 46.5t13 73v373zM63 801v10h295v-10h-295z" />
    <glyph glyph-name="omacron" unicode="&#x14d;" 
d="M354 139q0 -45 -12.5 -75t-34 -48t-51 -25.5t-62.5 -7.5q-35 0 -64 7.5t-50 25.5t-33 48t-12 75v210q0 45 12 75t33 48t50 25.5t64 7.5q33 0 62.5 -7.5t51 -25.5t34 -48t12.5 -75v-210zM344 349q0 42 -12 70t-32 45t-47.5 24t-58.5 7q-33 0 -60 -7t-47 -24t-31 -45
t-11 -70v-210q0 -42 11 -70t31 -45t47 -24t60 -7q31 0 58.5 7t47.5 24t32 45t12 70v210zM48 629v10h295v-10h-295z" />
    <glyph glyph-name="Obreve" unicode="&#x14e;" horiz-adv-x="422" 
d="M37 518q0 46 13.5 77.5t36.5 50t55 26.5t69 8q35 0 66.5 -8t55 -26.5t37.5 -50t14 -77.5v-373q0 -47 -14 -78t-37.5 -49.5t-55 -26.5t-66.5 -8q-37 0 -69 8t-55 26.5t-36.5 49.5t-13.5 78v373zM374 518q0 43 -13 72.5t-35.5 47t-52 25t-62.5 7.5q-35 0 -65 -7.5t-52 -25
t-34.5 -47t-12.5 -72.5v-373q0 -44 12.5 -73t34.5 -46.5t52 -25t65 -7.5q33 0 62.5 7.5t52 25t35.5 46.5t13 73v373zM358 888q0 -42 -12.5 -73t-32.5 -51.5t-46.5 -31t-54.5 -10.5t-54.5 10.5t-46.5 31t-32.5 51.5t-12.5 73h10q1 -40 12.5 -69.5t30.5 -48.5t43 -28.5
t50 -9.5q25 0 49.5 9t43.5 28t31 48.5t12 70.5h10z" />
    <glyph glyph-name="obreve" unicode="&#x14f;" 
d="M354 139q0 -45 -12.5 -75t-34 -48t-51 -25.5t-62.5 -7.5q-35 0 -64 7.5t-50 25.5t-33 48t-12 75v210q0 45 12 75t33 48t50 25.5t64 7.5q33 0 62.5 -7.5t51 -25.5t34 -48t12.5 -75v-210zM344 349q0 42 -12 70t-32 45t-47.5 24t-58.5 7q-33 0 -60 -7t-47 -24t-31 -45
t-11 -70v-210q0 -42 11 -70t31 -45t47 -24t60 -7q31 0 58.5 7t47.5 24t32 45t12 70v210zM341 716q0 -42 -12.5 -73t-32.5 -51.5t-46.5 -31t-54.5 -10.5t-54.5 10.5t-46.5 31t-32.5 51.5t-12.5 73h10q1 -40 12.5 -69.5t30.5 -48.5t43 -28.5t50 -9.5q25 0 49.5 9t43.5 28
t31 48.5t12 70.5h10z" />
    <glyph glyph-name="Ohungarumlaut" unicode="&#x150;" horiz-adv-x="422" 
d="M37 518q0 46 13.5 77.5t36.5 50t55 26.5t69 8q35 0 66.5 -8t55 -26.5t37.5 -50t14 -77.5v-373q0 -47 -14 -78t-37.5 -49.5t-55 -26.5t-66.5 -8q-37 0 -69 8t-55 26.5t-36.5 49.5t-13.5 78v373zM374 518q0 43 -13 72.5t-35.5 47t-52 25t-62.5 7.5q-35 0 -65 -7.5t-52 -25
t-34.5 -47t-12.5 -72.5v-373q0 -44 12.5 -73t34.5 -46.5t52 -25t65 -7.5q33 0 62.5 7.5t52 25t35.5 46.5t13 73v373zM229 725l139 159l8 -6l-139 -159zM86 725l139 159l8 -6l-139 -159z" />
    <glyph glyph-name="ohungarumlaut" unicode="&#x151;" 
d="M354 139q0 -45 -12.5 -75t-34 -48t-51 -25.5t-62.5 -7.5q-35 0 -64 7.5t-50 25.5t-33 48t-12 75v210q0 45 12 75t33 48t50 25.5t64 7.5q33 0 62.5 -7.5t51 -25.5t34 -48t12.5 -75v-210zM344 349q0 42 -12 70t-32 45t-47.5 24t-58.5 7q-33 0 -60 -7t-47 -24t-31 -45
t-11 -70v-210q0 -42 11 -70t31 -45t47 -24t60 -7q31 0 58.5 7t47.5 24t32 45t12 70v210zM213 553l139 159l8 -6l-139 -159zM70 553l139 159l8 -6l-139 -159z" />
    <glyph glyph-name="OE" unicode="&#x152;" horiz-adv-x="633" 
d="M374 0v78q-18 -53 -63 -74t-100 -21q-37 0 -69 8t-55 26.5t-36.5 49.5t-13.5 78v373q0 46 13.5 77.5t36.5 50t55 26.5t69 8q55 0 100 -21t63 -74v79h224v-10h-214v-300h202v-10h-202v-334h220v-10h-230zM374 518q0 43 -13 72.5t-35.5 47t-52 25t-62.5 7.5q-35 0 -65 -7.5
t-52 -25t-34.5 -47t-12.5 -72.5v-373q0 -44 12.5 -73t34.5 -46.5t52 -25t65 -7.5q33 0 62.5 7.5t52 25t35.5 46.5t13 73v373z" />
    <glyph glyph-name="oe" unicode="&#x153;" horiz-adv-x="704" 
d="M658 8q-23 -10 -63 -17.5t-92 -7.5q-57 0 -99 22.5t-55 82.5q-14 -59 -56 -82t-99 -23q-35 0 -64 7.5t-50 25.5t-33 48t-12 75v210q0 45 12 75t33 48t50 25.5t64 7.5q57 0 99 -23.5t56 -82.5q13 59 54 82.5t100 23.5q33 0 62.5 -7.5t51 -25.5t34 -48t12.5 -75v-114h-309
v-96q0 -43 11.5 -71t32 -44.5t47.5 -23.5t58 -7q48 0 86.5 7t68.5 18v-10zM344 349q0 42 -12 70t-32 45t-47.5 24t-58.5 7q-33 0 -60 -7t-47 -24t-31 -45t-11 -70v-210q0 -42 11 -70t31 -45t47 -24t60 -7q31 0 58.5 7t47.5 24t32 45t12 70v210zM653 349q0 42 -12 70t-32 45
t-47.5 24t-58.5 7q-33 0 -60 -7t-47 -24t-31 -45t-11 -70v-104h299v104z" />
    <glyph glyph-name="Racute" unicode="&#x154;" horiz-adv-x="420" 
d="M371 0v202q0 28 -5 51.5t-18 40.5t-34 27t-54 10h-206v-331h-10v664h205q41 0 67 -14t40.5 -36.5t19.5 -51t5 -57.5q0 -69 -23.5 -115t-72.5 -54q52 -8 74 -41t22 -93v-202h-10zM260 341q33 0 54 13.5t34 36t18 52t5 62.5q0 27 -4.5 53.5t-18 48t-37.5 34.5t-62 13h-195
v-313h206zM124 706v10l212 166v-16z" />
    <glyph glyph-name="racute" unicode="&#x155;" horiz-adv-x="373" 
d="M44 0v477q23 9 58.5 18.5t93.5 9.5q32 0 60 -6.5t48.5 -22t32 -41.5t11.5 -65v-63h-10v63q0 36 -11 60t-30 38.5t-45 20.5t-56 6q-54 0 -87 -7.5t-55 -16.5v-471h-10zM100 534v10l212 166v-16z" />
    <glyph glyph-name="uni0156" unicode="&#x156;" horiz-adv-x="420" 
d="M371 0v202q0 28 -5 51.5t-18 40.5t-34 27t-54 10h-206v-331h-10v664h205q41 0 67 -14t40.5 -36.5t19.5 -51t5 -57.5q0 -69 -23.5 -115t-72.5 -54q52 -8 74 -41t22 -93v-202h-10zM260 341q33 0 54 13.5t34 36t18 52t5 62.5q0 27 -4.5 53.5t-18 48t-37.5 34.5t-62 13h-195
v-313h206zM214 -34h14l-17 -163q-2 -20 -8 -32.5t-11 -13.5z" />
    <glyph glyph-name="uni0157" unicode="&#x157;" horiz-adv-x="373" 
d="M44 0v477q23 9 58.5 18.5t93.5 9.5q32 0 60 -6.5t48.5 -22t32 -41.5t11.5 -65v-63h-10v63q0 36 -11 60t-30 38.5t-45 20.5t-56 6q-54 0 -87 -7.5t-55 -16.5v-471h-10zM44 -34h14l-17 -163q-2 -20 -8 -32.5t-11 -13.5z" />
    <glyph glyph-name="Rcaron" unicode="&#x158;" horiz-adv-x="420" 
d="M371 0v202q0 28 -5 51.5t-18 40.5t-34 27t-54 10h-206v-331h-10v664h205q41 0 67 -14t40.5 -36.5t19.5 -51t5 -57.5q0 -69 -23.5 -115t-72.5 -54q52 -8 74 -41t22 -93v-202h-10zM260 341q33 0 54 13.5t34 36t18 52t5 62.5q0 27 -4.5 53.5t-18 48t-37.5 34.5t-62 13h-195
v-313h206zM36 891l6 7l159 -176l159 176l6 -7l-165 -188z" />
    <glyph glyph-name="rcaron" unicode="&#x159;" horiz-adv-x="373" 
d="M44 0v477q23 9 58.5 18.5t93.5 9.5q32 0 60 -6.5t48.5 -22t32 -41.5t11.5 -65v-63h-10v63q0 36 -11 60t-30 38.5t-45 20.5t-56 6q-54 0 -87 -7.5t-55 -16.5v-471h-10zM23 719l6 7l159 -176l159 176l6 -7l-165 -188z" />
    <glyph glyph-name="Sacute" unicode="&#x15a;" 
d="M345 466v64q0 40 -10.5 67t-29.5 43.5t-45 23t-57 6.5q-48 0 -79 -11.5t-49.5 -31.5t-26 -47t-7.5 -58q0 -37 9 -63.5t28.5 -45.5t49 -32t71.5 -23q49 -12 81 -26.5t50 -35.5t25 -50.5t7 -71.5q0 -39 -6 -74t-24.5 -61t-52 -41t-88.5 -15q-77 0 -118.5 38.5t-41.5 127.5
v87h10v-87q0 -84 39 -120t111 -36q52 0 83.5 14.5t49 39t23 57.5t5.5 70q0 40 -6.5 68t-23.5 47.5t-47 33t-78 25.5q-44 11 -75.5 25t-51.5 34t-29.5 48t-9.5 67q0 33 8 62t27.5 50t52.5 33.5t84 12.5q33 0 61 -7t48.5 -24.5t31.5 -46.5t11 -72v-64h-10zM108 706v10l212 166
v-16z" />
    <glyph glyph-name="sacute" unicode="&#x15b;" horiz-adv-x="384" 
d="M339 347v46q0 33 -12.5 53t-33 31t-46 14.5t-51.5 3.5q-27 0 -55.5 -4t-51.5 -15.5t-38 -33t-15 -55.5q0 -44 23 -67t56.5 -35.5t73 -18.5t72.5 -15q48 -14 71.5 -41.5t23.5 -81.5q0 -80 -43.5 -112.5t-125.5 -32.5q-30 0 -59 5t-51.5 18.5t-36.5 38t-14 62.5v54h10v-54
q0 -36 13 -58t34 -34.5t47.5 -17t54.5 -4.5q31 0 60.5 4.5t51.5 19t35.5 40.5t13.5 69q0 56 -24.5 80t-64.5 35q-36 10 -76.5 16.5t-75 19.5t-57 37.5t-22.5 70.5q0 38 15.5 61.5t39.5 36.5t54.5 17.5t60.5 4.5q28 0 55.5 -4t49 -16t35 -34t13.5 -58v-46h-10zM106 534v10
l212 166v-16z" />
    <glyph glyph-name="Scircumflex" unicode="&#x15c;" 
d="M345 466v64q0 40 -10.5 67t-29.5 43.5t-45 23t-57 6.5q-48 0 -79 -11.5t-49.5 -31.5t-26 -47t-7.5 -58q0 -37 9 -63.5t28.5 -45.5t49 -32t71.5 -23q49 -12 81 -26.5t50 -35.5t25 -50.5t7 -71.5q0 -39 -6 -74t-24.5 -61t-52 -41t-88.5 -15q-77 0 -118.5 38.5t-41.5 127.5
v87h10v-87q0 -84 39 -120t111 -36q52 0 83.5 14.5t49 39t23 57.5t5.5 70q0 40 -6.5 68t-23.5 47.5t-47 33t-78 25.5q-44 11 -75.5 25t-51.5 34t-29.5 48t-9.5 67q0 33 8 62t27.5 50t52.5 33.5t84 12.5q33 0 61 -7t48.5 -24.5t31.5 -46.5t11 -72v-64h-10zM352 723l-157 174
l-157 -174l-6 5l157 180h12l157 -180z" />
    <glyph glyph-name="scircumflex" unicode="&#x15d;" horiz-adv-x="384" 
d="M339 347v46q0 33 -12.5 53t-33 31t-46 14.5t-51.5 3.5q-27 0 -55.5 -4t-51.5 -15.5t-38 -33t-15 -55.5q0 -44 23 -67t56.5 -35.5t73 -18.5t72.5 -15q48 -14 71.5 -41.5t23.5 -81.5q0 -80 -43.5 -112.5t-125.5 -32.5q-30 0 -59 5t-51.5 18.5t-36.5 38t-14 62.5v54h10v-54
q0 -36 13 -58t34 -34.5t47.5 -17t54.5 -4.5q31 0 60.5 4.5t51.5 19t35.5 40.5t13.5 69q0 56 -24.5 80t-64.5 35q-36 10 -76.5 16.5t-75 19.5t-57 37.5t-22.5 70.5q0 38 15.5 61.5t39.5 36.5t54.5 17.5t60.5 4.5q28 0 55.5 -4t49 -16t35 -34t13.5 -58v-46h-10zM350 551
l-157 174l-157 -174l-6 5l157 180h12l157 -180z" />
    <glyph glyph-name="Scedilla" unicode="&#x15e;" 
d="M345 466v64q0 40 -10.5 67t-29.5 43.5t-45 23t-57 6.5q-48 0 -79 -11.5t-49.5 -31.5t-26 -47t-7.5 -58q0 -37 9 -63.5t28.5 -45.5t49 -32t71.5 -23q49 -12 81 -26.5t50 -35.5t25 -50.5t7 -71.5q0 -39 -6 -74t-24.5 -61t-52 -41t-88.5 -15q-77 0 -118.5 38.5t-41.5 127.5
v87h10v-87q0 -84 39 -120t111 -36q52 0 83.5 14.5t49 39t23 57.5t5.5 70q0 40 -6.5 68t-23.5 47.5t-47 33t-78 25.5q-44 11 -75.5 25t-51.5 34t-29.5 48t-9.5 67q0 33 8 62t27.5 50t52.5 33.5t84 12.5q33 0 61 -7t48.5 -24.5t31.5 -46.5t11 -72v-64h-10zM193 -34h14
l-17 -163q-2 -20 -8 -32.5t-11 -13.5z" />
    <glyph glyph-name="scedilla" unicode="&#x15f;" horiz-adv-x="384" 
d="M339 347v46q0 33 -12.5 53t-33 31t-46 14.5t-51.5 3.5q-27 0 -55.5 -4t-51.5 -15.5t-38 -33t-15 -55.5q0 -44 23 -67t56.5 -35.5t73 -18.5t72.5 -15q48 -14 71.5 -41.5t23.5 -81.5q0 -80 -43.5 -112.5t-125.5 -32.5q-30 0 -59 5t-51.5 18.5t-36.5 38t-14 62.5v54h10v-54
q0 -36 13 -58t34 -34.5t47.5 -17t54.5 -4.5q31 0 60.5 4.5t51.5 19t35.5 40.5t13.5 69q0 56 -24.5 80t-64.5 35q-36 10 -76.5 16.5t-75 19.5t-57 37.5t-22.5 70.5q0 38 15.5 61.5t39.5 36.5t54.5 17.5t60.5 4.5q28 0 55.5 -4t49 -16t35 -34t13.5 -58v-46h-10zM186 -34h14
l-17 -163q-2 -20 -8 -32.5t-11 -13.5z" />
    <glyph glyph-name="Scaron" unicode="&#x160;" 
d="M345 466v64q0 40 -10.5 67t-29.5 43.5t-45 23t-57 6.5q-48 0 -79 -11.5t-49.5 -31.5t-26 -47t-7.5 -58q0 -37 9 -63.5t28.5 -45.5t49 -32t71.5 -23q49 -12 81 -26.5t50 -35.5t25 -50.5t7 -71.5q0 -39 -6 -74t-24.5 -61t-52 -41t-88.5 -15q-77 0 -118.5 38.5t-41.5 127.5
v87h10v-87q0 -84 39 -120t111 -36q52 0 83.5 14.5t49 39t23 57.5t5.5 70q0 40 -6.5 68t-23.5 47.5t-47 33t-78 25.5q-44 11 -75.5 25t-51.5 34t-29.5 48t-9.5 67q0 33 8 62t27.5 50t52.5 33.5t84 12.5q33 0 61 -7t48.5 -24.5t31.5 -46.5t11 -72v-64h-10zM30 891l6 7
l159 -176l159 176l6 -7l-165 -188z" />
    <glyph glyph-name="scaron" unicode="&#x161;" horiz-adv-x="384" 
d="M339 347v46q0 33 -12.5 53t-33 31t-46 14.5t-51.5 3.5q-27 0 -55.5 -4t-51.5 -15.5t-38 -33t-15 -55.5q0 -44 23 -67t56.5 -35.5t73 -18.5t72.5 -15q48 -14 71.5 -41.5t23.5 -81.5q0 -80 -43.5 -112.5t-125.5 -32.5q-30 0 -59 5t-51.5 18.5t-36.5 38t-14 62.5v54h10v-54
q0 -36 13 -58t34 -34.5t47.5 -17t54.5 -4.5q31 0 60.5 4.5t51.5 19t35.5 40.5t13.5 69q0 56 -24.5 80t-64.5 35q-36 10 -76.5 16.5t-75 19.5t-57 37.5t-22.5 70.5q0 38 15.5 61.5t39.5 36.5t54.5 17.5t60.5 4.5q28 0 55.5 -4t49 -16t35 -34t13.5 -58v-46h-10zM28 719l6 7
l159 -176l159 176l6 -7l-165 -188z" />
    <glyph glyph-name="uni0162" unicode="&#x162;" horiz-adv-x="345" 
d="M168 0v654h-154v10h317v-10h-153v-654h-10zM168 -34h14l-17 -163q-2 -20 -8 -32.5t-11 -13.5z" />
    <glyph glyph-name="uni0163" unicode="&#x163;" horiz-adv-x="201" 
d="M94 0v482h-72v10h72v112h10v-112h75v-10h-75v-482h-10zM92 -34h14l-17 -163q-2 -20 -8 -32.5t-11 -13.5z" />
    <glyph glyph-name="Tcaron" unicode="&#x164;" horiz-adv-x="345" 
d="M168 0v654h-154v10h317v-10h-153v-654h-10zM9 891l6 7l159 -176l159 176l6 -7l-165 -188z" />
    <glyph glyph-name="tcaron" unicode="&#x165;" horiz-adv-x="229" 
d="M94 0v482h-72v10h72v112h10v-112h75v-10h-75v-482h-10zM214 672h14l-24 -226q-2 -20 -8 -32.5t-11 -13.5z" />
    <glyph glyph-name="Tbar" unicode="&#x166;" horiz-adv-x="345" 
d="M168 0v336h-78v10h78v308h-154v10h317v-10h-153v-308h81v-10h-81v-336h-10z" />
    <glyph glyph-name="tbar" unicode="&#x167;" horiz-adv-x="201" 
d="M94 0v248h-38v10h38v224h-72v10h72v112h10v-112h75v-10h-75v-224h40v-10h-40v-248h-10z" />
    <glyph glyph-name="Utilde" unicode="&#x168;" horiz-adv-x="432" 
d="M378 664h10v-652q-24 -9 -67 -19t-109 -10q-35 0 -66.5 7.5t-54.5 26.5t-36.5 49.5t-13.5 77.5v520h10v-520q0 -44 12.5 -73t34.5 -46t51.5 -24.5t62.5 -7.5q63 0 102.5 8t63.5 17v646zM68 801v10h295v-10h-295z" />
    <glyph glyph-name="utilde" unicode="&#x169;" horiz-adv-x="405" 
d="M348 492h10v-481q-23 -9 -61 -18.5t-101 -9.5q-33 0 -61.5 7.5t-49.5 25.5t-33 48t-12 75v353h10v-353q0 -42 11 -70t30.5 -45t46 -24t58.5 -7q57 0 93.5 7.5t58.5 16.5v475zM55 629v10h295v-10h-295z" />
    <glyph glyph-name="Umacron" unicode="&#x16a;" horiz-adv-x="432" 
d="M378 664h10v-652q-24 -9 -67 -19t-109 -10q-35 0 -66.5 7.5t-54.5 26.5t-36.5 49.5t-13.5 77.5v520h10v-520q0 -44 12.5 -73t34.5 -46t51.5 -24.5t62.5 -7.5q63 0 102.5 8t63.5 17v646zM68 801v10h295v-10h-295z" />
    <glyph glyph-name="umacron" unicode="&#x16b;" horiz-adv-x="405" 
d="M348 492h10v-481q-23 -9 -61 -18.5t-101 -9.5q-33 0 -61.5 7.5t-49.5 25.5t-33 48t-12 75v353h10v-353q0 -42 11 -70t30.5 -45t46 -24t58.5 -7q57 0 93.5 7.5t58.5 16.5v475zM55 629v10h295v-10h-295z" />
    <glyph glyph-name="Ubreve" unicode="&#x16c;" horiz-adv-x="432" 
d="M378 664h10v-652q-24 -9 -67 -19t-109 -10q-35 0 -66.5 7.5t-54.5 26.5t-36.5 49.5t-13.5 77.5v520h10v-520q0 -44 12.5 -73t34.5 -46t51.5 -24.5t62.5 -7.5q63 0 102.5 8t63.5 17v646zM363 888q0 -42 -12.5 -73t-32.5 -51.5t-46.5 -31t-54.5 -10.5t-54.5 10.5t-46.5 31
t-32.5 51.5t-12.5 73h10q1 -40 12.5 -69.5t30.5 -48.5t43 -28.5t50 -9.5q25 0 49.5 9t43.5 28t31 48.5t12 70.5h10z" />
    <glyph glyph-name="ubreve" unicode="&#x16d;" horiz-adv-x="405" 
d="M348 492h10v-481q-23 -9 -61 -18.5t-101 -9.5q-33 0 -61.5 7.5t-49.5 25.5t-33 48t-12 75v353h10v-353q0 -42 11 -70t30.5 -45t46 -24t58.5 -7q57 0 93.5 7.5t58.5 16.5v475zM350 716q0 -42 -12.5 -73t-32.5 -51.5t-46.5 -31t-54.5 -10.5t-54.5 10.5t-46.5 31t-32.5 51.5
t-12.5 73h10q1 -40 12.5 -69.5t30.5 -48.5t43 -28.5t50 -9.5q25 0 49.5 9t43.5 28t31 48.5t12 70.5h10z" />
    <glyph glyph-name="Uring" unicode="&#x16e;" horiz-adv-x="432" 
d="M378 664h10v-652q-24 -9 -67 -19t-109 -10q-35 0 -66.5 7.5t-54.5 26.5t-36.5 49.5t-13.5 77.5v520h10v-520q0 -44 12.5 -73t34.5 -46t51.5 -24.5t62.5 -7.5q63 0 102.5 8t63.5 17v646zM215 696q-93 0 -93 96q0 46 22.5 71t70.5 25q51 0 72.5 -25t21.5 -71
q0 -48 -21.5 -72t-72.5 -24zM215 706q45 0 64.5 22t19.5 64t-19.5 64t-64.5 22q-83 0 -83 -86t83 -86z" />
    <glyph glyph-name="uring" unicode="&#x16f;" horiz-adv-x="405" 
d="M348 492h10v-481q-23 -9 -61 -18.5t-101 -9.5q-33 0 -61.5 7.5t-49.5 25.5t-33 48t-12 75v353h10v-353q0 -42 11 -70t30.5 -45t46 -24t58.5 -7q57 0 93.5 7.5t58.5 16.5v475zM202 524q-93 0 -93 96q0 46 22.5 71t70.5 25q51 0 72.5 -25t21.5 -71q0 -48 -21.5 -72
t-72.5 -24zM202 534q45 0 64.5 22t19.5 64t-19.5 64t-64.5 22q-83 0 -83 -86t83 -86z" />
    <glyph glyph-name="Uhungarumlaut" unicode="&#x170;" horiz-adv-x="432" 
d="M378 664h10v-652q-24 -9 -67 -19t-109 -10q-35 0 -66.5 7.5t-54.5 26.5t-36.5 49.5t-13.5 77.5v520h10v-520q0 -44 12.5 -73t34.5 -46t51.5 -24.5t62.5 -7.5q63 0 102.5 8t63.5 17v646zM234 725l139 159l8 -6l-139 -159zM91 725l139 159l8 -6l-139 -159z" />
    <glyph glyph-name="uhungarumlaut" unicode="&#x171;" horiz-adv-x="405" 
d="M348 492h10v-481q-23 -9 -61 -18.5t-101 -9.5q-33 0 -61.5 7.5t-49.5 25.5t-33 48t-12 75v353h10v-353q0 -42 11 -70t30.5 -45t46 -24t58.5 -7q57 0 93.5 7.5t58.5 16.5v475zM220 553l139 159l8 -6l-139 -159zM77 553l139 159l8 -6l-139 -159z" />
    <glyph glyph-name="Uogonek" unicode="&#x172;" horiz-adv-x="432" 
d="M332 -229q-5 -2 -16 -3t-32 -1q-38 0 -61 8.5t-35.5 22.5t-17 32.5t-4.5 38.5q0 42 17.5 69t62.5 40l38 9q-16 -2 -34 -3t-38 -1q-35 0 -66.5 7.5t-54.5 26.5t-36.5 49.5t-13.5 77.5v520h10v-520q0 -44 12.5 -73t34.5 -46t51.5 -24.5t62.5 -7.5q63 0 102.5 8t63.5 17v646
h10v-652q-7 -3 -16 -6t-24.5 -7t-39.5 -10l-60 -15q-42 -13 -57 -39.5t-15 -65.5q0 -18 4 -35t15.5 -29.5t32.5 -20t56 -7.5q21 0 32 1t16 3v-10z" />
    <glyph glyph-name="uogonek" unicode="&#x173;" horiz-adv-x="405" 
d="M325 -229q-5 -2 -16 -3t-32 -1q-38 0 -61 8.5t-35.5 22.5t-17 32.5t-4.5 38.5q0 43 17.5 69t62.5 40l35 11q-33 -6 -78 -6q-33 0 -61.5 7.5t-49.5 25.5t-33 48t-12 75v353h10v-353q0 -42 11 -70t30.5 -45t46 -24t58.5 -7q57 0 93.5 7.5t58.5 16.5v475h10v-481
q-5 -2 -11.5 -4.5t-19 -6t-33 -10t-53.5 -16.5q-42 -13 -57 -39.5t-15 -65.5q0 -18 4 -35t15.5 -29.5t32.5 -20t56 -7.5q21 0 32 1t16 3v-10z" />
    <glyph glyph-name="Wcircumflex" unicode="&#x174;" horiz-adv-x="645" 
d="M597 664h10v-426q0 -56 -12.5 -95.5t-32.5 -68.5t-46.5 -50.5t-53.5 -39.5q-25 15 -48.5 33.5t-43 43t-32.5 56t-16 71.5q-3 -41 -16.5 -72.5t-33 -55.5t-43 -42.5t-47.5 -33.5q-27 18 -53.5 39.5t-46.5 50.5t-32.5 68.5t-12.5 95.5v426h10v-426q0 -50 11.5 -88t30.5 -67
t43 -50t49 -37q26 17 50.5 37t43.5 47.5t30.5 66t11.5 91.5v426h10v-426q0 -52 11 -90t30 -66t43.5 -48.5t51.5 -37.5q25 16 49 37t43 50t30.5 67t11.5 88v426zM479 723l-157 174l-157 -174l-6 5l157 180h12l157 -180z" />
    <glyph glyph-name="wcircumflex" unicode="&#x175;" horiz-adv-x="566" 
d="M521 492h10v-292q0 -49 -11 -85t-28.5 -62.5t-40 -45.5t-46.5 -35q-22 14 -42.5 30.5t-37 38.5t-28 50t-14.5 64q-3 -37 -14.5 -65t-28 -50t-37.5 -38.5t-42 -29.5q-24 16 -46.5 35t-40 45.5t-28.5 62.5t-11 85v292h10v-292q0 -45 10 -79t26 -60t36.5 -44.5t42.5 -33.5
q23 14 44 31.5t37.5 43t26.5 60t10 82.5v292h10v-292q0 -47 10 -81.5t26.5 -60t37.5 -43.5t44 -32q22 15 42.5 33.5t36.5 44.5t26 60t10 79v292zM440 551l-157 174l-157 -174l-6 5l157 180h12l157 -180z" />
    <glyph glyph-name="Ycircumflex" unicode="&#x176;" horiz-adv-x="407" 
d="M199 0v237q-32 18 -62.5 39.5t-54 50.5t-38 68.5t-14.5 93.5v175h10v-175q0 -52 14 -90t36.5 -66.5t52 -49t61.5 -37.5q32 17 61.5 37.5t52 49t36 66.5t13.5 90v175h10v-175q0 -54 -14 -93.5t-37 -69t-53.5 -50.5t-63.5 -39v-237h-10zM362 723l-157 174l-157 -174l-6 5
l157 180h12l157 -180z" />
    <glyph glyph-name="ycircumflex" unicode="&#x177;" horiz-adv-x="403" 
d="M350 39q-23 -17 -61 -31t-98 -14q-32 0 -59.5 7t-47.5 24.5t-31.5 47.5t-11.5 77v342h10v-342q0 -44 10.5 -72t29.5 -44.5t44.5 -23t55.5 -6.5q60 0 98 14.5t61 31.5v442h10v-587q0 -43 -12 -72t-33.5 -46.5t-51 -25t-63.5 -7.5q-32 0 -59 7.5t-47 25t-31 46.5t-11 72v39
h10v-39q0 -40 10.5 -67t29 -43.5t43.5 -23.5t55 -7q32 0 59.5 7t47.5 23.5t31.5 43.5t11.5 67v134zM360 551l-157 174l-157 -174l-6 5l157 180h12l157 -180z" />
    <glyph glyph-name="Ydieresis" unicode="&#x178;" horiz-adv-x="407" 
d="M199 0v237q-32 18 -62.5 39.5t-54 50.5t-38 68.5t-14.5 93.5v175h10v-175q0 -52 14 -90t36.5 -66.5t52 -49t61.5 -37.5q32 17 61.5 37.5t52 49t36 66.5t13.5 90v175h10v-175q0 -54 -14 -93.5t-37 -69t-53.5 -50.5t-63.5 -39v-237h-10zM106 726v133h16v-133h-16zM285 726
v133h16v-133h-16z" />
    <glyph glyph-name="Zacute" unicode="&#x179;" horiz-adv-x="379" 
d="M28 0v11l304 643h-295v10h307v-8l-306 -646h306v-10h-316zM103 706v10l212 166v-16z" />
    <glyph glyph-name="zacute" unicode="&#x17a;" horiz-adv-x="356" 
d="M26 0v11l285 471h-271v10h284v-8l-288 -474h294v-10h-304zM92 534v10l212 166v-16z" />
    <glyph glyph-name="Zdotaccent" unicode="&#x17b;" horiz-adv-x="379" 
d="M28 0v11l304 643h-295v10h307v-8l-306 -646h306v-10h-316zM181 726v133h16v-133h-16z" />
    <glyph glyph-name="zdotaccent" unicode="&#x17c;" horiz-adv-x="356" 
d="M26 0v11l285 471h-271v10h284v-8l-288 -474h294v-10h-304zM170 554v133h16v-133h-16z" />
    <glyph glyph-name="Zcaron" unicode="&#x17d;" horiz-adv-x="379" 
d="M28 0v11l304 643h-295v10h307v-8l-306 -646h306v-10h-316zM26 891l6 7l159 -176l159 176l6 -7l-165 -188z" />
    <glyph glyph-name="zcaron" unicode="&#x17e;" horiz-adv-x="356" 
d="M26 0v11l285 471h-271v10h284v-8l-288 -474h294v-10h-304zM14 719l6 7l159 -176l159 176l6 -7l-165 -188z" />
    <glyph glyph-name="florin" unicode="&#x192;" horiz-adv-x="483" 
d="M238 413h-119v10h120l9 66q7 51 25.5 86t46 56.5t61.5 31t71 9.5h8v-10h-8q-35 0 -67.5 -9t-58 -29.5t-43.5 -53.5t-25 -82l-9 -65h119v-10h-120l-52 -403q-7 -51 -26 -86t-46 -56.5t-61 -31t-71 -9.5h-5v10h5q35 0 67.5 9.5t58.5 30.5t44 54t24 80z" />
    <glyph glyph-name="uni0218" unicode="&#x218;" 
d="M345 466v64q0 40 -10.5 67t-29.5 43.5t-45 23t-57 6.5q-48 0 -79 -11.5t-49.5 -31.5t-26 -47t-7.5 -58q0 -37 9 -63.5t28.5 -45.5t49 -32t71.5 -23q49 -12 81 -26.5t50 -35.5t25 -50.5t7 -71.5q0 -39 -6 -74t-24.5 -61t-52 -41t-88.5 -15q-77 0 -118.5 38.5t-41.5 127.5
v87h10v-87q0 -84 39 -120t111 -36q52 0 83.5 14.5t49 39t23 57.5t5.5 70q0 40 -6.5 68t-23.5 47.5t-47 33t-78 25.5q-44 11 -75.5 25t-51.5 34t-29.5 48t-9.5 67q0 33 8 62t27.5 50t52.5 33.5t84 12.5q33 0 61 -7t48.5 -24.5t31.5 -46.5t11 -72v-64h-10zM193 -34h14
l-17 -163q-2 -20 -8 -32.5t-11 -13.5z" />
    <glyph glyph-name="uni0219" unicode="&#x219;" horiz-adv-x="384" 
d="M339 347v46q0 33 -12.5 53t-33 31t-46 14.5t-51.5 3.5q-27 0 -55.5 -4t-51.5 -15.5t-38 -33t-15 -55.5q0 -44 23 -67t56.5 -35.5t73 -18.5t72.5 -15q48 -14 71.5 -41.5t23.5 -81.5q0 -80 -43.5 -112.5t-125.5 -32.5q-30 0 -59 5t-51.5 18.5t-36.5 38t-14 62.5v54h10v-54
q0 -36 13 -58t34 -34.5t47.5 -17t54.5 -4.5q31 0 60.5 4.5t51.5 19t35.5 40.5t13.5 69q0 56 -24.5 80t-64.5 35q-36 10 -76.5 16.5t-75 19.5t-57 37.5t-22.5 70.5q0 38 15.5 61.5t39.5 36.5t54.5 17.5t60.5 4.5q28 0 55.5 -4t49 -16t35 -34t13.5 -58v-46h-10zM186 -34h14
l-17 -163q-2 -20 -8 -32.5t-11 -13.5z" />
    <glyph glyph-name="uni021A" unicode="&#x21a;" horiz-adv-x="345" 
d="M168 0v654h-154v10h317v-10h-153v-654h-10zM168 -34h14l-17 -163q-2 -20 -8 -32.5t-11 -13.5z" />
    <glyph glyph-name="uni021B" unicode="&#x21b;" horiz-adv-x="201" 
d="M94 0v482h-72v10h72v112h10v-112h75v-10h-75v-482h-10zM92 -34h14l-17 -163q-2 -20 -8 -32.5t-11 -13.5z" />
    <glyph glyph-name="uni0237" unicode="&#x237;" horiz-adv-x="205" 
d="M145 492h10v-586q0 -41 -10.5 -67.5t-28 -42.5t-41 -22.5t-48.5 -6.5q-15 0 -22 3v10q5 -2 9.5 -2.5t12.5 -0.5q24 0 45 6t37.5 21t26 39.5t9.5 62.5v586z" />
    <glyph glyph-name="circumflex" unicode="&#x2c6;" horiz-adv-x="475" 
d="M394 551l-157 174l-157 -174l-6 5l157 180h12l157 -180z" />
    <glyph glyph-name="caron" unicode="&#x2c7;" horiz-adv-x="478" 
d="M74 719l6 7l159 -176l159 176l6 -7l-165 -188z" />
    <glyph glyph-name="breve" unicode="&#x2d8;" horiz-adv-x="441" 
d="M366 716q0 -42 -12.5 -73t-32.5 -51.5t-46.5 -31t-54.5 -10.5t-54.5 10.5t-46.5 31t-32.5 51.5t-12.5 73h10q1 -40 12.5 -69.5t30.5 -48.5t43 -28.5t50 -9.5q25 0 49.5 9t43.5 28t31 48.5t12 70.5h10z" />
    <glyph glyph-name="dotaccent" unicode="&#x2d9;" horiz-adv-x="165" 
d="M74 554v133h16v-133h-16z" />
    <glyph glyph-name="ring" unicode="&#x2da;" horiz-adv-x="335" 
d="M167 524q-93 0 -93 96q0 46 22.5 71t70.5 25q51 0 72.5 -25t21.5 -71q0 -48 -21.5 -72t-72.5 -24zM167 534q45 0 64.5 22t19.5 64t-19.5 64t-64.5 22q-83 0 -83 -86t83 -86z" />
    <glyph glyph-name="ogonek" unicode="&#x2db;" horiz-adv-x="273" 
d="M219 -229q-5 -2 -16 -3t-32 -1q-38 0 -61 8.5t-35.5 22.5t-17 32.5t-4.5 38.5q0 42 17.5 69t62.5 40l76 22h10l-84 -26q-42 -13 -57 -39.5t-15 -65.5q0 -18 4 -35t15.5 -29.5t32.5 -20t56 -7.5q21 0 32 1t16 3v-10z" />
    <glyph glyph-name="tilde" unicode="&#x2dc;" horiz-adv-x="402" 
d="M53 629v10h295v-10h-295z" />
    <glyph glyph-name="hungarumlaut" unicode="&#x2dd;" horiz-adv-x="438" 
d="M217 553l139 159l8 -6l-139 -159zM74 553l139 159l8 -6l-139 -159z" />
    <glyph glyph-name="uni0394" unicode="&#x394;" horiz-adv-x="402" 
d="M10 0l190 733l191 -733h-381zM200 690l-177 -680h355z" />
    <glyph glyph-name="uni0394" unicode="&#x2206;" horiz-adv-x="402" 
d="M10 0l190 733l191 -733h-381zM200 690l-177 -680h355z" />
    <glyph glyph-name="uni03A9" unicode="&#x3a9;" horiz-adv-x="434" 
d="M253 0v15q60 26 94 79.5t34 125.5v298q0 43 -13 72.5t-35.5 47t-52.5 25t-63 7.5t-63 -7.5t-52.5 -25t-35.5 -47t-13 -72.5v-298q0 -72 34 -125.5t94 -79.5v-15h-140v10h132q-61 26 -95.5 80.5t-34.5 129.5v298q0 46 14 77.5t38 50t55.5 26.5t66.5 8t66.5 -8t55.5 -26.5
t38 -50t14 -77.5v-298q0 -75 -34.5 -129.5t-95.5 -80.5h132v-10h-140z" />
    <glyph glyph-name="uni03A9" unicode="&#x2126;" horiz-adv-x="434" 
d="M253 0v15q60 26 94 79.5t34 125.5v298q0 43 -13 72.5t-35.5 47t-52.5 25t-63 7.5t-63 -7.5t-52.5 -25t-35.5 -47t-13 -72.5v-298q0 -72 34 -125.5t94 -79.5v-15h-140v10h132q-61 26 -95.5 80.5t-34.5 129.5v298q0 46 14 77.5t38 50t55.5 26.5t66.5 8t66.5 -8t55.5 -26.5
t38 -50t14 -77.5v-298q0 -75 -34.5 -129.5t-95.5 -80.5h132v-10h-140z" />
    <glyph glyph-name="pi" unicode="&#x3c0;" horiz-adv-x="410" 
d="M356 0v482h-302v-482h-10v492h322v-492h-10z" />
    <glyph glyph-name="Wgrave" unicode="&#x1e80;" horiz-adv-x="645" 
d="M597 664h10v-426q0 -56 -12.5 -95.5t-32.5 -68.5t-46.5 -50.5t-53.5 -39.5q-25 15 -48.5 33.5t-43 43t-32.5 56t-16 71.5q-3 -41 -16.5 -72.5t-33 -55.5t-43 -42.5t-47.5 -33.5q-27 18 -53.5 39.5t-46.5 50.5t-32.5 68.5t-12.5 95.5v426h10v-426q0 -50 11.5 -88t30.5 -67
t43 -50t49 -37q26 17 50.5 37t43.5 47.5t30.5 66t11.5 91.5v426h10v-426q0 -52 11 -90t30 -66t43.5 -48.5t51.5 -37.5q25 16 49 37t43 50t30.5 67t11.5 88v426zM196 866v16l212 -166v-10z" />
    <glyph glyph-name="wgrave" unicode="&#x1e81;" horiz-adv-x="566" 
d="M521 492h10v-292q0 -49 -11 -85t-28.5 -62.5t-40 -45.5t-46.5 -35q-22 14 -42.5 30.5t-37 38.5t-28 50t-14.5 64q-3 -37 -14.5 -65t-28 -50t-37.5 -38.5t-42 -29.5q-24 16 -46.5 35t-40 45.5t-28.5 62.5t-11 85v292h10v-292q0 -45 10 -79t26 -60t36.5 -44.5t42.5 -33.5
q23 14 44 31.5t37.5 43t26.5 60t10 82.5v292h10v-292q0 -47 10 -81.5t26.5 -60t37.5 -43.5t44 -32q22 15 42.5 33.5t36.5 44.5t26 60t10 79v292zM157 694v16l212 -166v-10z" />
    <glyph glyph-name="Wacute" unicode="&#x1e82;" horiz-adv-x="645" 
d="M597 664h10v-426q0 -56 -12.5 -95.5t-32.5 -68.5t-46.5 -50.5t-53.5 -39.5q-25 15 -48.5 33.5t-43 43t-32.5 56t-16 71.5q-3 -41 -16.5 -72.5t-33 -55.5t-43 -42.5t-47.5 -33.5q-27 18 -53.5 39.5t-46.5 50.5t-32.5 68.5t-12.5 95.5v426h10v-426q0 -50 11.5 -88t30.5 -67
t43 -50t49 -37q26 17 50.5 37t43.5 47.5t30.5 66t11.5 91.5v426h10v-426q0 -52 11 -90t30 -66t43.5 -48.5t51.5 -37.5q25 16 49 37t43 50t30.5 67t11.5 88v426zM236 706v10l212 166v-16z" />
    <glyph glyph-name="wacute" unicode="&#x1e83;" horiz-adv-x="566" 
d="M521 492h10v-292q0 -49 -11 -85t-28.5 -62.5t-40 -45.5t-46.5 -35q-22 14 -42.5 30.5t-37 38.5t-28 50t-14.5 64q-3 -37 -14.5 -65t-28 -50t-37.5 -38.5t-42 -29.5q-24 16 -46.5 35t-40 45.5t-28.5 62.5t-11 85v292h10v-292q0 -45 10 -79t26 -60t36.5 -44.5t42.5 -33.5
q23 14 44 31.5t37.5 43t26.5 60t10 82.5v292h10v-292q0 -47 10 -81.5t26.5 -60t37.5 -43.5t44 -32q22 15 42.5 33.5t36.5 44.5t26 60t10 79v292zM197 534v10l212 166v-16z" />
    <glyph glyph-name="Wdieresis" unicode="&#x1e84;" horiz-adv-x="645" 
d="M597 664h10v-426q0 -56 -12.5 -95.5t-32.5 -68.5t-46.5 -50.5t-53.5 -39.5q-25 15 -48.5 33.5t-43 43t-32.5 56t-16 71.5q-3 -41 -16.5 -72.5t-33 -55.5t-43 -42.5t-47.5 -33.5q-27 18 -53.5 39.5t-46.5 50.5t-32.5 68.5t-12.5 95.5v426h10v-426q0 -50 11.5 -88t30.5 -67
t43 -50t49 -37q26 17 50.5 37t43.5 47.5t30.5 66t11.5 91.5v426h10v-426q0 -52 11 -90t30 -66t43.5 -48.5t51.5 -37.5q25 16 49 37t43 50t30.5 67t11.5 88v426zM225 726v133h16v-133h-16zM404 726v133h16v-133h-16z" />
    <glyph glyph-name="wdieresis" unicode="&#x1e85;" horiz-adv-x="566" 
d="M521 492h10v-292q0 -49 -11 -85t-28.5 -62.5t-40 -45.5t-46.5 -35q-22 14 -42.5 30.5t-37 38.5t-28 50t-14.5 64q-3 -37 -14.5 -65t-28 -50t-37.5 -38.5t-42 -29.5q-24 16 -46.5 35t-40 45.5t-28.5 62.5t-11 85v292h10v-292q0 -45 10 -79t26 -60t36.5 -44.5t42.5 -33.5
q23 14 44 31.5t37.5 43t26.5 60t10 82.5v292h10v-292q0 -47 10 -81.5t26.5 -60t37.5 -43.5t44 -32q22 15 42.5 33.5t36.5 44.5t26 60t10 79v292zM185 554v133h16v-133h-16zM364 554v133h16v-133h-16z" />
    <glyph glyph-name="Ygrave" unicode="&#x1ef2;" horiz-adv-x="407" 
d="M199 0v237q-32 18 -62.5 39.5t-54 50.5t-38 68.5t-14.5 93.5v175h10v-175q0 -52 14 -90t36.5 -66.5t52 -49t61.5 -37.5q32 17 61.5 37.5t52 49t36 66.5t13.5 90v175h10v-175q0 -54 -14 -93.5t-37 -69t-53.5 -50.5t-63.5 -39v-237h-10zM77 866v16l212 -166v-10z" />
    <glyph glyph-name="ygrave" unicode="&#x1ef3;" horiz-adv-x="403" 
d="M350 39q-23 -17 -61 -31t-98 -14q-32 0 -59.5 7t-47.5 24.5t-31.5 47.5t-11.5 77v342h10v-342q0 -44 10.5 -72t29.5 -44.5t44.5 -23t55.5 -6.5q60 0 98 14.5t61 31.5v442h10v-587q0 -43 -12 -72t-33.5 -46.5t-51 -25t-63.5 -7.5q-32 0 -59 7.5t-47 25t-31 46.5t-11 72v39
h10v-39q0 -40 10.5 -67t29 -43.5t43.5 -23.5t55 -7q32 0 59.5 7t47.5 23.5t31.5 43.5t11.5 67v134zM75 694v16l212 -166v-10z" />
    <glyph glyph-name="endash" unicode="&#x2013;" horiz-adv-x="469" 
d="M48 308v10h373v-10h-373z" />
    <glyph glyph-name="emdash" unicode="&#x2014;" horiz-adv-x="590" 
d="M24 308v10h542v-10h-542z" />
    <glyph glyph-name="quoteleft" unicode="&#x2018;" horiz-adv-x="135" 
d="M45 672h14l29 -272q-5 1 -11 13.5t-8 32.5z" />
    <glyph glyph-name="quoteright" unicode="&#x2019;" horiz-adv-x="135" 
d="M74 672h14l-24 -226q-2 -20 -8 -32.5t-11 -13.5z" />
    <glyph glyph-name="quotesinglbase" unicode="&#x201a;" horiz-adv-x="135" 
d="M74 151h14l-24 -226q-2 -20 -8 -32.5t-11 -13.5z" />
    <glyph glyph-name="quotedblleft" unicode="&#x201c;" horiz-adv-x="270" 
d="M45 672h14l29 -272q-5 1 -11 13.5t-8 32.5zM180 672h14l29 -272q-5 1 -11 13.5t-8 32.5z" />
    <glyph glyph-name="quotedblright" unicode="&#x201d;" horiz-adv-x="270" 
d="M74 672h14l-24 -226q-2 -20 -8 -32.5t-11 -13.5zM209 672h14l-24 -226q-2 -20 -8 -32.5t-11 -13.5z" />
    <glyph glyph-name="quotedblbase" unicode="&#x201e;" horiz-adv-x="270" 
d="M74 151h14l-24 -226q-2 -20 -8 -32.5t-11 -13.5zM209 151h14l-24 -226q-2 -20 -8 -32.5t-11 -13.5z" />
    <glyph glyph-name="dagger" unicode="&#x2020;" horiz-adv-x="320" 
d="M159 0v505h-115v10h115v149h10v-149h107v-10h-107v-505h-10z" />
    <glyph glyph-name="daggerdbl" unicode="&#x2021;" horiz-adv-x="320" 
d="M159 0v149h-115v10h115v346h-115v10h115v149h10v-149h107v-10h-107v-346h107v-10h-107v-149h-10z" />
    <glyph glyph-name="bullet" unicode="&#x2022;" horiz-adv-x="324" 
d="M269 343q0 -20 -8.5 -37t-22.5 -29.5t-33.5 -19.5t-41.5 -7q-46 0 -77 26.5t-31 66.5q0 42 31 68t77 26q45 0 75.5 -26t30.5 -68z" />
    <glyph glyph-name="ellipsis" unicode="&#x2026;" horiz-adv-x="785" 
d="M71 0v151h16v-151h-16zM385 0v151h16v-151h-16zM699 0v151h16v-151h-16z" />
    <glyph glyph-name="perthousand" unicode="&#x2030;" horiz-adv-x="641" 
d="M75 602q0 47 25.5 64.5t63.5 17.5q36 0 62 -17.5t26 -64.5v-186q0 -47 -26 -64.5t-62 -17.5q-38 0 -63.5 17.5t-25.5 64.5v186zM242 602q0 42 -23 57t-55 15q-34 0 -56.5 -15t-22.5 -57v-186q0 -41 22.5 -56.5t56.5 -15.5q16 0 30 3.5t24.5 12t17 22t6.5 34.5v186z
M37 -20l404 704h12l-404 -704h-12zM236 249q0 47 25.5 64.5t63.5 17.5q36 0 62 -17.5t26 -64.5v-186q0 -47 -26 -64.5t-62 -17.5q-38 0 -63.5 17.5t-25.5 64.5v186zM403 249q0 42 -23 57t-55 15q-34 0 -56.5 -15t-22.5 -57v-186q0 -41 22.5 -56.5t56.5 -15.5q16 0 30 3.5
t24.5 12t17 22t6.5 34.5v186zM427 249q0 47 25.5 64.5t63.5 17.5q36 0 62 -17.5t26 -64.5v-186q0 -47 -26 -64.5t-62 -17.5q-38 0 -63.5 17.5t-25.5 64.5v186zM594 249q0 42 -23 57t-55 15q-34 0 -56.5 -15t-22.5 -57v-186q0 -41 22.5 -56.5t56.5 -15.5q16 0 30 3.5t24.5 12
t17 22t6.5 34.5v186z" />
    <glyph glyph-name="guilsinglleft" unicode="&#x2039;" horiz-adv-x="183" 
d="M24 317l128 174l7 -9l-123 -164l123 -165l-7 -8z" />
    <glyph glyph-name="guilsinglright" unicode="&#x203a;" horiz-adv-x="183" 
d="M24 153l123 165l-123 164l7 9l128 -174l-128 -172z" />
    <glyph glyph-name="fraction" unicode="&#x2044;" horiz-adv-x="40" 
d="M-188 -20l404 704h12l-404 -704h-12z" />
    <glyph glyph-name="uni2070" unicode="&#x2070;" horiz-adv-x="241" 
d="M31 602q0 47 25.5 64.5t63.5 17.5q36 0 62 -17.5t26 -64.5v-186q0 -47 -26 -64.5t-62 -17.5q-38 0 -63.5 17.5t-25.5 64.5v186zM198 602q0 42 -23 57t-55 15q-34 0 -56.5 -15t-22.5 -57v-186q0 -41 22.5 -56.5t56.5 -15.5q16 0 30 3.5t24.5 12t17 22t6.5 34.5v186z" />
    <glyph glyph-name="uni2074" unicode="&#x2074;" horiz-adv-x="207" 
d="M160 343v73h-134v11l122 249h11l-123 -250h124v103h10v-186h-10z" />
    <glyph glyph-name="uni2075" unicode="&#x2075;" horiz-adv-x="235" 
d="M190 456q0 35 -14 52t-51 17q-14 0 -24 -1t-18.5 -4t-17 -8.5t-19.5 -14.5h-9l10 179h144v-10h-135l-9 -157q16 13 32.5 19.5t45.5 6.5q43 0 59 -20t16 -59v-40q0 -47 -25 -64.5t-63 -17.5q-35 0 -57 17.5t-22 64.5v32h10v-32q0 -42 18.5 -57t50.5 -15q34 0 56 15.5
t22 56.5v40z" />
    <glyph glyph-name="uni2076" unicode="&#x2076;" horiz-adv-x="240" 
d="M208 414q0 -46 -26 -63t-62 -17q-38 0 -63.5 17t-25.5 63v188q0 47 25.5 64.5t63.5 17.5q35 0 59.5 -17.5t24.5 -64.5v-22h-10v22q0 42 -21 57t-53 15q-34 0 -56.5 -15t-22.5 -57v-96q11 26 31 37t48 11q18 0 34 -3t28 -12t19 -24.5t7 -40.5v-60zM198 474q0 22 -6 36
t-16.5 21.5t-25 10t-30.5 2.5q-31 0 -51 -14t-28 -56v-60q0 -40 22.5 -55t56.5 -15q32 0 55 15t23 55v60z" />
    <glyph glyph-name="uni2077" unicode="&#x2077;" horiz-adv-x="212" 
d="M85 343q0 46 7 93t19 89.5t28 78.5t34 62h-149v10h160v-10q-19 -26 -35 -62.5t-28 -79t-19 -89.5t-7 -92h-10z" />
    <glyph glyph-name="uni2078" unicode="&#x2078;" horiz-adv-x="239" 
d="M207 416q0 -47 -25 -64.5t-63 -17.5t-63.5 17.5t-25.5 64.5v25q0 64 44 73q-41 14 -41 74v14q0 47 24 64.5t62 17.5q37 0 61.5 -17.5t24.5 -64.5v-14q0 -60 -42 -74q44 -9 44 -73v-25zM197 441q-1 32 -12.5 49.5t-41.5 17.5h-48q-30 0 -42.5 -17.5t-12.5 -49.5v-25
q0 -41 22.5 -56.5t56.5 -15.5t56 15.5t22 56.5v25zM195 602q0 42 -21 57t-55 15t-55 -15t-21 -57v-14q0 -32 12.5 -51t38.5 -19h49q26 0 39 19t13 51v14z" />
    <glyph glyph-name="uni2079" unicode="&#x2079;" horiz-adv-x="238" 
d="M196 517q-11 -27 -31 -38t-47 -11q-18 0 -34.5 3t-28.5 12t-19 24.5t-7 40.5v57q0 45 26 62t63 17t62.5 -17t25.5 -62v-189q0 -47 -25.5 -64.5t-62.5 -17.5q-36 0 -60.5 17.5t-24.5 64.5v27h10v-27q0 -42 21.5 -57t53.5 -15q33 0 55.5 15.5t22.5 56.5v101zM196 605
q0 40 -22.5 54.5t-55.5 14.5t-56 -14.5t-23 -54.5v-57q0 -22 6 -35.5t17 -21t25 -10.5t31 -3q30 0 50 15.5t28 54.5v57z" />
    <glyph glyph-name="uni2080" unicode="&#x2080;" horiz-adv-x="241" 
d="M31 249q0 47 25.5 64.5t63.5 17.5q36 0 62 -17.5t26 -64.5v-186q0 -47 -26 -64.5t-62 -17.5q-38 0 -63.5 17.5t-25.5 64.5v186zM198 249q0 42 -23 57t-55 15q-34 0 -56.5 -15t-22.5 -57v-186q0 -41 22.5 -56.5t56.5 -15.5q16 0 30 3.5t24.5 12t17 22t6.5 34.5v186z" />
    <glyph glyph-name="uni2081" unicode="&#x2081;" horiz-adv-x="161" 
d="M117 -10v255q0 42 -22 57t-55 15h-4.5t-8.5 -1v10q6 1 8.5 1h4.5q36 0 61.5 -17.5t25.5 -64.5v-255h-10z" />
    <glyph glyph-name="uni2082" unicode="&#x2082;" horiz-adv-x="232" 
d="M33 -10v74q0 25 2.5 42t9.5 28.5t20.5 19t34.5 14.5q26 8 43 14t27 14.5t14 20.5t4 33q0 38 -15 54.5t-57 16.5q-14 0 -26.5 -2t-22.5 -8t-15.5 -16.5t-5.5 -27.5v-30h-10v30q0 20 6.5 32.5t17.5 19.5t25.5 9.5t30.5 2.5q48 0 65 -19t17 -62q0 -17 -2.5 -30t-10.5 -23
t-23.5 -18t-42.5 -15q-27 -8 -42 -16.5t-22.5 -20t-9.5 -27t-2 -36.5v-64h153v-10h-163z" />
    <glyph glyph-name="uni2083" unicode="&#x2083;" horiz-adv-x="228" 
d="M187 88q0 32 -12.5 49.5t-42.5 17.5h-45v10h46q26 0 38.5 19t12.5 51v14q0 42 -21 57t-54 15q-32 0 -51 -15t-19 -57v-31h-10v31q0 47 22 64.5t58 17.5q37 0 61 -17.5t24 -64.5v-14q0 -60 -41 -74q44 -9 44 -73v-25q0 -47 -25.5 -64.5t-62.5 -17.5q-36 0 -58 17.5
t-22 64.5v32h10v-32q0 -42 19 -57t51 -15q33 0 55.5 15.5t22.5 56.5v25z" />
    <glyph glyph-name="uni2084" unicode="&#x2084;" horiz-adv-x="207" 
d="M160 -10v73h-134v11l122 249h11l-123 -250h124v103h10v-186h-10z" />
    <glyph glyph-name="uni2085" unicode="&#x2085;" horiz-adv-x="235" 
d="M190 103q0 35 -14 52t-51 17q-14 0 -24 -1t-18.5 -4t-17 -8.5t-19.5 -14.5h-9l10 179h144v-10h-135l-9 -157q16 13 32.5 19.5t45.5 6.5q43 0 59 -20t16 -59v-40q0 -47 -25 -64.5t-63 -17.5q-35 0 -57 17.5t-22 64.5v32h10v-32q0 -42 18.5 -57t50.5 -15q34 0 56 15.5
t22 56.5v40z" />
    <glyph glyph-name="uni2086" unicode="&#x2086;" horiz-adv-x="240" 
d="M208 61q0 -46 -26 -63t-62 -17q-38 0 -63.5 17t-25.5 63v188q0 47 25.5 64.5t63.5 17.5q35 0 59.5 -17.5t24.5 -64.5v-22h-10v22q0 42 -21 57t-53 15q-34 0 -56.5 -15t-22.5 -57v-96q11 26 31 37t48 11q18 0 34 -3t28 -12t19 -24.5t7 -40.5v-60zM198 121q0 22 -6 36
t-16.5 21.5t-25 10t-30.5 2.5q-31 0 -51 -14t-28 -56v-60q0 -40 22.5 -55t56.5 -15q32 0 55 15t23 55v60z" />
    <glyph glyph-name="uni2087" unicode="&#x2087;" horiz-adv-x="212" 
d="M85 -10q0 46 7 93t19 89.5t28 78.5t34 62h-149v10h160v-10q-19 -26 -35 -62.5t-28 -79t-19 -89.5t-7 -92h-10z" />
    <glyph glyph-name="uni2088" unicode="&#x2088;" horiz-adv-x="239" 
d="M207 63q0 -47 -25 -64.5t-63 -17.5t-63.5 17.5t-25.5 64.5v25q0 64 44 73q-41 14 -41 74v14q0 47 24 64.5t62 17.5q37 0 61.5 -17.5t24.5 -64.5v-14q0 -60 -42 -74q44 -9 44 -73v-25zM197 88q-1 32 -12.5 49.5t-41.5 17.5h-48q-30 0 -42.5 -17.5t-12.5 -49.5v-25
q0 -41 22.5 -56.5t56.5 -15.5t56 15.5t22 56.5v25zM195 249q0 42 -21 57t-55 15t-55 -15t-21 -57v-14q0 -32 12.5 -51t38.5 -19h49q26 0 39 19t13 51v14z" />
    <glyph glyph-name="uni2089" unicode="&#x2089;" horiz-adv-x="238" 
d="M196 164q-11 -27 -31 -38t-47 -11q-18 0 -34.5 3t-28.5 12t-19 24.5t-7 40.5v57q0 45 26 62t63 17t62.5 -17t25.5 -62v-189q0 -47 -25.5 -64.5t-62.5 -17.5q-36 0 -60.5 17.5t-24.5 64.5v27h10v-27q0 -42 21.5 -57t53.5 -15q33 0 55.5 15.5t22.5 56.5v101zM196 252
q0 40 -22.5 54.5t-55.5 14.5t-56 -14.5t-23 -54.5v-57q0 -22 6 -35.5t17 -21t25 -10.5t31 -3q30 0 50 15.5t28 54.5v57z" />
    <glyph glyph-name="Euro" unicode="&#x20ac;" horiz-adv-x="349" 
d="M313 -9q-24 -8 -78 -8q-37 0 -69 8t-55 26.5t-36.5 49.5t-13.5 78v121h-36l2 10h34v120h-36l2 10h34v112q0 46 13.5 77.5t36.5 50t55 26.5t69 8q33 0 71 -9l-2 -10q-22 5 -38.5 7t-30.5 2q-35 0 -65 -7.5t-52 -25t-34.5 -47t-12.5 -72.5v-112h197l-2 -10h-195v-120h179
l-2 -10h-177v-121q0 -44 12.5 -73t34.5 -46.5t52 -25t65 -7.5q46 0 78 7v-9z" />
    <glyph glyph-name="trademark" unicode="&#x2122;" horiz-adv-x="549" 
d="M109 353v309h-73v10h155v-10h-72v-309h-10zM497 353v246q0 36 -18.5 53.5t-49.5 17.5q-41 0 -60 -18v-299h-10v299q-11 10 -30.5 14t-34.5 4q-20 0 -35 -3t-26 -8v-306h-10v314q10 5 28 9t43 4q17 0 38 -4.5t32 -15.5q9 8 26.5 14t38.5 6q35 0 56.5 -20.5t21.5 -60.5
v-246h-10z" />
    <glyph glyph-name="onethird" unicode="&#x2153;" horiz-adv-x="499" 
d="M151 343v255q0 42 -22 57t-55 15h-4.5t-8.5 -1v10q6 1 8.5 1h4.5q36 0 61.5 -17.5t25.5 -64.5v-255h-10zM37 -20l404 704h12l-404 -704h-12zM452 88q0 32 -12.5 49.5t-42.5 17.5h-45v10h46q26 0 38.5 19t12.5 51v14q0 42 -21 57t-54 15q-32 0 -51 -15t-19 -57v-31h-10v31
q0 47 22 64.5t58 17.5q37 0 61 -17.5t24 -64.5v-14q0 -60 -41 -74q44 -9 44 -73v-25q0 -47 -25.5 -64.5t-62.5 -17.5q-36 0 -58 17.5t-22 64.5v32h10v-32q0 -42 19 -57t51 -15q33 0 55.5 15.5t22.5 56.5v25z" />
    <glyph glyph-name="twothirds" unicode="&#x2154;" horiz-adv-x="491" 
d="M46 343v74q0 25 2.5 42t9.5 28.5t20.5 19t34.5 14.5q26 8 43 14t27 14.5t14 20.5t4 33q0 38 -15 54.5t-57 16.5q-14 0 -26.5 -2t-22.5 -8t-15.5 -16.5t-5.5 -27.5v-30h-10v30q0 20 6.5 32.5t17.5 19.5t25.5 9.5t30.5 2.5q48 0 65 -19t17 -62q0 -17 -2.5 -30t-10.5 -23
t-23.5 -18t-42.5 -15q-27 -8 -42 -16.5t-22.5 -20t-9.5 -27t-2 -36.5v-64h153v-10h-163zM37 -20l404 704h12l-404 -704h-12zM432 88q0 32 -12.5 49.5t-42.5 17.5h-45v10h46q26 0 38.5 19t12.5 51v14q0 42 -21 57t-54 15q-32 0 -51 -15t-19 -57v-31h-10v31q0 47 22 64.5
t58 17.5q37 0 61 -17.5t24 -64.5v-14q0 -60 -41 -74q44 -9 44 -73v-25q0 -47 -25.5 -64.5t-62.5 -17.5q-36 0 -58 17.5t-22 64.5v32h10v-32q0 -42 19 -57t51 -15q33 0 55.5 15.5t22.5 56.5v25z" />
    <glyph glyph-name="oneeighth" unicode="&#x215b;" horiz-adv-x="499" 
d="M151 343v255q0 42 -22 57t-55 15h-4.5t-8.5 -1v10q6 1 8.5 1h4.5q36 0 61.5 -17.5t25.5 -64.5v-255h-10zM37 -20l404 704h12l-404 -704h-12zM462 63q0 -47 -25 -64.5t-63 -17.5t-63.5 17.5t-25.5 64.5v25q0 64 44 73q-41 14 -41 74v14q0 47 24 64.5t62 17.5
q37 0 61.5 -17.5t24.5 -64.5v-14q0 -60 -42 -74q44 -9 44 -73v-25zM452 88q-1 32 -12.5 49.5t-41.5 17.5h-48q-30 0 -42.5 -17.5t-12.5 -49.5v-25q0 -41 22.5 -56.5t56.5 -15.5t56 15.5t22 56.5v25zM450 249q0 42 -21 57t-55 15t-55 -15t-21 -57v-14q0 -32 12.5 -51
t38.5 -19h49q26 0 39 19t13 51v14z" />
    <glyph glyph-name="threeeighths" unicode="&#x215c;" horiz-adv-x="491" 
d="M224 441q0 32 -12.5 49.5t-42.5 17.5h-45v10h46q26 0 38.5 19t12.5 51v14q0 42 -21 57t-54 15q-32 0 -51 -15t-19 -57v-31h-10v31q0 47 22 64.5t58 17.5q37 0 61 -17.5t24 -64.5v-14q0 -60 -41 -74q44 -9 44 -73v-25q0 -47 -25.5 -64.5t-62.5 -17.5q-36 0 -58 17.5
t-22 64.5v32h10v-32q0 -42 19 -57t51 -15q33 0 55.5 15.5t22.5 56.5v25zM37 -20l404 704h12l-404 -704h-12zM442 63q0 -47 -25 -64.5t-63 -17.5t-63.5 17.5t-25.5 64.5v25q0 64 44 73q-41 14 -41 74v14q0 47 24 64.5t62 17.5q37 0 61.5 -17.5t24.5 -64.5v-14q0 -60 -42 -74
q44 -9 44 -73v-25zM432 88q-1 32 -12.5 49.5t-41.5 17.5h-48q-30 0 -42.5 -17.5t-12.5 -49.5v-25q0 -41 22.5 -56.5t56.5 -15.5t56 15.5t22 56.5v25zM430 249q0 42 -21 57t-55 15t-55 -15t-21 -57v-14q0 -32 12.5 -51t38.5 -19h49q26 0 39 19t13 51v14z" />
    <glyph glyph-name="fiveeighths" unicode="&#x215d;" horiz-adv-x="491" 
d="M220 456q0 35 -14 52t-51 17q-14 0 -24 -1t-18.5 -4t-17 -8.5t-19.5 -14.5h-9l10 179h144v-10h-135l-9 -157q16 13 32.5 19.5t45.5 6.5q43 0 59 -20t16 -59v-40q0 -47 -25 -64.5t-63 -17.5q-35 0 -57 17.5t-22 64.5v32h10v-32q0 -42 18.5 -57t50.5 -15q34 0 56 15.5
t22 56.5v40zM37 -20l404 704h12l-404 -704h-12zM442 63q0 -47 -25 -64.5t-63 -17.5t-63.5 17.5t-25.5 64.5v25q0 64 44 73q-41 14 -41 74v14q0 47 24 64.5t62 17.5q37 0 61.5 -17.5t24.5 -64.5v-14q0 -60 -42 -74q44 -9 44 -73v-25zM432 88q-1 32 -12.5 49.5t-41.5 17.5h-48
q-30 0 -42.5 -17.5t-12.5 -49.5v-25q0 -41 22.5 -56.5t56.5 -15.5t56 15.5t22 56.5v25zM430 249q0 42 -21 57t-55 15t-55 -15t-21 -57v-14q0 -32 12.5 -51t38.5 -19h49q26 0 39 19t13 51v14z" />
    <glyph glyph-name="seveneighths" unicode="&#x215e;" horiz-adv-x="499" 
d="M158 343q0 46 7 93t19 89.5t28 78.5t34 62h-149v10h160v-10q-19 -26 -35 -62.5t-28 -79t-19 -89.5t-7 -92h-10zM37 -20l404 704h12l-404 -704h-12zM462 63q0 -47 -25 -64.5t-63 -17.5t-63.5 17.5t-25.5 64.5v25q0 64 44 73q-41 14 -41 74v14q0 47 24 64.5t62 17.5
q37 0 61.5 -17.5t24.5 -64.5v-14q0 -60 -42 -74q44 -9 44 -73v-25zM452 88q-1 32 -12.5 49.5t-41.5 17.5h-48q-30 0 -42.5 -17.5t-12.5 -49.5v-25q0 -41 22.5 -56.5t56.5 -15.5t56 15.5t22 56.5v25zM450 249q0 42 -21 57t-55 15t-55 -15t-21 -57v-14q0 -32 12.5 -51
t38.5 -19h49q26 0 39 19t13 51v14z" />
    <glyph glyph-name="partialdiff" unicode="&#x2202;" horiz-adv-x="449" 
d="M184 675q25 5 43 5q36 0 70 -15.5t60 -49t41.5 -86t15.5 -125.5q0 -83 -10 -159t-34 -134t-64 -93t-101 -35q-47 0 -79.5 15t-52.5 42.5t-29 67.5t-9 91q0 112 48.5 173.5t135.5 61.5q35 0 65 -12.5t52.5 -40t36 -72.5t15.5 -110q11 49 13.5 100t2.5 105
q0 70 -14.5 120.5t-39.5 83t-57 47.5t-66 15q-11 0 -21.5 -1t-21.5 -4v10zM381 177q-2 68 -14.5 115t-34 76.5t-50.5 42.5t-63 13q-81 0 -127.5 -58t-46.5 -167q0 -97 35.5 -151.5t124.5 -54.5q71 0 113 51t63 133z" />
    <glyph glyph-name="product" unicode="&#x220f;" horiz-adv-x="446" 
d="M392 -233v887h-338v-887h-10v897h358v-897h-10z" />
    <glyph glyph-name="summation" unicode="&#x2211;" horiz-adv-x="413" 
d="M48 -182v10l217 413l-217 413v10h317v-10h-305l217 -413l-218 -413h306v-10h-317z" />
    <glyph glyph-name="minus" unicode="&#x2212;" horiz-adv-x="535" 
d="M50 341v10h434v-10h-434z" />
    <glyph glyph-name="radical" unicode="&#x221a;" horiz-adv-x="531" 
d="M262 0l-129 356h-104v10h114l123 -349l240 647h11l-246 -664h-9z" />
    <glyph glyph-name="infinity" unicode="&#x221e;" horiz-adv-x="551" 
d="M276 322q-18 -80 -49.5 -113.5t-85.5 -33.5t-91.5 41.5t-37.5 123.5t37.5 123.5t91.5 41.5t85.5 -33.5t49.5 -113.5q16 80 46.5 113.5t88.5 33.5q27 0 50 -10.5t40.5 -31t27.5 -51.5t10 -72t-10 -72t-27.5 -51.5t-40.5 -31t-50 -10.5q-58 0 -88.5 33.5t-46.5 113.5z
M280 340q8 -44 19.5 -74t27.5 -48t36.5 -25.5t47.5 -7.5q49 0 83.5 39t34.5 116t-34.5 116t-83.5 39q-27 0 -47.5 -7.5t-36.5 -25.5t-27.5 -48t-19.5 -74zM273 340q-20 85 -51.5 120t-80.5 35q-50 0 -84.5 -39t-34.5 -116t34.5 -116t84.5 -39q49 0 80.5 35t51.5 120z" />
    <glyph glyph-name="integral" unicode="&#x222b;" horiz-adv-x="414" 
d="M11 -233v10h21q35 0 66 8.5t54 29t36.5 53.5t13.5 82v539q0 51 14 86t38.5 56.5t57 31t70.5 9.5h21v-10h-21q-35 0 -66 -9t-54 -29t-36.5 -53t-13.5 -82v-539q0 -51 -14 -86t-38.5 -56.5t-57.5 -31t-70 -9.5h-21z" />
    <glyph glyph-name="approxequal" unicode="&#x2248;" horiz-adv-x="562" 
d="M511 241q-29 -35 -61 -51t-75 -16q-29 0 -52.5 11t-47 24.5t-48.5 24.5t-55 11q-39 0 -68.5 -19t-53.5 -53v15q21 25 50.5 46t71.5 21q31 0 56.5 -11t49 -24.5t47 -24.5t50.5 -11q39 0 72 16t64 55v-14zM511 440q-29 -35 -61 -51t-75 -16q-29 0 -52.5 11t-47 24.5
t-48.5 24.5t-55 11q-39 0 -68.5 -19t-53.5 -53v15q21 25 50.5 46t71.5 21q31 0 56.5 -11t49 -24.5t47 -24.5t50.5 -11q39 0 72 16t64 55v-14z" />
    <glyph glyph-name="notequal" unicode="&#x2260;" horiz-adv-x="502" 
d="M195 237l-169 -257h-13l169 257h-143v10h149l127 193h-276v10h283l154 234h13l-154 -234h128v-10h-135l-127 -193h262v-10h-268z" />
    <glyph glyph-name="lessequal" unicode="&#x2264;" horiz-adv-x="535" 
d="M50 338v10l434 242v-12l-423 -235l423 -235v-12zM50 52v10h434v-10h-434z" />
    <glyph glyph-name="greaterequal" unicode="&#x2265;" horiz-adv-x="535" 
d="M50 96v12l423 235l-423 235v12l434 -242v-10zM50 52v10h434v-10h-434z" />
    <glyph glyph-name="lozenge" unicode="&#x25ca;" horiz-adv-x="496" 
d="M249 0l-213 332l213 332h7l204 -332l-204 -332h-7zM448 332l-195 320l-206 -320l205 -319z" />
    <glyph glyph-name="uniF8FF" unicode="&#xf8ff;" horiz-adv-x="180" 
 />
    <glyph glyph-name="glyph398" horiz-adv-x="0" 
 />
    </font>
</defs>
</svg>
